osu file format v14

[General]
AudioFilename: Exterminate.mp3
AudioLeadIn: 0
PreviewTime: 76152
Countdown: 0
SampleSet: Soft
StackLeniency: 0.7
Mode: 0
LetterboxInBreaks: 0
WidescreenStoryboard: 1

[Editor]
Bookmarks: 22100,26927,50720
DistanceSpacing: 1.4
BeatDivisor: 4
GridSize: 4
TimelineZoom: 1.400006

[Metadata]
Title:Exterminate
TitleUnicode:Exterminate
Artist:Nana Mizuki
ArtistUnicode:水樹奈々
Creator:Blizs
Version:ShiraKai's Hard
Source:戦姫絶唱シンフォギアGX
Tags:Senki Zesshou Symphogear GX opening TV Size Elements Garden 上松範康 Agematsu Noriyasu Fantastica ShiraKai Natsu Euny Luna- Dark_Accelerator
BeatmapID:1406634
BeatmapSetID:351537

[Difficulty]
HPDrainRate:5
CircleSize:3.7
OverallDifficulty:6
ApproachRate:7.5
SliderMultiplier:1.4
SliderTickRate:1

[Events]
//Background and Video events
Video,0,"Exterminate.avi"
0,0,"Senki.Zesshou.Symphogear.full.1596610.jpg",0,0
//Break Periods
2,74024,75413
//Storyboard Layer 0 (Background)
//Storyboard Layer 1 (Fail)
//Storyboard Layer 2 (Pass)
//Storyboard Layer 3 (Foreground)
//Storyboard Sound Samples

[TimingPoints]
435,600,4,2,1,30,1,0
1035,600,4,2,1,30,1,0
11835,631.578947368421,4,2,1,30,1,0
12466,568.720379146919,4,2,1,30,1,0
13034,606.060606060606,4,2,1,30,1,0
15459,652.173913043478,4,2,1,30,1,0
15785,731.707317073171,4,2,1,30,1,0
16150,645.161290322581,4,2,1,30,1,0
16472,833.333333333333,4,2,1,30,1,0
16888,882.352941176471,4,2,1,30,1,0
18652,344.827586206897,4,2,1,50,1,0
22100,-100,4,2,1,50,0,0
24169,-100,4,2,1,60,0,0
36583,-100,4,2,1,50,0,0
44858,-100,4,2,1,60,0,0
46238,-100,4,2,1,50,0,0
46410,-100,4,2,1,70,0,0
47617,-100,4,2,1,50,0,0
53134,-100,4,2,1,60,0,0
53996,-100,4,2,1,70,0,0
54514,-100,4,2,1,60,0,0
55376,-100,4,2,1,70,0,0
55893,-100,4,2,1,60,0,0
56583,-100,4,2,1,50,0,0
57272,-100,4,2,1,40,0,0
58652,-100,4,2,1,35,0,0
58996,-100,4,2,1,40,0,0
59341,-100,4,2,1,45,0,0
59686,-100,4,2,1,50,0,0
60031,-100,4,2,1,60,0,0
71065,-100,4,2,1,65,0,0
71755,-100,4,2,1,70,0,0
72445,-100,4,2,1,75,0,0
73134,-100,4,2,1,80,0,0
76238,-125,4,2,1,40,0,0
76583,-100,4,2,1,70,0,1
79341,-100,4,2,1,50,0,1
80031,-100,4,2,1,60,0,1
80720,-100,4,2,1,70,0,1
81410,-100,4,2,1,80,0,1
81755,-125,4,2,1,80,0,1
82100,-100,4,2,1,70,0,1
87445,-100,4,2,1,60,0,0
94514,-100,4,2,1,60,0,0
97100,-100,4,2,1,60,0,0

[Colours]
Combo1 : 255,255,183
Combo2 : 255,165,121
Combo3 : 128,128,255
Combo4 : 218,218,218
Combo5 : 255,170,193

[HitObjects]
393,252,10635,6,0,B|372:257|372:257|347:252|347:252|322:262|255:260,1,140,2|2,0:0|0:0,0:0:0:0:
184,319,11835,1,2,0:0:0:0:
184,319,12466,2,0,P|204:252|189:185,1,140,2|2,0:0|0:0,0:0:0:0:
136,102,13640,1,0,0:0:0:0:
136,102,14246,6,0,B|154:103|176:95|176:95|194:101|194:101|212:94|212:94|230:103|230:103|249:103|270:98,1,140,2|0,0:0|0:0,0:0:0:0:
334,33,15459,6,0,P|353:62|364:95,1,70,0|0,0:0|0:0,0:0:0:0:
340,145,16150,6,0,P|373:156|402:175,1,70,0|0,0:0|0:0,0:0:0:0:
427,213,16888,6,0,B|465:208|465:208|495:217,1,70,0|0,0:0|0:0,0:0:0:0:
495,301,17770,2,0,B|457:306|457:306|426:296,1,70,0|0,0:0|0:0,0:0:0:0:
351,264,18652,6,0,P|329:292|300:310,1,70,4|0,3:2|0:0,0:0:0:0:
216,345,18996,2,0,P|183:331|148:329,1,70,2|2,0:0|0:0,0:0:0:0:
89,262,19341,1,8,0:0:0:0:
168,216,19514,2,0,L|172:146,1,70,2|0,0:0|0:0,0:0:0:0:
82,160,19858,6,0,B|69:55|69:55|83:75|91:80,1,140,2|2,0:0|0:0,0:0:0:0:
176,46,20376,2,0,P|183:23|199:6,2,46.6666666666667,0|0|0,0:0|0:0|0:0,0:0:0:0:
192,69,20720,6,0,P|221:50|255:47,1,70,8|0,0:0|0:0,0:0:0:0:
300,125,21065,2,0,P|334:123|366:137,1,70,2|0,0:0|0:0,0:0:0:0:
444,90,21410,6,0,B|465:132|465:132|464:174|440:220,1,140,4|0,3:0|1:0,0:0:0:0:
486,299,21927,1,0,1:0:0:0:
394,302,22100,1,8,0:0:0:0:
341,375,22272,1,0,0:0:0:0:
270,202,22617,1,2,0:0:0:0:
270,202,22962,6,0,B|286:224|316:217|322:189|301:169|260:179|260:179|232:196|191:203|163:189,1,210,8|8,0:0|0:0,0:0:0:0:
80,149,23652,1,0,0:0:0:0:
114,66,23824,2,0,P|148:76|178:93,1,70,2|2,0:0|0:0,0:0:0:0:
277,65,24169,6,0,B|268:110|268:110|278:159|278:159|270:202,1,140,6|10,3:2|0:0,0:0:0:0:
211,272,24686,1,2,0:0:0:0:
211,272,24858,2,0,B|221:314|213:358|213:358|233:332|256:328,1,140,2|10,3:2|0:0,0:0:0:0:
345,343,25376,1,2,0:0:0:0:
419,291,25548,6,0,P|449:308|473:333,1,70,2|0,3:2|0:0,0:0:0:0:
442,209,25893,2,0,P|476:208|510:218,1,70,10|0,0:0|0:0,0:0:0:0:
393,136,26238,2,0,P|408:127|424:120,2,35,2|2|2,3:2|0:0|0:0,0:0:0:0:
320,191,26583,2,0,L|233:177,1,70,8|0,0:0|0:0,0:0:0:0:
173,132,26927,6,0,P|123:148|71:154,2,105,2|2|2,3:2|0:0|0:0,0:0:0:0:
229,59,27617,2,0,P|278:75|330:81,2,105,2|2|2,3:2|0:0|0:0,0:0:0:0:
151,10,28307,5,2,3:2:0:0:
151,10,28393,1,2,0:0:0:0:
151,10,28479,2,0,P|117:10|83:19,1,70,2|8,0:0|0:0,0:0:0:0:
17,83,28824,1,0,0:0:0:0:
102,111,28996,2,0,P|101:146|97:181,1,70,4|0,3:2|0:0,0:0:0:0:
9,204,29341,2,0,P|9:238|13:273,1,70,8|0,0:0|0:0,0:0:0:0:
95,312,29686,6,0,P|163:297|232:302,1,140,6|10,3:2|0:0,0:0:0:0:
307,354,30203,1,2,0:0:0:0:
232,302,30376,2,0,B|213:254|211:205|211:205|227:220|245:226,1,140,2|10,3:2|0:0,0:0:0:0:
328,261,30893,1,2,0:0:0:0:
407,216,31065,6,0,P|436:197|470:191,1,70,2|0,3:2|0:0,0:0:0:0:
324,158,31410,2,0,P|289:151|260:133,1,70,10|0,0:0|0:0,0:0:0:0:
325,70,31755,1,2,3:2:0:0:
325,70,31841,1,2,0:0:0:0:
325,70,31927,1,2,0:0:0:0:
406,110,32100,1,8,0:0:0:0:
402,19,32272,6,0,B|361:34|361:34|328:22|328:22|302:37|269:39,1,140,4|4,3:1|3:1,0:0:0:0:
183,9,32789,2,0,P|176:43|160:74,1,70,4|4,3:1|3:1,0:0:0:0:
101,143,33134,1,4,3:1:0:0:
238,211,33479,1,4,3:1:0:0:
94,267,33824,6,0,P|62:282|28:290,2,70,4|0|8,3:2|0:0|0:0,0:0:0:0:
183,285,34341,2,0,B|195:308|195:308|197:324|197:324|210:349,2,70,0|0|0,0:0|3:0|0:0,0:0:0:0:
238,211,34858,2,0,P|271:219|303:233,1,70,8|0,0:0|0:0,0:0:0:0:
394,223,35203,6,0,L|379:291,1,70,0|0,3:0|0:0,0:0:0:0:
489,244,35548,2,0,L|474:175,1,70,8|0,0:0|0:0,0:0:0:0:
488,85,35893,1,2,3:2:0:0:
404,119,36065,1,2,0:0:0:0:
339,54,36238,2,0,P|367:34|401:26,1,70,8|0,0:0|1:0,0:0:0:0:
266,109,36583,6,0,L|196:99,2,70,4|0|8,3:2|0:0|0:0,0:0:0:0:
322,183,37100,1,0,0:0:0:0:
398,134,37272,2,0,P|410:166|410:201,1,70,0|0,3:0|0:0,0:0:0:0:
502,202,37617,2,0,P|496:236|479:266,1,70,10|0,0:0|0:0,0:0:0:0:
389,292,37962,6,0,B|370:282|354:266|354:266|312:286|312:286|256:277,1,140,2|8,3:2|0:0,0:0:0:0:
219,358,38479,1,0,0:0:0:0:
219,358,38565,1,0,0:0:0:0:
219,358,38652,2,0,P|185:348|151:340,1,70,0|0,3:0|0:0,0:0:0:0:
61,354,38996,2,0,P|63:319|76:286,1,70,10|0,0:0|0:0,0:0:0:0:
161,253,39341,5,2,3:2:0:0:
92,192,39514,1,0,0:0:0:0:
9,228,39686,2,0,P|-1:194|0:159,1,70,8|0,0:0|0:0,0:0:0:0:
62,93,40031,2,0,L|72:18,2,70,0|0|10,3:0|0:0|0:0,0:0:0:0:
149,118,40548,5,0,0:0:0:0:
149,118,40720,2,0,P|190:67|253:86,1,140,2|8,3:2|0:0,0:0:0:0:
261,178,41238,1,0,0:0:0:0:
261,178,41324,1,0,0:0:0:0:
261,178,41410,2,0,P|264:212|252:251,2,70,0|0|10,3:0|0:0|0:0,0:0:0:0:
174,205,41927,1,0,0:0:0:0:
148,117,42100,6,0,B|164:97|178:65|178:65|217:82|254:87,1,140,2|8,3:2|0:0,0:0:0:0:
343,106,42617,2,0,P|338:71|331:36,1,70,0|0,0:0|3:0,0:0:0:0:
445,83,42962,2,0,P|437:117|433:152,1,70,0|10,0:0|0:0,0:0:0:0:
382,228,43307,6,0,B|405:216|419:192|419:192|465:194|500:221,1,140,0|0,0:0|0:0,0:0:0:0:
474,319,43824,1,8,0:0:0:0:
474,319,43996,2,0,B|420:307|420:307|395:321|395:321|340:310,1,140,0|0,0:0|0:0,0:0:0:0:
289,233,44514,5,8,0:0:0:0:
251,315,44686,1,2,0:0:0:0:
171,359,44858,2,0,L|101:348,1,70,4|0,3:2|0:0,0:0:0:0:
0,273,45203,2,0,L|69:263,1,70,8|0,0:0|0:0,0:0:0:0:
161,172,45548,2,0,P|178:220|160:269,2,105,12|0|0,0:0|3:0|3:0,0:0:0:0:
99,105,46238,5,4,3:2:0:0:
99,105,46410,2,0,B|148:126|148:126|232:93,1,140,12|4,0:0|3:2,0:0:0:0:
319,81,46927,2,0,B|312:52|312:52|285:21,1,70,12|0,0:0|3:0,0:0:0:0:
282,165,47272,2,0,B|310:173|310:173|350:165,1,70,12|8,0:0|0:0,0:0:0:0:
413,99,47617,6,0,P|426:55|426:28,2,70,4|0|8,3:2|0:0|0:0,0:0:0:0:
472,168,48134,1,0,0:0:0:0:
472,168,48307,2,0,P|485:212|485:239,1,70,0|0,3:0|0:0,0:0:0:0:
395,255,48652,2,0,L|387:337,1,70,10|0,0:0|0:0,0:0:0:0:
308,281,48996,6,0,B|282:276|259:263|259:263|234:269|234:269|211:267|211:267|173:278,1,140,2|8,3:2|0:0,0:0:0:0:
111,345,49514,1,0,0:0:0:0:
111,345,49600,1,0,0:0:0:0:
111,345,49686,2,0,B|116:319|129:296|129:296|123:271|123:271|125:248|125:248|113:210,1,140,0|10,3:0|0:0,0:0:0:0:
45,150,50203,1,0,0:0:0:0:
106,82,50376,6,0,P|129:56|162:44,1,70,2|0,3:2|0:0,0:0:0:0:
178,132,50720,2,0,P|247:121|313:143,1,140,8|0,0:0|3:0,0:0:0:0:
400,114,51238,1,0,0:0:0:0:
400,114,51410,2,0,P|410:80|414:46,1,70,10|0,0:0|0:0,0:0:0:0:
314,6,51755,6,0,B|328:43|320:85|309:68|300:113|313:143,1,140,2|8,3:2|0:0,0:0:0:0:
381,203,52272,1,0,0:0:0:0:
381,203,52445,2,0,P|423:206|457:231,1,70,0|0,3:0|0:0,0:0:0:0:
425,308,52789,2,0,P|390:306|359:290,1,70,10|0,0:0|0:0,0:0:0:0:
284,238,53134,6,0,L|170:254,2,105,4|0|0,3:2|3:0|3:0,0:0:0:0:
122,321,53996,1,4,3:2:0:0:
122,321,54169,1,8,0:0:0:0:
209,161,54514,6,0,L|95:145,2,105,4|2|0,3:2|0:0|3:0,0:0:0:0:
122,321,55376,1,4,3:2:0:0:
122,321,55548,1,8,0:0:0:0:
284,238,55893,6,0,L|170:254,2,105,4|0|0,3:2|0:0|0:0,0:0:0:0:
209,161,56583,2,0,L|105:146,2,105,4|0|0,3:2|0:0|1:0,0:0:0:0:
266,90,57272,6,0,B|295:61|308:16|308:16|312:75|340:134,1,210,4|0,3:2|3:0,0:0:0:0:
416,84,57962,2,0,P|478:105|483:171,1,140,8|0,0:0|3:0,0:0:0:0:
325,262,58652,5,0,3:0:0:0:
480,355,58996,1,0,3:0:0:0:
483,171,59341,1,0,3:0:0:0:
325,262,59686,1,0,3:0:0:0:
479,355,60031,6,0,P|485:320|501:288,1,70,4|0,3:2|0:0,0:0:0:0:
415,255,60376,2,0,L|399:184,1,70,8|0,0:0|0:0,0:0:0:0:
325,262,60720,2,0,P|259:247|208:292,1,140,0|8,3:0|0:0,0:0:0:0:
149,362,61238,5,2,0:0:0:0:
149,362,61324,1,2,0:0:0:0:
149,362,61410,2,0,L|59:354,1,70,0|0,3:0|0:0,0:0:0:0:
49,269,61755,2,0,L|139:261,1,70,8|0,0:0|0:0,0:0:0:0:
148,176,62100,2,0,B|170:137|206:98|206:98|206:122|211:140,1,140,0|10,3:0|0:0,0:0:0:0:
261,219,62617,5,2,0:0:0:0:
261,219,62703,1,2,0:0:0:0:
261,219,62789,2,0,P|295:225|327:239,1,70,0|0,3:0|0:0,0:0:0:0:
416,220,63134,2,0,L|409:289,1,70,8|0,0:0|0:0,0:0:0:0:
509,256,63479,2,0,L|494:115,1,140,0|8,3:0|0:0,0:0:0:0:
483,26,63996,5,2,0:0:0:0:
483,26,64083,1,0,0:0:0:0:
483,25,64169,2,0,P|449:35|422:57,1,70,0|0,3:0|0:0,0:0:0:0:
352,116,64514,2,0,P|318:106|291:84,1,70,8|0,0:0|0:0,0:0:0:0:
220,28,64858,2,0,B|167:42|167:42|128:33|128:33|83:41,1,140,2|10,3:2|0:0,0:0:0:0:
12,158,65376,6,0,B|34:172|62:183|62:183|87:143|122:125,1,140,4|0,3:2|0:0,0:0:0:0:
186,189,65893,2,0,P|169:222|144:243,1,70,8|0,0:0|0:0,0:0:0:0:
58,277,66238,2,0,B|60:326|80:373|80:373|93:355|112:347,1,140,2|10,3:2|0:0,0:0:0:0:
198,318,66755,6,0,P|265:334|335:339,1,140,4|0,3:2|3:0,0:0:0:0:
416,382,67272,2,0,L|428:313,1,70,8|0,0:0|0:0,0:0:0:0:
507,267,67617,2,0,P|459:218|392:223,1,140,2|10,3:2|0:0,0:0:0:0:
258,244,68134,6,0,P|306:196|301:129,1,140,4|0,3:2|0:0,0:0:0:0:
310,37,68652,2,0,P|273:37|239:56,1,70,8|0,0:0|0:0,0:0:0:0:
154,36,68996,2,0,L|168:112,1,70,2|0,3:2|0:0,0:0:0:0:
76,93,69341,5,10,0:0:0:0:
76,93,69514,2,0,P|27:140|32:207,1,140,4|0,3:2|3:0,0:0:0:0:
77,287,70031,2,0,P|108:271|142:272,1,70,8|0,0:0|0:0,0:0:0:0:
204,205,70376,2,0,P|156:184|100:171,2,105,4|4|4,3:1|3:1|3:1,0:0:0:0:
273,290,71065,6,0,B|305:229|305:229|296:158,1,140,4|8,3:2|0:0,0:0:0:0:
283,67,71583,1,0,0:0:0:0:
283,67,71755,6,0,B|319:125|319:125|385:152,1,140,4|8,3:2|0:0,0:0:0:0:
469,187,72272,1,0,0:0:0:0:
469,187,72444,6,0,B|400:189|400:189|343:232,1,140,4|8,3:2|0:0,0:0:0:0:
273,290,72962,1,0,0:0:0:0:
273,289,73134,6,0,P|276:324|287:357,1,70,4|4,3:2|3:2,0:0:0:0:
369,317,73479,2,0,P|402:329|437:334,1,70,4|4,3:2|3:2,0:0:0:0:
504,271,73824,1,4,3:2:0:0:
175,231,76238,6,0,P|187:255|195:282,1,56,2|0,0:0|0:0,0:0:0:0:
223,292,76583,6,0,P|215:326|202:358,1,70,4|2,3:2|0:0,0:0:0:0:
109,327,76927,2,0,L|39:334,1,70,8|2,0:0|0:3,0:0:0:0:
7,230,77272,2,0,L|76:237,1,70,0|2,3:0|0:0,0:0:0:0:
141,131,77617,2,0,L|72:138,1,70,8|0,0:0|0:0,0:0:0:0:
5,64,77962,6,0,P|37:4|104:-2,1,140,0|8,3:0|0:0,0:0:0:0:
190,45,78479,1,2,0:3:0:0:
190,45,78652,2,0,B|239:37|239:37|270:47|270:47|325:35,1,140,0|8,3:0|0:0,0:0:0:0:
423,21,79169,1,0,0:0:0:0:
423,21,79341,6,0,P|418:72|381:107,1,105,0|2,3:2|0:0,0:0:0:0:
348,118,79686,2,0,P|361:151|367:186,1,70,12|2,0:0|0:3,0:0:0:0:
465,184,80031,6,0,P|457:235|440:285,1,105,0|2,3:0|0:0,0:0:0:0:
449,319,80376,2,0,L|380:305,1,70,12|2,0:0|0:3,0:0:0:0:
297,253,80720,6,0,L|193:273,1,105,0|2,3:0|0:0,0:0:0:0:
164,253,81065,2,0,P|158:288|146:321,1,70,12|2,0:0|0:3,0:0:0:0:
63,268,81410,1,0,3:0:0:0:
63,268,81755,6,0,P|51:235|45:200,1,56,8|2,0:0|0:0,0:0:0:0:
19,209,82100,6,0,P|21:174|26:139,1,70,4|2,3:2|0:0,0:0:0:0:
115,55,82445,2,0,P|118:90|123:125,1,70,12|2,0:0|0:3,0:0:0:0:
211,165,82789,2,0,P|244:154|279:151,1,70,0|2,3:0|0:0,0:0:0:0:
311,58,83134,2,0,P|341:74|368:96,1,70,8|0,0:0|0:0,0:0:0:0:
460,60,83479,6,0,B|470:121|470:121|431:212,1,140,0|8,3:0|0:0,0:0:0:0:
348,231,83996,1,2,0:3:0:0:
348,231,84169,2,0,L|359:376,1,140,0|8,3:0|0:0,0:0:0:0:
262,306,84686,6,0,P|197:292|162:348,1,140,4|4,3:1|3:1,0:0:0:0:
65,368,85203,1,4,3:1:0:0:
17,282,85376,1,4,3:1:0:0:
88,213,85548,5,4,3:1:0:0:
262,306,85893,1,4,3:1:0:0:
178,128,86238,2,0,P|138:93|87:84,1,105,4|0,3:2|0:0,0:0:0:0:
55,68,86583,2,0,P|47:102|28:137,1,70,8|0,0:0|0:0,0:0:0:0:
88,213,86927,2,0,B|143:208|143:208|166:218|166:218|225:212,1,140,0|8,3:0|0:0,0:0:0:0:
278,128,87445,6,0,B|303:93|359:76|359:76|340:98|338:112,1,140,4|0,3:2|3:0,0:0:0:0:
325,211,87962,1,8,0:0:0:0:
325,211,88307,2,0,L|463:191,1,140,0|8,3:0|0:0,0:0:0:0:
512,321,88824,6,0,L|373:301,1,140,2|0,0:0|0:0,0:0:0:0:
301,357,89341,2,0,P|240:371|198:305,1,140,8|0,0:0|3:0,0:0:0:0:
114,353,89858,1,2,0:0:0:0:
52,285,90031,1,8,0:0:0:0:
85,200,90203,6,0,P|163:215|231:220,1,140,2|0,0:0|0:0,0:0:0:0:
285,143,90720,1,12,0:0:0:0:
285,143,91065,2,0,P|318:132|350:119,2,70,0|2|8,3:0|0:0|0:0,0:0:0:0:
203,85,91583,6,0,B|194:157|194:157|223:219,1,140,2|0,0:0|0:0,0:0:0:0:
317,243,92100,2,0,P|349:229|382:218,1,70,12|0,0:0|0:0,0:0:0:0:
473,211,92445,2,0,P|466:245|454:278,1,70,0|2,3:0|0:0,0:0:0:0:
455,369,92789,2,0,P|422:355|389:344,1,70,10|2,0:0|0:0,0:0:0:0:
289,329,93134,6,0,B|292:312|293:291|293:291|310:266|317:243,2,93.3333333333333,4|0|0,3:2|3:0|3:0,0:0:0:0:
196,249,93824,2,0,B|192:231|191:211|191:211|174:186|168:162,2,93.3333333333333,12|0|0,0:2|3:0|3:0,0:0:0:0:
74,241,94514,1,8,3:2:0:0:
74,241,95203,6,0,B|60:219|49:193|49:193|14:168|10:159,2,105,2|2|2,0:0|0:0|0:0,0:0:0:0:
102,327,95893,6,0,P|66:332|32:322,1,70,6|2,3:2|0:0,0:0:0:0:
163,262,96238,2,0,P|196:252|230:258,1,70,2|2,0:2|0:0,0:0:0:0:
140,177,96583,1,8,0:0:0:0:
140,177,96755,2,0,P|128:107|124:38,1,140,2|12,3:2|0:0,0:0:0:0:
