osu file format v14

[General]
AudioFilename: Exterminate.mp3
AudioLeadIn: 0
PreviewTime: 76152
Countdown: 0
SampleSet: Soft
StackLeniency: 0.7
Mode: 0
LetterboxInBreaks: 0
WidescreenStoryboard: 0

[Editor]
Bookmarks: 22100,26927,49341,50720,96410
DistanceSpacing: 1.1
BeatDivisor: 16
GridSize: 4
TimelineZoom: 2.999999

[Metadata]
Title:Exterminate
TitleUnicode:Exterminate
Artist:Nana Mizuki
ArtistUnicode:水樹奈々
Creator:Blizs
Version:Insane
Source:戦姫絶唱シンフォギアGX
Tags:Senki Zesshou Symphogear GX opening TV Size Elements Garden 上松範康 Agematsu Noriyasu Fantastica ShiraKai Natsu Euny Luna- Dark_Accelerator
BeatmapID:1406632
BeatmapSetID:351537

[Difficulty]
HPDrainRate:6
CircleSize:4
OverallDifficulty:7.5
ApproachRate:9
SliderMultiplier:1.6
SliderTickRate:1

[Events]
//Background and Video events
Video,0,"Exterminate.avi"
0,0,"Senki.Zesshou.Symphogear.full.1596610.jpg",0,0
//Break Periods
//Storyboard Layer 0 (Background)
//Storyboard Layer 1 (Fail)
//Storyboard Layer 2 (Pass)
//Storyboard Layer 3 (Foreground)
//Storyboard Sound Samples

[TimingPoints]
435,600,4,2,1,30,1,0
1035,600,4,2,1,30,1,0
10635,-100,4,2,1,30,0,0
11835,631.578947368421,4,2,1,30,1,0
12466,568.720379146919,4,2,1,30,1,0
13034,606.060606060606,4,2,1,30,1,0
15459,652.173913043478,4,2,1,30,1,0
15785,731.707317073171,4,2,1,30,1,0
16150,645.161290322581,4,2,1,30,1,0
16472,833.333333333333,4,2,1,30,1,0
16888,882.352941176471,4,2,1,30,1,0
18652,344.827586206897,4,2,1,70,1,0
21755,-100,4,2,1,40,0,0
22100,-100,4,2,1,70,0,0
24169,-90.9090909090909,4,2,1,75,0,0
33824,-111.111111111111,4,2,1,75,0,0
36410,-111.111111111111,4,2,1,55,0,0
36583,-125,4,2,1,55,0,0
44858,-100,4,2,1,60,0,0
46238,-83.3333333333333,4,2,1,70,0,0
47617,-111.111111111111,4,2,1,55,0,0
53996,-83.3333333333333,4,2,1,70,0,0
54514,-111.111111111111,4,2,1,55,0,0
55376,-83.3333333333333,4,2,1,70,0,0
55893,-125,4,2,1,55,0,0
56927,-125,4,1,1,20,0,0
57272,-142.857142857143,4,2,1,60,0,0
59772,-142.857142857143,4,2,1,40,0,0
60031,-100,4,2,1,65,0,0
71065,-100,4,2,1,60,0,0
71755,-95.2380952380952,4,2,1,65,0,0
72445,-90.9090909090909,4,2,1,70,0,0
73134,-86.9565217391304,4,2,1,75,0,0
75203,-125,4,2,1,40,0,0
75376,-125,4,2,1,20,0,0
75548,-125,4,2,1,40,0,0
75807,-125,4,2,1,20,0,0
75979,-125,4,2,1,40,0,0
76065,-125,4,2,1,20,0,0
76238,-83.3333333333333,4,2,1,60,0,0
76583,-90.9090909090909,4,2,1,75,0,1
87100,-90.9090909090909,4,2,1,45,0,1
87272,-90.9090909090909,4,2,1,75,0,1
87445,-100,4,2,1,60,0,0
93134,-125,4,2,1,60,0,0
95203,-166.666666666667,4,2,1,60,0,0
95893,-100,4,2,1,60,0,0

[Colours]
Combo1 : 255,0,0
Combo2 : 255,165,121
Combo3 : 128,128,255
Combo4 : 218,218,218
Combo5 : 255,170,193
Combo6 : 255,255,183

[HitObjects]
82,207,10635,6,0,P|158:219|214:166,2,160,2|2|2,0:0|0:0|0:0,0:0:0:0:
256,92,12466,1,2,0:0:0:0:
430,207,13035,6,0,P|353:219|297:166,1,160,2|2,0:0|0:0,0:0:0:0:
502,131,14246,1,2,0:0:0:0:
256,192,15459,12,0,17770,0:0:0:0:
190,125,18652,6,0,L|183:35,1,80,4|0,3:2|0:0,0:0:0:0:
116,203,18996,2,0,L|109:282,1,80,2|2,0:0|0:0,0:0:0:0:
190,125,19341,1,8,0:0:0:0:
268,199,19514,2,0,P|330:218|404:166,1,160,2|2,0:0|0:0,0:0:0:0:
335,50,20031,6,0,L|324:130,1,80,0|2,3:0|0:0,0:0:0:0:
334,321,20376,1,0,0:0:0:0:
403,167,20548,1,0,0:0:0:0:
261,283,20720,2,0,L|183:267,1,80,8|0,0:0|0:0,0:0:0:0:
12,203,21065,2,0,L|90:187,1,80,2|0,0:0|0:0,0:0:0:0:
241,141,21410,38,0,P|289:140|334:47,1,160,4|0,3:0|1:0,0:0:0:0:
311,42,21841,1,0,1:0:0:0:
287,34,21927,1,0,1:0:0:0:
263,26,22013,1,0,1:0:0:0:
239,18,22100,2,0,L|159:24,1,80,8|0,0:0|0:0,0:0:0:0:
91,187,22445,1,0,0:0:0:0:
241,141,22617,2,0,L|321:147,1,80,2|0,0:0|3:0,0:0:0:0:
445,121,22962,6,0,B|396:88|396:88|430:136|410:184,1,160,8|0,0:0|3:0,0:0:0:0:
350,247,23479,2,0,P|407:233|461:255,1,120,8|0,0:0|0:0,0:0:0:0:
480,275,23824,2,0,L|488:326,1,40,2|0,0:0|0:0,0:0:0:0:
401,323,23996,2,0,L|409:374,1,40,2|0,0:0|0:0,0:0:0:0:
350,247,24169,6,0,P|270:214|194:252,1,176.000005371094,6|10,3:2|0:0,0:0:0:0:
275,320,24686,1,2,0:0:0:0:
401,323,24858,2,0,B|390:265|390:265|406:208|406:208|396:151,1,176.000005371094,2|10,3:2|0:0,0:0:0:0:
480,275,25375,1,2,0:0:0:0:
302,201,25548,6,0,L|213:216,1,88.000002685547,2|0,3:2|0:0,0:0:0:0:
62,117,25893,2,0,P|105:116|148:131,1,88.000002685547,10|0,0:0|0:0,0:0:0:0:
87,245,26238,1,2,3:2:0:0:
87,245,26324,1,2,0:0:0:0:
87,245,26410,1,2,0:0:0:0:
208,286,26583,2,0,P|187:324|153:353,1,88.000002685547,8|0,0:0|0:0,0:0:0:0:
87,245,26927,6,0,L|99:109,1,132.00000402832,2|2,3:2|0:0,0:0:0:0:
130,87,27272,2,0,L|122:174,1,88.000002685547,8|2,0:0|0:0,0:0:0:0:
208,286,27617,2,0,P|270:302|331:277,1,132.00000402832,2|2,3:2|0:0,0:0:0:0:
348,236,27962,2,0,L|337:148,1,88.000002685547,8|2,0:0|0:0,0:0:0:0:
475,89,28307,21,2,3:2:0:0:
475,89,28393,1,2,0:0:0:0:
475,89,28479,1,2,0:0:0:0:
448,275,28652,2,0,L|437:362,1,88.000002685547,8|0,0:0|0:0,0:0:0:0:
208,286,28996,2,0,P|264:223|348:236,1,176.000005371094,4|8,3:2|0:0,0:0:0:0:
295,307,29514,1,0,0:0:0:0:
131,339,29686,6,0,B|106:300|119:257|119:257|133:211|108:170,1,176.000005371094,6|10,3:2|0:0,0:0:0:0:
31,224,30203,1,2,0:0:0:0:
208,286,30376,2,0,P|212:198|182:115,1,176.000005371094,2|10,3:2|0:0,0:0:0:0:
108,170,30893,1,2,0:0:0:0:
289,135,31065,6,0,L|378:140,1,88.000002685547,2|0,3:2|0:0,0:0:0:0:
295,290,31410,2,0,L|208:286,1,88.000002685547,10|0,0:0|0:0,0:0:0:0:
108,170,31755,1,2,3:2:0:0:
108,170,31841,1,2,0:0:0:0:
108,170,31927,1,2,0:0:0:0:
131,339,32100,1,8,0:0:0:0:
14,189,32272,5,4,3:1:0:0:
14,189,32617,1,4,3:1:0:0:
131,339,32789,1,4,3:1:0:0:
108,170,32962,1,4,3:1:0:0:
148,333,33134,1,4,3:1:0:0:
165,327,33479,1,4,3:1:0:0:
182,321,33824,6,0,L|257:328,1,71.9999978027344,4|0,3:2|0:0,0:0:0:0:
404,256,34169,2,0,L|329:263,1,71.9999978027344,8|0,0:0|0:0,0:0:0:0:
182,191,34514,2,0,L|257:198,1,71.9999978027344,0|0,3:0|0:0,0:0:0:0:
404,126,34858,2,0,L|329:133,1,71.9999978027344,8|0,0:0|0:0,0:0:0:0:
182,61,35203,22,0,L|257:54,1,71.9999978027344,0|0,3:0|0:0,0:0:0:0:
103,140,35548,2,0,L|31:133,1,71.9999978027344,8|0,0:0|0:0,0:0:0:0:
182,191,35893,1,2,3:2:0:0:
93,327,36065,1,2,0:0:0:0:
98,233,36238,1,8,0:0:0:0:
177,284,36410,5,0,1:0:0:0:
177,284,36496,1,0,1:0:0:0:
177,284,36583,2,0,P|208:281|237:266,1,64,4|0,3:2|0:0,0:0:0:0:
187,98,36927,2,0,P|156:101|127:116,1,64,8|0,0:0|0:0,0:0:0:0:
14,275,37272,2,0,L|25:340,1,64,0|0,3:0|0:0,0:0:0:0:
19,181,37617,2,0,L|8:116,1,64,10|0,0:0|0:0,0:0:0:0:
98,233,37962,6,0,P|146:193|209:195,1,128,2|8,3:2|0:0,0:0:0:0:
193,345,38479,1,0,0:0:0:0:
193,345,38565,1,0,0:0:0:0:
193,345,38652,2,0,L|177:284,1,64,0|0,3:0|0:0,0:0:0:0:
288,185,38996,2,0,L|272:246,1,64,10|0,0:0|0:0,0:0:0:0:
383,344,39341,6,0,P|414:340|446:340,1,64,2|0,3:2|0:0,0:0:0:0:
435,246,39686,2,0,P|466:249|497:258,1,64,8|0,0:0|0:0,0:0:0:0:
350,197,40031,2,0,P|318:193|288:185,1,64,0|0,3:0|0:0,0:0:0:0:
400,97,40376,2,0,P|368:102|337:102,1,64,10|0,0:0|0:0,0:0:0:0:
200,43,40720,6,0,P|140:53|118:110,1,128,2|8,3:2|0:0,0:0:0:0:
170,238,41238,1,0,0:0:0:0:
170,238,41324,1,0,0:0:0:0:
170,238,41410,2,0,L|181:174,1,64,0|0,3:0|0:0,0:0:0:0:
99,293,41755,2,0,L|110:357,1,64,10|0,0:0|0:0,0:0:0:0:
281,274,42100,22,0,P|232:235|170:238,1,128,2|8,3:2|0:0,0:0:0:0:
36,290,42617,2,0,P|67:298|98:293,1,64,0|0,0:0|3:0,0:0:0:0:
198,160,42962,2,0,P|165:155|133:164,1,64,0|10,0:0|0:0,0:0:0:0:
297,293,43307,2,0,P|330:298|362:289,1,64,0|2,0:0|3:2,0:0:0:0:
454,177,43652,5,0,0:0:0:0:
309,150,43824,2,0,L|324:212,1,64,8|0,0:0|0:0,0:0:0:0:
372,78,44169,2,0,P|314:55|253:71,1,128,0|8,3:0|0:0,0:0:0:0:
309,150,44686,1,2,0:0:0:0:
445,140,44858,6,0,P|464:106|466:66,1,80,4|0,3:2|0:0,0:0:0:0:
383,213,45203,1,8,0:0:0:0:
383,213,45548,2,0,L|502:216,2,120,12|0|0,0:0|3:0|3:0,0:0:0:0:
281,275,46238,37,4,3:2:0:0:
234,188,46410,2,0,L|263:97,1,95.9999970703126,12|0,0:0|3:0,0:0:0:0:
281,275,46755,1,4,3:2:0:0:
229,359,46927,2,0,L|135:379,1,95.9999970703126,12|0,0:0|3:0,0:0:0:0:
379,277,47272,2,0,L|443:347,1,95.9999970703126,12|8,0:0|0:0,0:0:0:0:
281,275,47617,54,0,L|232:221,1,71.9999978027344,4|0,3:2|0:0,0:0:0:0:
229,359,47962,2,0,P|262:372|297:372,1,71.9999978027344,8|0,0:0|0:0,0:0:0:0:
431,193,48307,2,0,L|382:139,1,71.9999978027344,0|0,3:0|0:0,0:0:0:0:
379,277,48652,2,0,P|412:290|447:290,1,71.9999978027344,10|0,0:0|0:0,0:0:0:0:
466,86,48996,6,0,P|408:45|338:53,1,143.999995605469,2|8,3:2|0:0,0:0:0:0:
217,148,49514,1,0,0:0:0:0:
361,205,49686,2,0,P|379:174|382:139,1,71.9999978027344,0|0,3:0|0:0,0:0:0:0:
208,292,50031,2,0,P|211:328|229:359,1,71.9999978027344,10|0,0:0|0:0,0:0:0:0:
446,314,50376,22,0,L|303:299,2,143.999995605469,2|8|0,3:2|0:0|3:0,0:0:0:0:
361,205,51238,1,0,0:0:0:0:
208,292,51410,2,0,P|211:328|229:359,1,71.9999978027344,10|0,0:0|0:0,0:0:0:0:
361,205,51755,6,0,L|218:190,1,143.999995605469,2|8,3:2|0:0,0:0:0:0:
303,299,52272,1,0,0:0:0:0:
439,143,52445,2,0,L|446:71,1,71.9999978027344,0|0,3:0|0:0,0:0:0:0:
453,242,52789,2,0,L|446:314,1,71.9999978027344,10|0,0:0|0:0,0:0:0:0:
257,197,53134,22,0,P|310:188|360:204,2,107.999996704102,4|0|0,3:2|3:0|3:0,0:0:0:0:
303,299,53824,1,2,0:0:0:0:
453,242,53996,21,4,3:2:0:0:
414,32,54169,1,8,0:0:0:0:
414,32,54514,22,0,P|362:60|335:100,2,107.999996704102,4|2|0,3:2|0:0|3:0,0:0:0:0:
439,143,55204,1,2,0:0:0:0:
279,183,55376,53,4,3:2:0:0:
446,314,55548,1,8,0:0:0:0:
439,143,55720,1,0,3:0:0:0:
303,299,55893,38,0,B|239:306|177:282|177:282|185:346,1,192,4|0,3:2|0:0,0:0:0:0:
57,349,56583,2,0,L|45:253,1,96,4|0,3:2|0:0,0:0:0:0:
99,193,56927,2,0,L|102:165,7,16,0|0|0|0|0|0|0|0,1:0|1:0|1:0|1:0|1:0|1:0|1:0|1:0,1:0:0:0:
100,177,57272,6,0,P|154:166|206:184,1,111.999996582031,4|0,3:2|0:0,0:0:0:0:
256,342,57789,1,0,3:0:0:0:
305,184,57962,2,0,P|357:166|412:177,1,111.999996582031,8|0,0:0|3:0,0:0:0:0:
256,342,58652,5,0,3:0:0:0:
256,342,58996,1,0,3:0:0:0:
256,342,59341,1,0,3:0:0:0:
256,258,59514,1,0,3:0:0:0:
256,174,59686,1,0,3:0:0:0:
256,149,59772,1,0,3:0:0:0:
256,125,59858,1,0,3:0:0:0:
256,100,59944,1,0,3:0:0:0:
256,76,60031,22,0,B|317:37|379:60|379:60|360:84,1,160,4|8,3:2|0:0,0:0:0:0:
256,192,60548,1,0,0:0:0:0:
151,299,60720,2,0,B|133:324|133:324|195:347|256:308,1,160,0|8,3:0|0:0,0:0:0:0:
331,215,61238,5,2,0:0:0:0:
331,215,61324,1,2,0:0:0:0:
330,214,61410,2,0,P|295:196|256:192,1,80,0|0,3:0|0:0,0:0:0:0:
76,275,61755,2,0,P|111:293|151:299,1,80,8|0,0:0|0:0,0:0:0:0:
149,183,62100,1,0,3:0:0:0:
149,183,62186,1,2,0:0:0:0:
149,183,62272,1,2,0:0:0:0:
20,153,62445,1,10,0:0:0:0:
39,130,62531,1,2,0:0:0:0:
49,102,62617,1,2,0:0:0:0:
51,72,62703,1,2,0:0:0:0:
45,44,62789,22,0,B|92:58|92:58|152:42|152:42|199:54,1,160,0|8,3:0|0:0,0:0:0:0:
256,192,63307,1,0,0:0:0:0:
312,54,63479,2,0,B|360:42|360:42|420:58|420:58|467:44,1,160,0|8,3:0|0:0,0:0:0:0:
360,141,63996,1,2,0:0:0:0:
456,205,64169,6,0,L|451:286,1,80,0|0,3:0|0:0,0:0:0:0:
256,192,64514,2,0,L|251:112,1,80,8|0,0:0|0:0,0:0:0:0:
181,249,64858,1,2,3:2:0:0:
207,271,64944,1,2,0:0:0:0:
240,283,65030,1,2,0:0:0:0:
275,283,65116,1,2,0:0:0:0:
307,270,65203,2,0,P|322:258|335:242,1,40,10|2,0:0|0:0,0:0:0:0:
360,141,65376,22,0,B|355:61|355:61|391:70|417:111,1,160,4|0,3:2|0:0,0:0:0:0:
456,205,65893,2,0,L|451:286,1,80,8|0,0:0|0:0,0:0:0:0:
343,346,66238,1,2,3:2:0:0:
308,343,66324,1,2,0:0:0:0:
273,341,66410,1,2,0:0:0:0:
238,339,66496,1,2,0:0:0:0:
203,337,66583,2,0,L|163:337,1,40,10|2,0:0|0:0,0:0:0:0:
60,353,66755,6,0,B|33:360|33:360|61:324|62:269|42:224,1,160,4|0,3:2|3:0,0:0:0:0:
58,57,67272,2,0,P|53:96|67:134,1,80,8|0,0:0|0:0,0:0:0:0:
148,86,67617,1,2,3:2:0:0:
177,104,67703,1,2,0:0:0:0:
211,111,67789,1,2,0:0:0:0:
245,104,67875,1,2,0:0:0:0:
275,86,67962,2,0,L|315:83,1,40,10|2,0:0|0:0,0:0:0:0:
394,154,68134,6,0,B|474:160|474:160|425:169|403:219,1,160,4|0,3:2|0:0,0:0:0:0:
492,324,68652,2,0,L|486:244,1,80,8|0,0:0|0:0,0:0:0:0:
432,65,68996,1,2,3:2:0:0:
397,62,69082,1,2,0:0:0:0:
362,59,69168,1,2,3:2:0:0:
327,57,69254,1,2,0:0:0:0:
292,54,69341,2,0,L|248:58,1,40,10|2,0:0|0:0,0:0:0:0:
147,64,69514,22,0,P|89:69|139:38,1,160,4|0,3:2|3:0,0:0:0:0:
196,139,70031,2,0,P|163:161|124:169,1,80,8|0,0:0|0:0,0:0:0:0:
292,54,70376,2,0,L|411:63,2,120,4|4|4,3:1|3:1|3:1,0:0:0:0:
196,139,71065,22,0,L|189:218,1,80,4|0,3:2|0:0,0:0:0:0:
292,54,71410,1,8,0:0:0:0:
287,149,71583,5,0,0:0:0:0:
287,149,71669,1,0,0:0:0:0:
287,149,71755,2,0,L|280:236,1,83.9999974365235,4|0,3:2|0:0,0:0:0:0:
383,64,72100,1,8,0:0:0:0:
378,159,72272,5,0,0:0:0:0:
378,159,72358,1,0,0:0:0:0:
378,159,72445,2,0,L|371:254,1,88.000002685547,4|0,3:2|0:0,0:0:0:0:
474,74,72789,1,8,0:0:0:0:
469,169,72962,37,0,0:0:0:0:
469,169,73048,1,0,0:0:0:0:
469,169,73134,1,4,3:2:0:0:
264,250,73307,1,4,3:2:0:0:
383,64,73479,1,4,3:2:0:0:
396,284,73652,1,4,3:2:0:0:
255,114,73824,1,4,3:2:0:0:
383,64,75203,54,0,L|319:61,1,64,8|0,0:0|1:0,0:0:0:0:
319,61,75462,1,0,1:0:0:0:
319,61,75548,1,8,0:0:0:0:
247,113,75720,5,8,0:0:0:0:
215,113,75806,1,0,1:0:0:0:
143,63,75979,21,8,0:0:0:0:
111,61,76065,1,0,1:0:0:0:
37,119,76238,70,2,L|41:144,6,23.9999992675781
47,163,76583,22,0,P|36:205|44:248,1,88.000002685547,4|2,3:2|0:0,0:0:0:0:
210,220,76927,2,0,L|123:206,1,88.000002685547,8|2,0:0|0:3,0:0:0:0:
302,164,77272,2,0,L|388:177,1,88.000002685547,0|2,3:0|0:0,0:0:0:0:
481,324,77617,1,8,0:0:0:0:
407,203,77789,1,2,0:3:0:0:
338,327,77962,6,0,P|298:342|254:341,1,88.000002685547,0|2,3:0|0:0,0:0:0:0:
125,205,78307,2,0,P|169:204|210:220,1,88.000002685547,8|2,0:0|0:3,0:0:0:0:
165,383,78652,2,0,L|153:296,1,88.000002685547,0|2,3:0|0:0,0:0:0:0:
47,163,78996,2,0,L|53:119,1,44.0000013427735,8|0,0:0|0:0,0:0:0:0:
130,100,79169,2,0,L|136:56,1,44.0000013427735,2|0,0:3|0:0,0:0:0:0:
213,37,79341,6,0,P|270:67|335:63,1,132.00000402832,0|2,3:2|0:0,0:0:0:0:
360,21,79686,2,0,B|350:65|350:65|361:109,1,88.000002685547,8|2,0:0|0:3,0:0:0:0:
481,324,80031,2,0,B|491:280|491:280|469:195,1,132.00000402832,0|2,3:0|0:0,0:0:0:0:
427,172,80376,2,0,P|390:195|347:199,1,88.000002685547,8|2,0:0|0:3,0:0:0:0:
129,100,80720,6,0,P|193:84|256:108,1,132.00000402832,0|2,3:0|0:0,0:0:0:0:
261,155,81065,2,0,L|249:242,1,88.000002685547,8|2,0:0|0:3,0:0:0:0:
165,383,81410,2,0,L|153:296,1,88.000002685547,0|2,3:0|0:0,0:0:0:0:
129,100,81755,1,8,0:0:0:0:
246,265,81927,1,2,0:3:0:0:
40,148,82100,22,0,P|30:105|35:61,1,88.000002685547,4|2,3:2|0:0,0:0:0:0:
218,52,82445,2,0,P|228:95|223:139,1,88.000002685547,12|2,0:0|0:0,0:0:0:0:
160,285,82789,2,0,L|246:265,1,88.000002685547,0|2,3:0|0:0,0:0:0:0:
427,172,83134,1,8,0:0:0:0:
261,155,83307,1,2,0:3:0:0:
329,307,83479,6,0,L|415:327,1,88.000002685547,0|2,3:0|0:0,0:0:0:0:
510,185,83824,2,0,P|504:141|479:105,1,88.000002685547,8|2,0:0|0:3,0:0:0:0:
246,294,84169,2,0,P|251:337|276:373,1,88.000002685547,0|2,3:0|0:0,0:0:0:0:
261,155,84514,1,8,0:0:0:0:
329,307,84686,5,4,3:1:0:0:
329,307,85031,1,4,3:1:0:0:
160,285,85203,1,4,3:1:0:0:
318,220,85376,1,4,3:1:0:0:
153,272,85548,1,4,3:1:0:0:
146,259,85893,1,4,3:1:0:0:
139,246,86238,6,0,P|145:200|139:156,1,88.000002685547,4|0,3:2|0:0,0:0:0:0:
261,68,86583,2,0,P|255:111|261:155,1,88.000002685547,8|0,0:0|0:0,0:0:0:0:
329,307,86927,1,0,3:0:0:0:
427,172,87100,1,0,1:0:0:0:
427,172,87186,1,0,1:0:0:0:
427,172,87272,1,8,0:0:0:0:
275,240,87445,6,0,L|115:244,1,160,4|0,3:2|3:0,0:0:0:0:
132,81,87962,2,0,P|144:119|140:159,1,80,8|0,0:0|0:0,0:0:0:0:
33,293,88307,2,0,P|21:255|25:215,1,80,0|2,3:0|0:0,0:0:0:0:
118,340,88652,1,8,0:0:0:0:
41,185,88824,22,0,B|30:123|52:67|52:67|50:87|55:106,1,160,2|0,0:0|0:0,0:0:0:0:
211,93,89341,2,0,L|132:81,1,80,8|0,0:0|0:0,0:0:0:0:
275,240,89686,2,0,L|354:228,1,80,0|2,3:0|0:0,0:0:0:0:
211,93,90031,1,8,0:0:0:0:
240,274,90203,6,0,L|398:249,1,160,2|0,0:0|0:0,0:0:0:0:
211,93,90720,2,0,L|132:81,1,80,12|0,0:0|0:0,0:0:0:0:
41,185,91065,2,0,L|70:259,1,80,0|2,3:0|0:0,0:0:0:0:
104,91,91410,1,8,0:0:0:0:
92,277,91583,6,0,P|165:249|240:273,1,160,2|0,0:0|0:0,0:0:0:0:
474,261,92100,2,0,P|434:264|398:249,1,80,12|0,0:0|0:0,0:0:0:0:
429,102,92445,2,0,L|448:180,1,80,0|2,3:0|0:0,0:0:0:0:
325,309,92789,2,0,L|306:231,1,80,10|2,0:0|0:0,0:0:0:0:
206,153,93134,6,0,P|163:147|122:158,2,85.3333333333333,4|0|0,3:2|3:0|3:0,0:0:0:0:
306,231,93824,2,0,P|348:236|389:225,2,85.3333333333333,12|0|0,0:2|3:0|3:0,0:0:0:0:
256,64,94514,1,12,3:2:0:0:
189,156,95203,6,2,P|256:178|323:155,1,143.999995605469,2|0,0:0|0:0,0:0:0:0:
396,212,95893,22,0,L|410:290,1,80,6|2,3:2|0:0,0:0:0:0:
101,290,96238,2,0,L|116:212,1,80,2|2,0:2|0:0,0:0:0:0:
256,64,96583,1,8,0:0:0:0:
256,261,96755,2,0,L|256:342,1,80,2|2,3:2|3:2,0:0:0:0:
256,64,97100,1,12,0:0:0:0:
