osu file format v14

[General]
AudioFilename: Exterminate.mp3
AudioLeadIn: 0
PreviewTime: 76152
Countdown: 0
SampleSet: Soft
StackLeniency: 0.7
Mode: 0
LetterboxInBreaks: 0
WidescreenStoryboard: 0

[Editor]
Bookmarks: 22100,26927,50720,96410
DistanceSpacing: 1.1
BeatDivisor: 8
GridSize: 8
TimelineZoom: 1.400006

[Metadata]
Title:Exterminate
TitleUnicode:Exterminate
Artist:Nana Mizuki
ArtistUnicode:水樹奈々
Creator:Blizs
Version:Extra
Source:戦姫絶唱シンフォギアGX
Tags:Senki Zesshou Symphogear GX opening TV Size Elements Garden 上松範康 Agematsu Noriyasu Fantastica ShiraKai Natsu Euny Luna- Dark_Accelerator
BeatmapID:1406631
BeatmapSetID:351537

[Difficulty]
HPDrainRate:6
CircleSize:4
OverallDifficulty:8
ApproachRate:9
SliderMultiplier:1.8
SliderTickRate:1

[Events]
//Background and Video events
Video,0,"Exterminate.avi"
0,0,"Senki.Zesshou.Symphogear.full.1596610.jpg",0,0
//Break Periods
//Storyboard Layer 0 (Background)
//Storyboard Layer 1 (Fail)
//Storyboard Layer 2 (Pass)
//Storyboard Layer 3 (Foreground)
//Storyboard Sound Samples

[TimingPoints]
435,600,4,2,1,30,1,0
1035,600,4,2,1,30,1,0
10635,-125,4,2,1,30,0,0
11835,631.578947368421,4,2,1,30,1,0
11835,-125,4,2,1,30,0,0
12466,568.720379146919,4,2,1,30,1,0
12466,-125,4,2,1,30,0,0
13034,606.060606060606,4,2,1,30,1,0
13034,-125,4,2,1,30,0,0
15459,652.173913043478,4,2,1,30,1,0
15459,-125,4,2,1,30,0,0
15785,731.707317073171,4,2,1,30,1,0
15785,-125,4,2,1,30,0,0
16150,645.161290322581,4,2,1,30,1,0
16150,-125,4,2,1,30,0,0
16472,833.333333333333,4,2,1,30,1,0
16472,-125,4,2,1,30,0,0
16888,882.352941176471,4,2,1,30,1,0
16888,-125,4,2,1,30,0,0
18652,344.827586206897,4,2,1,70,1,0
21755,-100,4,2,1,40,0,0
22100,-100,4,2,1,70,0,0
24169,-90.9090909090909,4,2,1,75,0,0
33824,-111.111111111111,4,2,1,75,0,0
36410,-111.111111111111,4,2,1,55,0,0
36583,-125,4,2,1,55,0,0
44858,-100,4,2,1,60,0,0
46238,-76.9230769230769,4,2,1,70,0,0
47617,-111.111111111111,4,2,1,55,0,0
53996,-76.9230769230769,4,2,1,70,0,0
54514,-111.111111111111,4,2,1,55,0,0
55376,-76.9230769230769,4,2,1,70,0,0
55893,-125,4,2,1,55,0,0
56927,-125,4,1,1,20,0,0
57272,-142.857142857143,4,2,1,60,0,0
58652,-111.111111111111,4,2,1,60,0,0
59772,-111.111111111111,4,2,1,40,0,0
60031,-100,4,2,1,65,0,0
71065,-100,4,2,1,60,0,0
71755,-90.9090909090909,4,2,1,65,0,0
72445,-83.3333333333333,4,2,1,70,0,0
73134,-76.9230769230769,4,2,1,75,0,0
75203,-125,4,2,1,40,0,0
75376,-125,4,2,1,30,0,0
75548,-125,4,2,1,40,0,0
75807,-125,4,2,1,30,0,0
75979,-125,4,2,1,40,0,0
76065,-125,4,2,1,30,0,0
76238,-76.9230769230769,4,2,1,60,0,0
76583,-90.9090909090909,4,2,1,75,0,1
87100,-90.9090909090909,4,2,1,45,0,1
87272,-90.9090909090909,4,2,1,75,0,1
87445,-100,4,2,1,60,0,0
93134,-142.857142857143,4,2,1,60,0,0
95203,-200,4,2,1,60,0,0
95893,-100,4,2,1,60,0,0

[Colours]
Combo1 : 255,0,0
Combo2 : 255,165,121
Combo3 : 128,128,255
Combo4 : 218,218,218
Combo5 : 255,170,193
Combo6 : 255,255,183

[HitObjects]
256,84,10635,21,2,0:0:0:0:
144,280,11235,1,2,0:0:0:0:
369,278,11835,1,2,0:0:0:0:
255,51,12466,21,2,0:0:0:0:
115,296,13034,1,2,0:0:0:0:
397,293,13640,1,2,0:0:0:0:
256,192,14246,1,2,0:0:0:0:
256,192,15458,12,0,17770,0:0:0:0:
251,354,18652,38,0,P|234:313|235:269,1,90,4|0,3:2|0:0,0:0:0:0:
346,191,18996,1,2,0:0:0:0:
346,191,19169,1,2,0:0:0:0:
434,375,19341,1,8,0:0:0:0:
500,300,19514,2,0,B|448:271|448:271|386:287|331:295,1,180,2|2,0:0|0:0,0:0:0:0:
190,304,20031,5,0,3:0:0:0:
240,143,20203,2,0,P|257:184|256:228,1,90,2|0,0:0|0:0,0:0:0:0:
91,295,20548,1,0,0:0:0:0:
10,153,20720,2,0,B|100:145,1,90,8|0,0:0|0:0,0:0:0:0:
190,304,21065,2,0,B|100:295,1,90,2|0,0:0|0:0,0:0:0:0:
240,143,21410,6,0,P|257:184|256:228,1,90,4|0,3:0|0:0,0:0:0:0:
100,145,21755,1,0,1:0:0:0:
105,123,21841,1,0,1:0:0:0:
109,101,21927,1,0,1:0:0:0:
114,79,22014,1,0,1:0:0:0:
118,56,22100,2,0,P|160:41|204:47,1,90,8|0,0:0|0:0,0:0:0:0:
256,229,22445,1,0,0:0:0:0:
392,57,22617,2,0,P|350:42|305:48,1,90,2|0,0:0|3:0,0:0:0:0:
344,258,22962,6,0,B|356:212|327:167|327:167|339:127|339:127|351:169,1,180,8|0,0:0|3:0,0:0:0:0:
256,229,23479,2,0,B|159:221|159:221|199:206,1,135,8|0,0:0|0:0,0:0:0:0:
250,151,23824,2,0,L|262:107,1,45,2|0,0:0|0:0,0:0:0:0:
281,303,23996,2,0,L|293:347,1,45,2|0,0:0|0:0,0:0:0:0:
472,305,24169,6,0,P|416:258|344:258,1,148.50000453186,4|0,3:2|0:0,0:0:0:0:
281,303,24514,2,0,B|182:294,1,99.0000030212403,10|2,0:0|0:0,0:0:0:0:
59,154,24858,2,0,P|114:106|187:106,1,148.50000453186,2|0,3:2|0:0,0:0:0:0:
250,151,25203,2,0,B|348:142,1,99.0000030212403,10|2,0:0|0:0,0:0:0:0:
472,305,25548,22,0,B|374:314,1,99.0000030212403,2|0,3:2|0:0,0:0:0:0:
102,262,25893,2,0,P|164:225|234:243,1,148.50000453186,10|0,0:0|0:0,0:0:0:0:
281,303,26238,2,0,L|273:351,1,49.5000015106202,2|0,3:2|0:0,0:0:0:0:
309,232,26410,2,0,L|294:135,1,99.0000030212403,2|8,0:0|0:0,0:0:0:0:
178,318,26755,1,0,0:0:0:0:
59,154,26927,6,0,L|73:56,1,99.0000030212403,2|0,3:2|0:0,0:0:0:0:
151,53,27186,1,2,0:0:0:0:
151,53,27272,2,0,L|136:150,1,99.0000030212403,8|2,0:0|0:0,0:0:0:0:
453,154,27617,2,0,L|438:56,1,99.0000030212403,2|0,3:2|0:0,0:0:0:0:
361,53,27876,1,2,0:0:0:0:
361,53,27962,2,0,L|375:150,1,99.0000030212403,8|2,0:0|0:0,0:0:0:0:
256,293,28307,5,2,3:2:0:0:
256,293,28393,1,2,0:0:0:0:
256,293,28479,1,2,0:0:0:0:
85,232,28652,2,0,P|133:222|181:234,1,99.0000030212403,8|0,0:0|0:0,0:0:0:0:
329,351,28996,2,0,L|341:248,1,99.0000030212403,4|0,3:2|0:0,0:0:0:0:
361,53,29341,1,10,0:0:0:0:
318,77,29427,1,2,0:0:0:0:
269,83,29514,1,2,0:0:0:0:
222,69,29600,1,2,0:0:0:0:
185,37,29686,6,0,L|200:184,1,148.50000453186,4|0,3:2|0:0,0:0:0:0:
254,243,30031,2,0,P|232:287|234:336,1,99.0000030212403,10|2,0:0|0:0,0:0:0:0:
411,353,30376,2,0,L|395:205,1,148.50000453186,2|0,3:2|0:0,0:0:0:0:
341,146,30720,2,0,P|363:102|361:53,1,99.0000030212403,10|2,0:0|0:0,0:0:0:0:
254,243,31065,6,0,L|264:341,1,99.0000030212403,2|0,3:2|0:0,0:0:0:0:
411,353,31410,2,0,L|395:205,1,148.50000453186,10|0,0:0|0:0,0:0:0:0:
341,146,31755,2,0,P|348:122|346:96,1,49.5000015106202,2|0,3:2|0:0,0:0:0:0:
254,13,31927,2,0,L|265:112,1,99.0000030212403,2|8,0:0|0:0,0:0:0:0:
411,353,32272,21,4,3:1:0:0:
411,353,32617,1,4,3:1:0:0:
254,243,32789,1,4,3:1:0:0:
444,278,32962,1,4,3:1:0:0:
219,317,33134,1,4,3:1:0:0:
207,325,33479,1,4,3:1:0:0:
194,332,33824,6,0,P|154:315|109:317,1,80.9999975280763,4|0,3:2|0:0,0:0:0:0:
254,243,34169,2,0,P|227:208|187:187,1,80.9999975280763,8|0,0:0|0:0,0:0:0:0:
350,195,34514,2,0,P|344:151|320:113,1,80.9999975280763,0|0,3:0|0:0,0:0:0:0:
457,202,34858,2,0,P|474:162|472:117,1,80.9999975280763,8|0,0:0|0:0,0:0:0:0:
397,291,35203,6,0,P|380:331|382:376,1,80.9999975280763,0|0,3:0|0:0,0:0:0:0:
259,256,35548,2,0,P|242:216|244:171,1,80.9999975280763,8|0,0:0|0:0,0:0:0:0:
416,70,35893,1,2,3:2:0:0:
350,195,36065,1,2,0:0:0:0:
274,75,36238,1,8,0:0:0:0:
259,256,36410,5,0,1:0:0:0:
259,256,36496,1,0,1:0:0:0:
259,256,36583,2,0,L|265:327,1,72,4|0,3:2|0:0,0:0:0:0:
350,195,36927,2,0,L|356:123,1,72,8|0,0:0|0:0,0:0:0:0:
466,302,37272,2,0,P|430:303|397:291,1,72,0|0,3:0|0:0,0:0:0:0:
189,268,37617,2,0,P|223:256|259:256,1,72,10|0,0:0|0:0,0:0:0:0:
97,357,37962,6,0,L|91:285,1,72,2|0,3:2|0:0,0:0:0:0:
238,343,38307,1,8,0:0:0:0:
32,224,38479,1,0,0:0:0:0:
32,224,38565,1,0,0:0:0:0:
32,224,38652,2,0,L|38:152,1,72,0|0,3:0|0:0,0:0:0:0:
163,40,38996,2,0,L|157:112,1,72,10|0,0:0|0:0,0:0:0:0:
189,268,39341,22,0,P|223:256|259:256,1,72,2|0,3:2|0:0,0:0:0:0:
419,182,39686,2,0,P|385:194|350:195,1,72,8|0,0:0|0:0,0:0:0:0:
365,36,40031,2,0,L|371:108,1,72,0|0,3:0|0:0,0:0:0:0:
463,330,40376,2,0,L|469:258,1,72,10|0,0:0|0:0,0:0:0:0:
301,354,40720,6,0,P|335:366|371:366,1,72,2|0,3:2|0:0,0:0:0:0:
419,182,41065,1,8,0:0:0:0:
189,268,41238,1,0,0:0:0:0:
189,268,41324,1,0,0:0:0:0:
189,268,41410,2,0,L|195:340,1,72,0|0,3:0|0:0,0:0:0:0:
109,204,41755,2,0,L|103:132,1,72,10|0,0:0|0:0,0:0:0:0:
256,39,42100,6,0,L|250:111,1,72,2|0,3:2|0:0,0:0:0:0:
419,182,42445,1,8,0:0:0:0:
301,354,42617,2,0,P|293:321|295:282,1,72,0|0,0:0|3:0,0:0:0:0:
419,182,42962,2,0,P|394:205|359:223,1,72,0|10,0:0|0:0,0:0:0:0:
213,166,43307,2,0,P|245:175|278:196,1,72,0|2,0:0|3:2,0:0:0:0:
301,354,43652,5,0,0:0:0:0:
109,204,43824,1,8,0:0:0:0:
288,215,43996,1,0,0:0:0:0:
89,220,44169,2,0,L|81:129,1,72,0|0,3:0|0:0,0:0:0:0:
196,293,44514,2,0,L|188:384,1,72,10|0,0:0|0:0,0:0:0:0:
418,271,44858,6,0,P|424:226|419:182,1,90,4|0,3:2|0:0,0:0:0:0:
212,77,45203,2,0,P|206:121|212:166,1,90,8|0,0:0|0:0,0:0:0:0:
301,354,45548,2,0,P|234:345|168:354,2,135,12|0|0,3:2|0:3|3:0,0:0:0:0:
420,183,46238,5,4,3:2:0:0:
377,39,46410,2,0,L|387:164,1,116.999994644165,12|0,0:0|3:0,0:0:0:0:
212,77,46755,1,4,3:2:0:0:
169,221,46927,2,0,L|179:96,1,116.999994644165,12|0,0:0|3:0,0:0:0:0:
301,354,47272,2,0,L|291:229,1,116.999994644165,12|8,0:0|0:0,0:0:0:0:
115,282,47617,6,0,P|152:299|192:298,1,80.9999975280763,0|0,3:2|0:0,0:0:0:0:
420,183,47962,2,0,L|331:166,1,80.9999975280763,8|0,0:0|0:0,0:0:0:0:
301,354,48307,2,0,L|390:371,1,80.9999975280763,0|0,3:0|0:0,0:0:0:0:
492,147,48652,2,0,P|494:106|477:70,1,80.9999975280763,10|0,0:0|0:0,0:0:0:0:
285,274,48996,6,0,L|301:354,1,80.9999975280763,2|0,3:2|0:0,0:0:0:0:
420,183,49341,1,8,0:0:0:0:
380,369,49514,1,0,0:0:0:0:
220,196,49686,2,0,L|235:116,1,80.9999975280763,0|0,3:0|0:0,0:0:0:0:
141,262,50031,2,0,L|157:341,1,80.9999975280763,10|0,0:0|0:0,0:0:0:0:
285,274,50376,6,0,P|323:262|363:267,1,80.9999975280763,2|0,3:2|0:0,0:0:0:0:
509,337,50720,2,0,P|479:310|464:273,1,80.9999975280763,8|0,0:0|0:0,0:0:0:0:
453,111,51065,2,0,P|444:151|420:183,1,80.9999975280763,0|0,3:0|0:0,0:0:0:0:
220,196,51410,1,10,0:0:0:0:
354,109,51583,1,0,0:0:0:0:
178,96,51755,6,0,L|192:175,1,80.9999975280763,2|0,3:2|0:0,0:0:0:0:
146,339,52100,2,0,P|134:301|141:262,1,80.9999975280763,8|0,0:0|0:0,0:0:0:0:
320,249,52445,2,0,L|241:263,1,80.9999975280763,0|0,3:0|0:0,0:0:0:0:
15,180,52789,2,0,P|53:168|93:175,1,80.9999975280763,8|0,0:0|0:0,0:0:0:0:
308,272,53134,6,0,L|286:151,2,121.499996292114,4|0|0,3:2|3:0|3:0,0:0:0:0:
230,331,53824,1,2,0:0:0:0:
230,331,53996,6,0,L|219:273,1,58.4999973220826,4|0,3:2|0:0,0:0:0:0:
194,116,54169,1,12,0:0:0:0:
194,116,54514,6,0,L|172:237,2,121.499996292114,4|2|0,3:2|0:0|3:0,0:0:0:0:
116,57,55203,1,2,0:0:0:0:
116,57,55376,70,0,L|105:114,1,58.4999973220826,4|0,3:2|0:0,0:0:0:0:
80,272,55548,1,12,0:0:0:0:
33,71,55720,1,0,3:0:0:0:
230,130,55893,22,0,L|373:118,1,144,4|0,3:2|0:0,0:0:0:0:
391,138,56583,2,0,P|373:188|377:241,1,108,4|0,3:2|0:0,0:0:0:0:
425,302,56927,2,0,L|423:331,7,18
454,349,57272,6,0,L|462:219,1,125.999996154785,4|0,3:2|0:0,0:0:0:0:
325,360,57789,1,0,3:0:0:0:
378,242,57962,2,0,P|316:229|257:248,1,125.999996154785,8|0,0:0|3:0,0:0:0:0:
79,334,58652,5,0,3:0:0:0:
79,334,58996,1,0,3:0:0:0:
79,334,59341,2,0,L|39:324,1,40.4999987640381,0|0,3:0|0:0,0:0:0:0:
126,247,59514,2,0,L|165:237,1,40.4999987640381,0|0,3:0|0:0,0:0:0:0:
74,162,59686,1,0,3:0:0:0:
91,144,59772,1,0,3:0:0:0:
104,123,59858,1,0,3:0:0:0:
110,99,59945,1,0,3:0:0:0:
111,75,60031,6,0,B|204:94|204:94|257:80,1,135,4|0,3:2|0:0,0:0:0:0:
308,39,60376,2,0,P|299:83|305:128,1,90,8|0,0:0|0:0,0:0:0:0:
426,310,60720,2,0,P|434:266|428:221,1,90,0|0,3:0|0:0,0:0:0:0:
308,39,61065,1,8,0:0:0:0:
213,255,61238,21,2,0:0:0:0:
213,255,61324,1,2,0:0:0:0:
213,255,61410,2,0,L|303:264,1,90,0|0,3:0|0:0,0:0:0:0:
89,302,61755,2,0,P|81:258|87:213,1,90,8|0,0:0|0:0,0:0:0:0:
187,125,62100,1,0,0:0:0:0:
187,125,62186,1,2,0:0:0:0:
187,125,62272,1,2,0:0:0:0:
213,255,62445,1,8,0:0:0:0:
245,245,62531,1,2,0:0:0:0:
278,244,62617,1,2,0:0:0:0:
311,251,62703,1,2,0:0:0:0:
341,266,62789,6,0,L|327:133,1,135,0|0,3:0|0:0,0:0:0:0:
277,76,63134,2,0,P|321:77|365:68,1,90,8|0,0:0|0:0,0:0:0:0:
187,125,63479,2,0,P|142:123|98:132,1,90,0|0,3:0|0:0,0:0:0:0:
155,289,63824,1,8,0:0:0:0:
341,266,63996,5,2,0:0:0:0:
341,266,64083,1,2,0:0:0:0:
341,266,64169,2,0,L|345:177,1,90,0|0,3:0|0:0,0:0:0:0:
183,35,64514,2,0,L|187:124,1,90,8|0,0:0|0:0,0:0:0:0:
281,328,64858,1,2,3:2:0:0:
313,346,64945,1,2,0:0:0:0:
350,350,65031,1,2,0:0:0:0:
386,340,65117,1,2,0:0:0:0:
421,329,65203,1,10,0:0:0:0:
458,329,65289,1,2,0:0:0:0:
492,345,65376,6,0,P|479:269|492:168,1,180,4|0,3:2|0:0,0:0:0:0:
341,266,65893,2,0,P|347:221|341:177,1,90,8|0,0:0|0:0,0:0:0:0:
231,56,66238,1,2,3:2:0:0:
198,37,66324,1,2,0:0:0:0:
161,33,66410,1,2,0:0:0:0:
125,43,66496,1,2,0:0:0:0:
90,54,66583,1,10,0:0:0:0:
53,54,66669,1,2,0:0:0:0:
19,38,66755,6,0,P|33:115|20:216,1,180,4|0,3:2|3:0,0:0:0:0:
171,118,67272,2,0,P|164:162|170:206,1,90,8|0,0:0|0:0,0:0:0:0:
341,266,67617,1,2,3:2:0:0:
374,249,67703,1,2,0:0:0:0:
391,217,67789,1,2,0:0:0:0:
386,180,67876,1,2,0:0:0:0:
360,154,67962,1,10,0:0:0:0:
323,147,68048,1,2,0:0:0:0:
291,164,68134,22,0,L|288:354,1,180,4|0,3:2|0:0,0:0:0:0:
170,207,68652,2,0,L|169:296,1,90,8|0,0:0|0:0,0:0:0:0:
171,118,68996,2,0,L|171:73,1,45,2|2,3:2|0:0,0:0:0:0:
92,250,69169,2,0,L|53:271,1,45,2|2,3:2|0:0,0:0:0:0:
252,248,69341,2,0,L|290:270,1,45,10|2,0:0|0:0,0:0:0:0:
457,344,69514,6,0,P|445:254|458:166,1,180,4|0,3:2|3:0,0:0:0:0:
323,58,70031,2,0,P|329:102|323:147,1,90,8|0,0:0|3:0,0:0:0:0:
169,207,70376,2,0,P|105:197|45:239,2,135,4|4|4,3:1|3:1|3:1,0:0:0:0:
252,248,71065,6,0,L|341:242,1,90,4|0,3:2|0:0,0:0:0:0:
323,58,71410,1,8,0:0:0:0:
169,207,71583,2,0,L|124:210,1,45,2|2,0:0|0:0,0:0:0:0:
252,255,71755,6,0,L|350:249,1,99.0000030212403,4|0,3:2|0:0,0:0:0:0:
330,46,72100,1,8,0:0:0:0:
161,210,72272,2,0,L|112:213,1,49.5000015106202,2|2,0:0|0:0,0:0:0:0:
252,263,72445,6,0,L|359:256,1,107.999996704102,4|0,3:2|0:0,0:0:0:0:
338,35,72789,1,8,0:0:0:0:
153,214,72962,2,0,L|99:217,1,53.9999983520508,2|2,0:0|0:0,0:0:0:0:
253,271,73134,6,0,L|311:267,1,58.4999973220826,4|0,3:2|0:0,0:0:0:0:
495,264,73307,2,0,L|445:232,1,58.4999973220826,4|0,3:2|0:0,0:0:0:0:
297,127,73479,2,0,L|318:181,1,58.4999973220826,12|0,3:2|0:0,0:0:0:0:
377,357,73652,2,0,L|391:300,1,58.4999973220826,4|0,3:2|0:0,0:0:0:0:
446,122,73824,2,0,L|401:159,1,58.4999973220826,4|0,3:2|0:0,0:0:0:0:
207,371,75203,22,0,P|205:353|200:335,1,36,8|0,0:0|0:0,0:0:0:0:
279,297,75376,1,0,1:0:0:0:
266,284,75462,1,0,1:0:0:0:
253,271,75548,2,0,P|254:253|259:235,1,36,8|0,0:0|0:0,0:0:0:0:
194,184,75720,1,8,0:0:0:0:
207,171,75807,2,0,P|205:153|200:135,1,36,0|0,1:0|0:0,0:0:0:0:
266,84,75979,1,8,0:0:0:0:
253,71,76065,2,0,P|254:53|259:35,1,36,0|0,1:0|0:0,0:0:0:0:
79,37,76238,54,2,P|79:51|82:65,7,29.2499986610413
68,90,76583,38,0,P|85:136|76:191,1,99.0000030212403,4|2,3:2|0:0,0:0:0:0:
41,341,76927,2,0,P|72:303|118:285,1,99.0000030212403,8|2,0:0|0:3,0:0:0:0:
272,238,77272,2,0,P|223:229|184:199,1,99.0000030212403,0|2,3:0|0:0,0:0:0:0:
360,71,77617,1,8,0:0:0:0:
422,272,77789,1,2,0:3:0:0:
268,129,77962,6,0,L|259:30,1,99.0000030212403,0|2,3:0|0:0,0:0:0:0:
422,272,78307,2,0,L|413:371,1,99.0000030212403,8|0,0:0|0:3,0:0:0:0:
505,201,78652,2,0,P|466:171|418:163,1,99.0000030212403,0|2,3:0|0:0,0:0:0:0:
272,238,78996,2,0,L|266:292,1,49.5000015106202,8|2,0:0|0:0,0:0:0:0:
174,368,79169,2,0,L|169:318,1,49.5000015106202,2|0,0:3|0:0,0:0:0:0:
157,202,79341,5,0,3:0:0:0:
51,361,79514,1,2,0:0:0:0:
51,361,79600,1,2,0:0:0:0:
51,361,79686,1,8,0:0:0:0:
13,174,79858,1,2,0:3:0:0:
246,254,80031,21,0,3:0:0:0:
141,94,80203,1,2,0:0:0:0:
141,94,80289,1,2,0:0:0:0:
141,94,80376,1,8,0:0:0:0:
103,281,80548,1,2,0:3:0:0:
336,201,80720,5,0,3:0:0:0:
231,361,80893,1,2,0:0:0:0:
231,361,80979,1,2,0:0:0:0:
231,361,81065,1,8,0:0:0:0:
193,174,81238,1,2,0:3:0:0:
426,253,81410,6,0,P|441:204|397:115,1,148.50000453186,0|0,3:0|0:0,0:0:0:0:
419,82,81755,2,0,P|373:99|318:90,1,99.0000030212403,8|2,0:2|0:3,0:0:0:0:
100,233,82100,6,0,L|91:134,1,99.0000030212403,4|2,3:2|0:0,0:0:0:0:
261,259,82445,2,0,L|252:358,1,99.0000030212403,12|0,0:0|0:3,0:0:0:0:
193,174,82789,2,0,P|236:151|285:151,1,99.0000030212403,0|2,3:0|0:0,0:0:0:0:
353,318,83134,1,8,0:0:0:0:
440,121,83307,1,2,0:3:0:0:
261,259,83479,6,0,L|252:358,1,99.0000030212403,0|2,3:0|0:0,0:0:0:0:
440,121,83824,2,0,L|431:22,1,99.0000030212403,8|2,0:0|0:3,0:0:0:0:
508,206,84169,2,0,P|465:229|416:229,1,99.0000030212403,0|2,3:0|0:0,0:0:0:0:
286,152,84514,1,8,0:0:0:0:
353,318,84686,21,4,3:1:0:0:
353,318,85031,1,4,3:1:0:0:
210,158,85203,1,4,3:1:0:0:
416,229,85376,1,4,3:1:0:0:
124,213,85548,1,4,3:1:0:0:
124,213,85893,1,4,3:1:0:0:
124,213,86238,6,0,P|109:167|116:118,1,99.0000030212403,4|0,3:2|0:0,0:0:0:0:
395,255,86583,2,0,P|410:310|402:351,1,99.0000030212403,8|0,0:0|0:0,0:0:0:0:
210,158,86927,1,0,3:0:0:0:
310,311,87100,1,0,1:0:0:0:
310,311,87186,1,0,1:0:0:0:
310,311,87272,1,8,0:0:0:0:
76,302,87445,6,0,P|24:233|45:148,1,180,4|0,3:2|3:0,0:0:0:0:
210,291,87962,2,0,L|203:380,1,90,8|0,0:0|0:0,0:0:0:0:
124,213,88307,1,0,3:0:0:0:
310,311,88479,1,2,0:0:0:0:
76,302,88652,1,8,0:0:0:0:
200,105,88824,6,0,B|259:98|259:98|319:107|319:107|378:100,1,180,2|0,0:0|0:0,0:0:0:0:
213,202,89341,2,0,L|124:213,1,90,8|0,0:0|0:0,0:0:0:0:
310,311,89686,1,0,3:0:0:0:
200,105,89858,1,2,0:0:0:0:
193,339,90031,1,8,0:0:0:0:
274,83,90203,6,0,P|210:28|133:64,1,180,2|0,0:0|0:0,0:0:0:0:
310,311,90720,2,0,L|399:300,1,90,12|0,0:0|0:0,0:0:0:0:
213,202,91065,1,0,3:0:0:0:
193,339,91238,2,0,L|104:328,1,90,2|8,0:0|0:0,0:0:0:0:
51,188,91583,22,0,P|129:228|213:202,1,180,2|0,0:0|0:0,0:0:0:0:
409,62,92100,2,0,L|302:46,1,90,12|0,0:0|0:0,0:0:0:0:
139,108,92445,1,0,3:0:0:0:
294,247,92617,2,0,P|304:203|294:159,2,90,2|8|2,0:0|0:0|0:0,0:0:0:0:
56,124,93134,6,0,L|139:108,2,83.9999974365235,4|0|0,3:2|3:0|3:0,0:0:0:0:
455,124,93824,2,0,L|373:108,2,83.9999974365235,12|0|0,0:2|3:0|3:0,0:0:0:0:
256,343,94514,1,12,3:2:0:0:
256,343,95203,6,2,L|256:208,1,135,2|0,0:0|0:0,0:0:0:0:
256,53,95893,5,14,0:0:0:0:
151,234,96065,1,2,0:0:0:0:
360,234,96238,1,2,0:0:0:0:
256,53,96410,1,2,0:0:0:0:
255,310,96583,5,10,0:0:0:0:
360,129,96755,1,2,3:2:0:0:
151,129,96927,1,2,3:2:0:0:
256,343,97100,1,12,3:2:0:0:
