osu file format v14

[General]
AudioFilename: Exterminate.mp3
AudioLeadIn: 0
PreviewTime: 76152
Countdown: 0
SampleSet: Soft
StackLeniency: 0.7
Mode: 0
LetterboxInBreaks: 0
WidescreenStoryboard: 0

[Editor]
Bookmarks: 22100,26927,50720,96410
DistanceSpacing: 1
BeatDivisor: 4
GridSize: 8
TimelineZoom: 1.400006

[Metadata]
Title:Exterminate
TitleUnicode:Exterminate
Artist:Nana Mizuki
ArtistUnicode:水樹奈々
Creator:Blizs
Version:Easy
Source:戦姫絶唱シンフォギアGX
Tags:Senki Zesshou Symphogear GX opening TV Size Elements Garden 上松範康 Agematsu Noriyasu Fantastica ShiraKai Natsu Euny Luna- Dark_Accelerator
BeatmapID:1406630
BeatmapSetID:351537

[Difficulty]
HPDrainRate:3
CircleSize:3
OverallDifficulty:3
ApproachRate:4
SliderMultiplier:0.899999999999999
SliderTickRate:1

[Events]
//Background and Video events
Video,0,"Exterminate.avi"
0,0,"Senki.Zesshou.Symphogear.full.1596610.jpg",0,0
//Break Periods
//Storyboard Layer 0 (Background)
//Storyboard Layer 1 (Fail)
//Storyboard Layer 2 (Pass)
//Storyboard Layer 3 (Foreground)
//Storyboard Sound Samples

[TimingPoints]
435,600,4,2,1,30,1,0
1035,600,4,2,1,30,1,0
10635,-66.6666666666667,4,2,1,30,0,0
11835,631.578947368421,4,2,1,30,1,0
11835,-66.6666666666667,4,2,1,30,0,0
12466,568.720379146919,4,2,1,30,1,0
12466,-66.6666666666667,4,2,1,30,0,0
13034,606.060606060606,4,2,1,30,1,0
13034,-66.6666666666667,4,2,1,30,0,0
15459,652.173913043478,4,2,1,30,1,0
15785,731.707317073171,4,2,1,30,1,0
16150,645.161290322581,4,2,1,30,1,0
16472,833.333333333333,4,2,1,30,1,0
16888,882.352941176471,4,2,1,30,1,0
18652,344.827586206897,4,2,1,70,1,0
21755,-100,4,2,1,40,0,0
22100,-100,4,2,1,70,0,0
24169,-100,4,2,1,75,0,0
25893,-100,4,1,1,75,0,0
25979,-100,4,2,1,75,0,0
28652,-100,4,1,1,75,0,0
28738,-100,4,2,1,75,0,0
31410,-100,4,1,1,75,0,0
31496,-100,4,2,1,75,0,0
34169,-100,4,1,1,75,0,0
34255,-100,4,2,1,75,0,0
36583,-100,4,2,1,55,0,0
38307,-100,4,1,1,55,0,0
38393,-100,4,2,1,55,0,0
41065,-100,4,1,1,55,0,0
41152,-100,4,2,1,55,0,0
42445,-100,4,1,1,55,0,0
42531,-100,4,2,1,55,0,0
43824,-100,4,1,1,55,0,0
43910,-100,4,2,1,55,0,0
44858,-100,4,2,1,60,0,0
46238,-100,4,2,1,70,0,0
47617,-100,4,2,1,55,0,0
49341,-100,4,1,1,55,0,0
49427,-100,4,2,1,55,0,0
52100,-100,4,1,1,55,0,0
52186,-100,4,2,1,55,0,0
53996,-100,4,2,1,70,0,0
54514,-100,4,2,1,55,0,0
55376,-100,4,2,1,70,0,0
55893,-100,4,2,1,55,0,0
56927,-100,4,1,1,20,0,0
57272,-100,4,2,1,60,0,0
59772,-100,4,2,1,40,0,0
60031,-100,4,2,1,65,0,0
61065,-100,4,1,1,65,0,0
61152,-100,4,2,1,65,0,0
63824,-100,4,1,1,65,0,0
63910,-100,4,2,1,65,0,0
71065,-100,4,2,1,60,0,0
71755,-100,4,2,1,65,0,0
72445,-100,4,2,1,70,0,0
73134,-100,4,2,1,75,0,0
76238,-100,4,2,1,60,0,0
76583,-100,4,2,1,75,0,1
79686,-100,4,1,1,75,0,1
79772,-100,4,2,1,75,0,1
81065,-100,4,1,1,75,0,1
81152,-100,4,2,1,75,0,1
86583,-100,4,1,1,75,0,1
86669,-100,4,2,1,75,0,1
87445,-100,4,2,1,60,0,0

[Colours]
Combo1 : 255,255,183
Combo2 : 255,165,121
Combo3 : 128,128,255
Combo4 : 218,218,218
Combo5 : 255,170,193

[HitObjects]
326,256,10635,6,0,P|371:272|452:236,2,135.000005149841,2|2|2,0:0|0:0|0:0,0:0:0:0:
256,123,12466,1,2,0:0:0:0:
163,209,13034,2,0,L|168:347,2,135.000005149841,2|2|2,0:0|0:0|0:0,0:0:0:0:
256,192,15459,12,4,18652,3:2:0:0:
446,159,21410,6,0,P|454:203|441:246,1,89.9999999999999,4|2,3:0|0:0,0:0:0:0:
364,197,22100,2,0,L|229:206,1,135,8|2,0:0|0:0,0:0:0:0:
227,297,22962,2,0,L|361:287,1,135,8|8,0:0|0:0,0:0:0:0:
441,245,23824,1,2,0:0:0:0:
364,197,24169,6,0,P|355:151|359:106,1,89.9999999999999,4|8,3:2|0:0,0:0:0:0:
299,40,24858,2,0,L|210:37,1,89.9999999999999,0|8,3:0|0:0,0:0:0:0:
118,38,25548,2,0,B|119:85|159:114|159:114|196:143|197:192,1,180,0|0,3:0|3:0,0:0:0:0:
106,188,26583,1,8,0:0:0:0:
44,253,26927,6,0,L|58:347,1,89.9999999999999,0|8,3:0|0:0,0:0:0:0:
144,364,27617,2,0,P|190:346|232:344,1,89.9999999999999,0|8,3:0|0:0,0:0:0:0:
318,361,28307,2,0,P|404:355|446:281,1,180,0|4,3:0|3:2,0:0:0:0:
356,278,29341,1,8,0:0:0:0:
311,198,29686,6,0,P|312:154|319:109,1,89.9999999999999,4|8,3:2|0:0,0:0:0:0:
240,65,30376,2,0,P|200:86|158:102,1,89.9999999999999,0|8,3:0|0:0,0:0:0:0:
80,54,31065,2,0,P|75:140|144:192,1,180,0|0,3:0|3:0,0:0:0:0:
273,157,32272,6,0,P|339:147|393:186,1,135,4|4,3:1|3:1,0:0:0:0:
399,275,33134,2,0,L|354:353,1,89.9999999999999,4|4,3:1|3:1,0:0:0:0:
262,357,33824,6,0,P|174:344|87:365,1,180,4|0,3:2|3:0,0:0:0:0:
40,288,34858,1,8,0:0:0:0:
90,212,35203,2,0,P|95:168|89:123,1,89.9999999999999,0|8,3:0|0:0,0:0:0:0:
142,51,35893,2,0,P|186:45|231:51,1,89.9999999999999,2|8,3:2|0:0,0:0:0:0:
310,94,36583,6,0,P|354:99|399:93,1,89.9999999999999,4|8,3:2|0:0,0:0:0:0:
473,144,37272,2,0,L|482:234,1,89.9999999999999,0|10,3:0|0:0,0:0:0:0:
413,291,37962,2,0,P|330:258|243:277,1,180,2|0,3:2|3:0,0:0:0:0:
174,334,38996,1,10,0:0:0:0:
89,303,39341,6,0,L|83:213,1,89.9999999999999,2|8,3:2|0:0,0:0:0:0:
150,153,40031,2,0,L|156:63,1,89.9999999999999,0|10,3:0|0:0,0:0:0:0:
238,27,40720,2,0,B|279:51|324:37|324:37|369:22|411:46,1,180,2|0,3:2|3:0,0:0:0:0:
359,120,41755,1,10,0:0:0:0:
305,192,42100,6,0,P|369:209|427:177,2,135,2|2|10,3:2|0:0|0:0,0:0:0:0:
269,110,43479,2,0,P|205:93|147:125,2,135,2|2|10,3:2|0:0|0:0,0:0:0:0:
216,183,44858,6,0,L|210:274,1,89.9999999999999,4|8,3:2|0:0,0:0:0:0:
273,335,45548,2,0,P|315:322|360:325,1,89.9999999999999,4|2,3:2|0:0,0:0:0:0:
413,252,46238,2,0,B|381:224|382:171|411:128|411:128|381:135|344:124|344:124|309:112|278:118,1,270,4|12,3:2|0:0,0:0:0:0:
192,147,47617,6,0,P|149:138|115:110,1,89.9999999999999,0|8,3:0|0:0,0:0:0:0:
27,134,48307,2,0,L|27:223,1,89.9999999999999,0|8,3:0|0:0,0:0:0:0:
88,289,48996,2,0,B|130:274|174:297|174:297|218:322|260:305,1,180,0|0,3:0|3:0,0:0:0:0:
228,220,50031,1,8,0:0:0:0:
195,135,50376,6,0,L|211:46,1,89.9999999999999,0|8,3:0|0:0,0:0:0:0:
302,60,51065,2,0,L|286:149,1,89.9999999999999,0|8,3:0|0:0,0:0:0:0:
228,220,51755,2,0,P|142:209|104:132,1,180,0|0,3:0|3:0,0:0:0:0:
195,135,52789,1,8,0:0:0:0:
285,147,53134,6,0,P|318:205|306:270,2,135,4|0|8,3:2|3:0|0:0,0:0:0:0:
195,135,54514,2,0,P|228:78|291:56,2,135,4|0|8,3:2|3:0|0:0,0:0:0:0:
287,147,55893,6,0,B|330:143|371:174|371:174|424:180|455:152,2,180,4|4|4,3:2|3:2|3:2,0:0:0:0:
134,244,57962,6,0,P|90:253|47:241,1,89.9999999999999,8|0,0:0|3:0,0:0:0:0:
94,164,58652,1,0,3:0:0:0:
184,169,58996,1,0,3:0:0:0:
224,249,59341,1,0,3:0:0:0:
174,324,59686,1,0,3:0:0:0:
242,382,60031,6,0,L|333:369,1,89.9999999999999,4|8,3:2|0:0,0:0:0:0:
375,290,60720,2,0,B|351:253|373:205|373:205|396:158|377:117,1,180,0|0,3:0|3:0,0:0:0:0:
295,156,61755,1,8,0:0:0:0:
218,107,62100,2,0,L|129:101,1,89.9999999999999,0|8,3:0|0:0,0:0:0:0:
71,170,62789,6,0,P|77:215|61:257,1,89.9999999999999,0|8,3:0|0:0,0:0:0:0:
107,333,63479,2,0,L|286:345,1,180,0|0,3:0|3:0,0:0:0:0:
351,282,64514,2,0,P|338:237|348:194,1,89.9999999999999,8|0,0:0|3:0,0:0:0:0:
278,79,65376,6,0,L|141:92,1,135,4|8,3:2|0:0,0:0:0:0:
84,159,66238,1,0,3:0:0:0:
171,261,66755,2,0,L|308:248,1,135,4|8,3:2|0:0,0:0:0:0:
365,181,67617,1,0,3:0:0:0:
278,79,68134,6,0,L|141:92,1,135,4|8,3:2|0:0,0:0:0:0:
84,159,68996,1,0,3:0:0:0:
171,261,69513,2,0,L|308:248,1,135,4|8,3:2|0:0,0:0:0:0:
365,181,70375,1,4,3:1:0:0:
226,65,71065,6,0,L|136:73,1,89.9999999999999,4|8,3:2|0:0,0:0:0:0:
85,158,71755,2,0,L|93:248,1,89.9999999999999,4|8,3:2|0:0,0:0:0:0:
178,299,72445,2,0,L|268:291,1,89.9999999999999,4|8,3:2|0:0,0:0:0:0:
319,206,73134,2,0,L|311:116,2,89.9999999999999,4|8|4,3:2|0:0|3:2,0:0:0:0:
83,275,76238,1,2,0:0:0:0:
14,204,76583,6,0,P|25:160|22:108,1,89.9999999999999,4|8,3:2|0:0,0:0:0:0:
86,50,77272,2,0,L|177:42,1,89.9999999999999,0|8,3:0|0:0,0:0:0:0:
256,82,77962,2,0,L|256:172,2,89.9999999999999,0|8|0,3:0|0:0|3:0,0:0:0:0:
336,42,78996,1,8,0:0:0:0:
416,82,79341,6,0,L|416:262,1,180,0|0,3:0|3:0,0:0:0:0:
336,304,80376,1,8,0:0:0:0:
255,261,80720,2,0,P|168:254|102:312,1,180,0|0,3:0|3:2,0:0:0:0:
31,255,81755,1,8,0:0:0:0:
64,171,82100,6,0,L|61:82,1,89.9999999999999,4|12,3:2|0:0,0:0:0:0:
141,40,82789,2,0,P|184:48|228:37,1,89.9999999999999,0|8,3:0|0:0,0:0:0:0:
318,40,83479,2,0,P|361:31|403:48,1,89.9999999999999,0|8,3:0|0:0,0:0:0:0:
354,123,84169,1,0,3:0:0:0:
454,212,84686,6,0,L|449:350,1,135,4|4,3:1|3:1,0:0:0:0:
361,367,85548,2,0,L|364:277,1,89.9999999999999,4|4,3:1|3:1,0:0:0:0:
299,213,86238,2,0,B|259:192|212:209|212:209|165:227|125:205,1,180,4|0,3:2|3:0,0:0:0:0:
124,69,87445,6,0,L|261:46,1,135,4|8,3:2|0:0,0:0:0:0:
337,86,88307,1,0,3:0:0:0:
270,203,88824,2,0,L|136:225,1,135,2|8,0:0|0:0,0:0:0:0:
57,186,89686,1,0,3:0:0:0:
124,69,90203,6,0,L|261:46,1,135,2|12,0:0|0:0,0:0:0:0:
337,86,91065,1,0,3:0:0:0:
270,203,91582,2,0,L|136:225,1,135,2|12,0:0|0:0,0:0:0:0:
56,186,92445,2,0,P|48:229|60:272,1,89.9999999999999,0|8,3:0|0:0,0:0:0:0:
139,315,93134,6,0,B|198:305|198:305|253:329|253:329|312:319,2,180,4|12|12,3:2|0:0|3:2,0:0:0:0:
139,315,95893,6,0,P|127:273|133:229,1,89.9999999999999,6|2,3:2|0:0,0:0:0:0:
199,165,96583,2,0,P|228:111|210:42,1,135,10|12,0:0|3:2,0:0:0:0:
