osu file format v14

[General]
AudioFilename: audio.mp3
AudioLeadIn: 0
PreviewTime: -1
Countdown: 1
SampleSet: Soft
StackLeniency: 0.7
Mode: 0
LetterboxInBreaks: 0
WidescreenStoryboard: 0

[Editor]
Bookmarks: 12444,28444,73777,114666,136000,152032,208031,215142
DistanceSpacing: 0.5
BeatDivisor: 4
GridSize: 4
TimelineZoom: 1

[Metadata]
Title:nami@ Daidai Genome -
TitleUnicode:【nami@*なみりん】 Daidai Genome -「橙ゲノム」を歌ってみた
Artist:*Namirin
ArtistUnicode:*Namirin
Creator:Slybat
Version:Hana
Source:
Tags:
BeatmapID:1226815
BeatmapSetID:579369

[Difficulty]
HPDrainRate:5.8
CircleSize:4.2
OverallDifficulty:9
ApproachRate:9
SliderMultiplier:1.99999990463257
SliderTickRate:1

[Events]
//Background and Video events
0,0,"495521.jpg",0,0
//Break Periods
2,80455,87433
2,121567,122988
//Storyboard Layer 0 (Background)
//Storyboard Layer 1 (Fail)
//Storyboard Layer 2 (Pass)
//Storyboard Layer 3 (Foreground)
//Storyboard Sound Samples

[TimingPoints]
33.204765453186,444.444444444444,4,2,0,100,1,0
202698,444.444444444444,4,2,0,100,1,0

[HitObjects]
116,28,12477,5,0,0:0:0:0:
32,160,12699,1,0,0:0:0:0:
220,96,12922,2,0,P|164:92|116:152,1,99.9999952316283
116,152,13366,1,0,0:0:0:0:
140,160,13588,1,0,0:0:0:0:
164,164,13810,1,0,0:0:0:0:
244,32,14255,5,0,0:0:0:0:
168,176,14477,1,0,0:0:0:0:
320,276,14699,2,0,P|352:212|324:184,1,99.9999952316283
324,184,15144,1,0,0:0:0:0:
352,160,15366,1,0,0:0:0:0:
372,136,15588,1,0,0:0:0:0:
188,164,16033,5,0,0:0:0:0:
208,164,16255,1,0,0:0:0:0:
240,160,16477,1,0,0:0:0:0:
268,148,16700,1,0,0:0:0:0:
292,128,16922,1,0,0:0:0:0:
316,104,17144,2,0,P|328:56|264:76,1,99.9999952316283
224,56,17588,5,0,0:0:0:0:
168,124,17810,1,0,0:0:0:0:
240,160,18032,1,0,0:0:0:0:
268,148,18255,1,0,0:0:0:0:
300,132,18477,2,0,P|380:92|400:48,1,99.9999952316283
192,64,19588,2,0,P|124:104|128:136,1,99.9999952316285
148,176,20033,1,0,0:0:0:0:
272,100,20255,1,0,0:0:0:0:
120,88,20477,1,0,0:0:0:0:
248,192,20699,2,0,P|312:168|328:124,1,99.9999952316285
260,56,21366,6,0,P|188:56|144:104,1,99.9999952316285
92,184,21810,1,0,0:0:0:0:
292,128,22033,1,0,0:0:0:0:
96,76,22255,5,0,0:0:0:0:
156,212,22477,2,0,P|192:264|260:268,1,99.9999952316285
160,108,23144,2,0,B|216:148|296:96|336:196,1,199.999990463257
332,186,24033,2,0,B|276:146|196:198|156:99,1,199.999990463257
176,80,24922,2,0,B|128:112|168:144|120:168|60:160|80:236|108:260,1,199.999990463257
335,304,25810,2,0,B|383:271|344:239|392:216|452:224|432:147|404:124,1,199.999990463257
328,196,26699,2,0,B|304:256|247:264|227:236|152:252|152:260,1,199.999990463257
152,256,27588,2,0,P|152:228|164:200,1,49.9999976158143
288,132,28033,1,0,0:0:0:0:
112,160,28477,5,0,0:0:0:0:
140,168,28699,1,0,0:0:0:0:
176,168,28922,2,0,P|236:144|240:96,1,99.9999952316285
188,36,29366,1,0,0:0:0:0:
144,252,29588,1,0,0:0:0:0:
264,84,29810,1,0,0:0:0:0:
280,112,30255,5,0,0:0:0:0:
304,136,30477,1,0,0:0:0:0:
340,148,30699,2,0,P|404:136|428:72,1,99.9999952316285
392,32,31144,1,0,0:0:0:0:
272,252,31366,1,0,0:0:0:0:
464,132,31588,1,0,0:0:0:0:
96,48,32033,5,0,0:0:0:0:
200,48,32477,5,0,0:0:0:0:
80,188,32699,1,0,0:0:0:0:
224,132,32922,1,0,0:0:0:0:
132,292,33144,1,0,0:0:0:0:
160,192,33366,5,0,0:0:0:0:
192,216,33588,2,0,P|248:240|304:196,1,99.9999952316285
264,96,34255,1,0,0:0:0:0:
352,208,34477,1,0,0:0:0:0:
432,84,34699,1,0,0:0:0:0:
336,216,35144,5,0,0:0:0:0:
336,128,35366,1,0,0:0:0:0:
244,48,35588,1,0,0:0:0:0:
180,192,35810,1,0,0:0:0:0:
336,208,36033,1,0,0:0:0:0:
312,68,36255,1,0,0:0:0:0:
284,60,36477,1,0,0:0:0:0:
256,64,36699,1,0,0:0:0:0:
176,288,36922,1,0,0:0:0:0:
140,88,37144,5,0,0:0:0:0:
352,280,37366,1,0,0:0:0:0:
364,80,37588,1,0,0:0:0:0:
128,160,37810,1,0,0:0:0:0:
88,240,38033,1,0,0:0:0:0:
108,260,38255,1,0,0:0:0:0:
372,196,38699,1,0,0:0:0:0:
328,116,38922,1,0,0:0:0:0:
304,88,39033,5,0,0:0:0:0:
272,80,39144,1,0,0:0:0:0:
220,152,39588,2,0,L|156:268,1,99.9999952316283
171,239,40033,2,0,L|296:188,1,99.9999952316283
256,200,40477,2,0,L|232:300,1,99.9999952316283
232,297,40922,2,0,L|336:248,1,99.9999952316283
322,254,41366,5,0,0:0:0:0:
424,184,41588,1,0,0:0:0:0:
316,116,41810,1,0,0:0:0:0:
256,64,42255,5,0,0:0:0:0:
208,140,42477,1,0,0:0:0:0:
184,56,42699,1,0,0:0:0:0:
100,48,43144,5,0,0:0:0:0:
36,136,43366,1,0,0:0:0:0:
96,216,43588,1,0,0:0:0:0:
140,84,44033,2,0,P|200:96|216:168,1,99.9999952316283
219,126,44477,1,0,0:0:0:0:
312,244,44699,1,0,0:0:0:0:
160,232,44922,1,0,0:0:0:0:
296,164,45144,1,0,0:0:0:0:
228,296,45366,1,0,0:0:0:0:
108,144,45810,1,0,0:0:0:0:
204,56,46033,1,0,0:0:0:0:
232,48,46144,1,0,0:0:0:0:
256,60,46255,5,0,0:0:0:0:
360,272,46699,1,0,0:0:0:0:
104,168,47144,1,0,0:0:0:0:
288,112,47588,5,0,0:0:0:0:
392,224,47810,1,0,0:0:0:0:
156,304,48033,1,0,0:0:0:0:
288,304,48477,5,0,0:0:0:0:
72,144,48922,1,0,0:0:0:0:
284,188,49366,1,0,0:0:0:0:
120,352,49810,5,0,0:0:0:0:
156,228,50033,1,0,0:0:0:0:
272,288,50255,1,0,0:0:0:0:
292,160,50477,1,0,0:0:0:0:
416,240,50699,1,0,0:0:0:0:
388,84,50922,1,0,0:0:0:0:
212,172,51144,1,0,0:0:0:0:
300,300,51366,1,0,0:0:0:0:
348,160,51588,1,0,0:0:0:0:
248,76,52477,5,0,0:0:0:0:
136,184,52699,1,0,0:0:0:0:
308,240,52922,1,0,0:0:0:0:
96,136,53144,1,0,0:0:0:0:
396,96,53366,1,0,0:0:0:0:
204,240,53588,1,0,0:0:0:0:
188,60,53810,1,0,0:0:0:0:
228,176,55144,1,0,0:0:0:0:
260,192,55366,1,0,0:0:0:0:
284,212,55588,1,0,0:0:0:0:
244,68,56033,5,0,0:0:0:0:
192,232,56255,1,0,0:0:0:0:
336,152,56477,1,0,0:0:0:0:
140,144,56699,1,0,0:0:0:0:
320,248,56922,1,0,0:0:0:0:
260,36,57144,1,0,0:0:0:0:
136,208,57366,1,0,0:0:0:0:
356,116,57588,1,0,0:0:0:0:
120,96,57810,1,0,0:0:0:0:
232,256,58033,1,0,0:0:0:0:
352,56,58255,1,0,0:0:0:0:
88,172,58477,1,0,0:0:0:0:
132,232,58699,5,0,0:0:0:0:
168,304,58922,1,0,0:0:0:0:
202,235,59144,2,0,P|298:223|306:203,1,99.9999952316283
356,212,59588,5,0,0:0:0:0:
372,188,59699,1,0,0:0:0:0:
360,156,59810,1,0,0:0:0:0:
284,176,60033,2,0,P|220:140|236:104,1,99.9999952316283
300,88,60477,5,0,0:0:0:0:
328,80,60588,1,0,0:0:0:0:
352,100,60699,1,0,0:0:0:0:
356,256,60922,1,0,0:0:0:0:
168,96,61144,1,0,0:0:0:0:
152,216,61366,5,0,0:0:0:0:
212,296,61588,1,0,0:0:0:0:
296,296,61810,2,0,P|364:272|392:220,1,99.9999952316283
392,184,62255,5,0,0:0:0:0:
368,160,62366,1,0,0:0:0:0:
340,164,62477,1,0,0:0:0:0:
136,284,62699,1,0,0:0:0:0:
64,60,62922,1,0,0:0:0:0:
132,144,63144,5,0,0:0:0:0:
152,108,63255,1,0,0:0:0:0:
184,88,63366,1,0,0:0:0:0:
280,96,63588,2,0,P|332:140|324:188,1,99.9999952316283
352,228,64033,5,0,0:0:0:0:
356,256,64144,1,0,0:0:0:0:
344,276,64255,1,0,0:0:0:0:
164,340,64477,1,0,0:0:0:0:
108,224,64699,1,0,0:0:0:0:
140,112,64922,1,0,0:0:0:0:
236,88,65144,1,0,0:0:0:0:
328,216,65366,1,0,0:0:0:0:
200,200,65588,5,0,0:0:0:0:
340,112,65810,1,0,0:0:0:0:
196,136,66033,1,0,0:0:0:0:
264,212,66255,1,0,0:0:0:0:
360,192,66477,1,0,0:0:0:0:
216,72,66699,2,0,L|248:116,1,49.9999976158143
324,236,66922,1,0,0:0:0:0:
204,200,67144,1,0,0:0:0:0:
348,80,67366,1,0,0:0:0:0:
132,108,67588,1,0,0:0:0:0:
300,48,67810,5,0,0:0:0:0:
180,248,68033,1,0,0:0:0:0:
312,220,68255,1,0,0:0:0:0:
128,220,68477,1,0,0:0:0:0:
148,96,68699,1,0,0:0:0:0:
344,156,68922,5,0,0:0:0:0:
196,252,69144,1,0,0:0:0:0:
348,320,69366,2,0,B|400:304|396:296|400:256,1,49.9999976158143
464,160,69588,1,0,0:0:0:0:
264,88,69810,1,0,0:0:0:0:
112,80,70255,2,0,L|112:212,1,99.9999952316283
112,180,70699,1,0,0:0:0:0:
184,80,70922,1,0,0:0:0:0:
256,196,71144,1,0,0:0:0:0:
336,80,71366,1,0,0:0:0:0:
396,200,71588,1,0,0:0:0:0:
468,56,72033,6,0,L|468:184,1,99.9999952316283
396,200,72477,1,0,0:0:0:0:
336,80,72699,1,0,0:0:0:0:
256,192,72922,1,0,0:0:0:0:
184,80,73144,1,0,0:0:0:0:
116,184,73366,1,0,0:0:0:0:
388,80,73810,5,0,0:0:0:0:
256,112,74255,2,0,P|184:124|164:180,1,99.9999952316283
184,208,74699,1,0,0:0:0:0:
276,160,74922,1,0,0:0:0:0:
240,232,75144,1,0,0:0:0:0:
308,240,75366,2,0,P|368:232|408:208,1,99.9999952316283
216,44,76033,5,0,0:0:0:0:
324,160,76255,1,0,0:0:0:0:
144,172,76477,1,0,0:0:0:0:
176,40,76922,1,0,0:0:0:0:
236,232,77144,1,0,0:0:0:0:
292,40,77366,1,0,0:0:0:0:
200,48,77810,5,0,0:0:0:0:
348,236,78033,1,0,0:0:0:0:
128,224,78255,1,0,0:0:0:0:
344,132,78477,1,0,0:0:0:0:
132,80,78699,1,0,0:0:0:0:
244,276,78922,1,0,0:0:0:0:
312,80,79144,1,0,0:0:0:0:
160,168,79366,1,0,0:0:0:0:
200,272,79588,2,0,P|256:296|324:268,1,99.9999952316283
352,280,80033,5,0,0:0:0:0:
380,256,80144,1,0,0:0:0:0:
388,216,80255,1,0,0:0:0:0:
208,64,88033,6,0,P|184:116|196:120,1,49.9999976158143
144,160,88255,5,0,0:0:0:0:
256,232,88477,1,0,0:0:0:0:
332,116,88922,5,0,0:0:0:0:
212,32,89144,1,0,0:0:0:0:
108,108,89366,1,0,0:0:0:0:
364,200,89588,1,0,0:0:0:0:
260,80,89810,1,0,0:0:0:0:
304,244,90033,1,0,0:0:0:0:
76,332,90255,1,0,0:0:0:0:
160,124,91144,5,0,0:0:0:0:
276,188,91366,1,0,0:0:0:0:
188,264,91588,1,0,0:0:0:0:
312,108,91810,1,0,0:0:0:0:
124,192,92033,1,0,0:0:0:0:
360,328,92255,1,0,0:0:0:0:
252,100,92477,1,0,0:0:0:0:
140,320,92699,1,0,0:0:0:0:
276,256,92922,2,0,P|256:196|276:168,1,99.9999952316283
324,120,93366,5,0,0:0:0:0:
128,140,93588,1,0,0:0:0:0:
140,300,93810,1,0,0:0:0:0:
188,64,94033,1,0,0:0:0:0:
412,320,94255,1,0,0:0:0:0:
376,200,94477,1,0,0:0:0:0:
188,64,94699,1,0,0:0:0:0:
268,232,94922,1,0,0:0:0:0:
272,272,95033,1,0,0:0:0:0:
248,304,95144,1,0,0:0:0:0:
136,60,95366,1,0,0:0:0:0:
376,268,95588,1,0,0:0:0:0:
324,80,96033,5,0,0:0:0:0:
160,256,96255,1,0,0:0:0:0:
408,192,96477,1,0,0:0:0:0:
96,80,96699,1,0,0:0:0:0:
340,288,96922,1,0,0:0:0:0:
256,88,97144,1,0,0:0:0:0:
152,304,97366,1,0,0:0:0:0:
256,192,98699,1,0,0:0:0:0:
136,92,99144,1,0,0:0:0:0:
112,244,99366,1,0,2:0:0:0:
136,268,99477,1,0,2:0:0:0:
168,272,99588,1,0,0:0:0:0:
220,212,99810,1,0,2:0:0:0:
268,84,100033,1,0,0:0:0:0:
132,80,100477,5,0,0:0:0:0:
224,348,100699,1,0,0:0:0:0:
96,288,100922,1,0,0:0:0:0:
264,200,101144,1,0,0:0:0:0:
280,300,101366,1,0,0:0:0:0:
368,276,101588,5,0,0:0:0:0:
304,72,101810,1,0,0:0:0:0:
164,264,102033,1,0,0:0:0:0:
240,144,102255,1,0,0:0:0:0:
296,272,102477,1,0,0:0:0:0:
428,116,102699,2,0,P|368:152|396:204,1,99.9999952316283
368,236,103144,5,0,0:0:0:0:
360,268,103255,1,0,0:0:0:0:
332,272,103366,1,0,0:0:0:0:
56,284,103588,1,0,0:0:0:0:
136,104,103810,1,0,0:0:0:0:
192,292,104033,2,0,P|168:276|172:248,1,49.9999976158143
264,92,104255,1,0,0:0:0:0:
392,288,104477,1,0,0:0:0:0:
432,120,104699,1,0,0:0:0:0:
228,280,104922,1,0,0:0:0:0:
240,84,105144,5,0,0:0:0:0:
392,288,105366,1,0,0:0:0:0:
372,80,105588,1,0,0:0:0:0:
208,260,105810,1,0,0:0:0:0:
160,100,106033,1,0,0:0:0:0:
164,176,106255,2,0,P|88:184|72:152,1,99.9999952316283
76,92,106699,5,0,0:0:0:0:
92,56,106810,1,0,0:0:0:0:
120,52,106922,1,0,0:0:0:0:
380,112,107144,1,0,0:0:0:0:
308,280,107366,1,0,0:0:0:0:
228,160,107588,2,0,P|196:136|172:152,1,49.9999976158143
112,260,107810,1,0,0:0:0:0:
332,160,108033,1,0,0:0:0:0:
264,316,108255,1,0,0:0:0:0:
400,348,108477,1,0,0:0:0:0:
412,120,108699,5,0,0:0:0:0:
152,200,108922,1,0,0:0:0:0:
248,312,109144,1,0,0:0:0:0:
272,76,109366,1,0,0:0:0:0:
328,260,109588,1,0,0:0:0:0:
224,312,109810,2,0,P|140:292|124:328,1,99.9999952316283
92,336,110255,5,0,0:0:0:0:
96,340,110366,1,0,0:0:0:0:
96,340,110477,1,0,0:0:0:0:
308,232,110699,1,0,0:0:0:0:
168,68,110922,1,0,0:0:0:0:
256,160,111144,2,0,P|240:128|200:124,1,49.9999976158143
124,124,111366,1,0,0:0:0:0:
148,188,111588,2,0,P|200:216|256:184,1,99.9999952316283
296,160,112033,5,0,0:0:0:0:
296,160,112144,1,0,0:0:0:0:
296,160,112255,1,0,0:0:0:0:
144,92,112477,1,0,0:0:0:0:
360,248,112699,1,0,0:0:0:0:
392,80,112922,5,0,0:0:0:0:
456,240,113144,1,0,0:0:0:0:
272,276,113366,2,0,P|196:268|156:216,1,99.9999952316283
140,204,113810,1,0,0:0:0:0:
124,172,113922,1,0,0:0:0:0:
124,140,114033,1,0,0:0:0:0:
244,52,114255,1,0,0:0:0:0:
80,92,114699,5,0,0:0:0:0:
120,236,114922,1,0,0:0:0:0:
184,88,115144,1,0,0:0:0:0:
268,176,115366,5,0,0:0:0:0:
288,160,115476,1,0,0:0:0:0:
320,176,115587,1,0,0:0:0:0:
312,268,115810,2,0,P|280:320|204:304,1,99.9999952316283
68,204,116255,1,0,0:0:0:0:
80,92,116477,5,0,0:0:0:0:
120,236,116700,1,0,0:0:0:0:
268,84,116922,1,0,0:0:0:0:
96,148,117144,5,0,0:0:0:0:
68,172,117255,1,0,0:0:0:0:
88,196,117365,1,0,0:0:0:0:
176,280,117588,2,0,P|276:284|284:264,1,99.9999952316283
216,172,118033,1,0,0:0:0:0:
48,80,118255,5,0,0:0:0:0:
152,236,118478,1,0,0:0:0:0:
200,68,118700,1,0,0:0:0:0:
380,64,118922,5,0,0:0:0:0:
412,84,119032,1,0,0:0:0:0:
412,112,119143,1,0,0:0:0:0:
408,184,119366,2,0,P|364:212|296:176,1,99.9999952316283
244,168,119810,5,0,0:0:0:0:
80,92,120033,1,0,0:0:0:0:
120,236,120256,1,0,0:0:0:0:
184,88,120478,1,0,0:0:0:0:
268,176,120700,1,0,0:0:0:0:
116,188,120921,1,0,0:0:0:0:
324,112,121144,1,0,0:0:0:0:
172,116,121367,1,0,0:0:0:0:
208,112,123588,6,0,P|148:124|144:116,1,49.9999976158143
128,228,123810,5,0,0:0:0:0:
360,272,124033,2,0,L|380:152,1,99.9999952316283
392,88,124477,5,0,0:0:0:0:
260,304,124699,1,0,0:0:0:0:
116,88,124922,2,0,L|116:212,1,99.9999952316283
312,140,125366,2,0,P|268:124|260:160,1,49.9999976158143
244,276,125588,1,0,0:0:0:0:
416,120,125810,2,0,L|348:232,1,99.9999952316283
284,292,126255,5,0,0:0:0:0:
240,72,126477,1,0,0:0:0:0:
128,136,126699,2,0,P|148:192|212:228,1,99.9999952316283
280,192,127144,2,0,P|296:212|336:196,1,49.9999976158143
356,80,127366,5,0,0:0:0:0:
152,136,127588,1,0,0:0:0:0:
260,80,127810,1,0,0:0:0:0:
300,252,128033,1,0,0:0:0:0:
140,228,128255,1,0,0:0:0:0:
396,136,128477,1,0,0:0:0:0:
152,72,128699,2,0,P|140:128|192:156,1,99.9999952316283
176,156,129144,5,0,0:0:0:0:
176,156,129366,1,0,0:0:0:0:
176,156,129588,1,0,0:0:0:0:
273,106,129810,2,0,P|337:94|364:129,1,99.9999952316283
359,115,130255,1,0,0:0:0:0:
359,115,130477,5,0,0:0:0:0:
352,264,130699,2,0,P|280:220|240:224,1,99.9999952316283
267,219,131144,1,0,0:0:0:0:
267,219,131366,1,0,0:0:0:0:
88,136,131588,2,0,P|120:88|176:92,1,99.9999952316283
158,84,132033,1,0,0:0:0:0:
158,84,132255,1,0,0:0:0:0:
364,176,132477,2,0,P|324:128|244:224,1,199.999990463257
234,195,133366,2,0,P|240:256|112:248,1,199.999990463257
192,144,134033,1,0,0:0:0:0:
88,192,134255,1,0,0:0:0:0:
128,296,134477,5,0,0:0:0:0:
128,296,134699,1,0,0:0:0:0:
128,296,134921,1,0,0:0:0:0:
256,196,135144,5,0,0:0:0:0:
288,144,135366,1,0,0:0:0:0:
352,136,135588,1,0,0:0:0:0:
256,348,136033,5,0,0:0:0:0:
476,192,136477,1,0,0:0:0:0:
256,32,136922,1,0,0:0:0:0:
128,64,137144,1,0,0:0:0:0:
92,184,137366,1,0,0:0:0:0:
256,92,137810,1,0,0:0:0:0:
88,348,138255,1,0,0:0:0:0:
408,264,138699,1,0,0:0:0:0:
432,224,138922,1,0,0:0:0:0:
420,184,139144,1,0,0:0:0:0:
112,76,139588,5,0,0:0:0:0:
244,224,139810,1,0,0:0:0:0:
368,76,140033,1,0,0:0:0:0:
256,192,140477,5,0,0:0:0:0:
116,332,140922,1,0,0:0:0:0:
248,36,141366,5,0,0:0:0:0:
312,288,141588,1,0,0:0:0:0:
144,192,141810,1,0,0:0:0:0:
364,180,142255,1,0,0:0:0:0:
344,152,142477,1,0,0:0:0:0:
312,156,142699,1,0,0:0:0:0:
120,80,143144,6,0,P|176:120|304:76,3,199.999990463257
294,87,144922,5,0,0:0:0:0:
388,336,145366,1,0,0:0:0:0:
64,144,145810,1,0,0:0:0:0:
148,52,146033,1,0,0:0:0:0:
176,56,146144,2,0,P|196:56|220:72,1,49.9999976158143
88,72,146699,5,0,0:0:0:0:
152,312,146922,1,0,0:0:0:0:
220,76,147144,1,0,0:0:0:0:
292,308,147588,5,0,0:0:0:0:
340,88,148033,1,0,0:0:0:0:
460,300,148477,5,0,0:0:0:0:
340,88,148699,1,0,0:0:0:0:
288,296,148922,1,0,0:0:0:0:
192,224,149810,2,0,L|256:120,1,99.9999952316283
244,138,150255,1,0,0:0:0:0:
332,304,150477,1,0,0:0:0:0:
140,264,150699,1,0,0:0:0:0:
372,152,150922,1,0,0:0:0:0:
232,312,151144,1,0,0:0:0:0:
272,132,151588,5,0,0:0:0:0:
376,72,152033,5,0,0:0:0:0:
140,252,152255,1,0,0:0:0:0:
312,240,152477,1,0,0:0:0:0:
256,40,152699,1,0,0:0:0:0:
116,160,152922,1,0,0:0:0:0:
336,184,153144,1,0,0:0:0:0:
180,92,153366,1,0,0:0:0:0:
332,120,153588,1,0,0:0:0:0:
192,220,153810,1,0,0:0:0:0:
284,72,154032,5,0,0:0:0:0:
304,216,154254,1,0,0:0:0:0:
248,276,154477,1,0,0:0:0:0:
216,88,154699,2,0,P|156:136|148:200,1,99.9999952316283
144,220,155144,5,0,0:0:0:0:
220,348,155366,1,0,0:0:0:0:
352,212,155588,2,0,P|376:164|368:156,1,49.9999976158143
324,88,155810,1,0,0:0:0:0:
200,288,156033,1,0,0:0:0:0:
392,152,156255,1,0,0:0:0:0:
188,68,156477,1,0,0:0:0:0:
320,288,156699,1,0,0:0:0:0:
376,100,156921,1,0,0:0:0:0:
192,288,157143,5,0,0:0:0:0:
324,88,157365,1,0,0:0:0:0:
400,284,157588,1,0,0:0:0:0:
372,136,157810,1,0,0:0:0:0:
276,220,158032,1,0,0:0:0:0:
192,268,158255,2,0,P|224:328|288:320,1,99.9999952316283
372,296,158699,5,0,0:0:0:0:
392,276,158810,1,0,0:0:0:0:
376,248,158921,1,0,0:0:0:0:
212,316,159144,1,0,0:0:0:0:
116,100,159366,1,0,0:0:0:0:
276,220,159588,1,0,0:0:0:0:
196,100,159810,1,0,0:0:0:0:
148,224,160032,1,0,0:0:0:0:
372,296,160254,1,0,0:0:0:0:
324,88,160476,1,0,0:0:0:0:
212,316,160699,5,0,0:0:0:0:
116,100,160921,1,0,0:0:0:0:
276,220,161143,1,0,0:0:0:0:
196,100,161366,1,0,0:0:0:0:
148,224,161588,1,0,0:0:0:0:
372,296,161810,1,0,0:0:0:0:
324,88,162032,1,0,0:0:0:0:
212,316,162255,5,0,0:0:0:0:
236,288,162366,1,0,0:0:0:0:
224,260,162477,1,0,0:0:0:0:
160,68,162699,1,0,0:0:0:0:
312,220,162922,1,0,0:0:0:0:
132,248,163144,1,0,0:0:0:0:
304,76,163366,1,0,0:0:0:0:
224,252,163588,1,0,0:0:0:0:
112,108,163811,1,0,0:0:0:0:
308,200,164033,5,0,0:0:0:0:
196,40,164255,1,0,0:0:0:0:
412,252,164477,2,0,B|360:248|364:204|372:224,1,49.9999976158143
340,120,164699,1,0,0:0:0:0:
120,52,164921,1,0,0:0:0:0:
448,200,165143,1,0,0:0:0:0:
420,296,165366,5,0,0:0:0:0:
400,320,165477,1,0,0:0:0:0:
368,328,165588,1,0,0:0:0:0:
276,220,165810,1,0,0:0:0:0:
196,100,166033,1,0,0:0:0:0:
148,224,166255,1,0,0:0:0:0:
372,296,166477,1,0,0:0:0:0:
324,88,166699,1,0,0:0:0:0:
212,316,166922,1,0,0:0:0:0:
312,160,167144,5,0,0:0:0:0:
312,160,167255,1,0,0:0:0:0:
312,160,167366,1,0,0:0:0:0:
156,52,167588,1,0,0:0:0:0:
172,232,167810,1,0,0:0:0:0:
332,88,168032,1,0,0:0:0:0:
60,180,168254,1,0,0:0:0:0:
320,228,168477,1,0,0:0:0:0:
52,56,168699,1,0,0:0:0:0:
228,304,168921,1,0,0:0:0:0:
348,100,169144,5,0,0:0:0:0:
100,224,169366,1,0,0:0:0:0:
236,40,169588,1,0,0:0:0:0:
240,208,169810,2,0,P|184:204|176:176,1,49.9999976158143
96,84,170033,1,0,0:0:0:0:
344,120,170255,1,0,0:0:0:0:
140,268,170477,1,0,0:0:0:0:
304,64,170699,1,0,0:0:0:0:
344,232,170921,1,0,0:0:0:0:
144,52,171143,1,0,0:0:0:0:
288,248,171365,5,0,0:0:0:0:
204,44,171588,1,0,0:0:0:0:
232,268,171810,1,0,0:0:0:0:
144,52,172032,1,0,0:0:0:0:
176,292,172255,1,0,0:0:0:0:
80,64,172477,1,0,0:0:0:0:
284,236,172699,1,0,0:0:0:0:
248,32,172921,1,0,0:0:0:0:
392,208,173144,1,0,0:0:0:0:
184,64,173366,1,0,0:0:0:0:
316,80,173588,5,0,0:0:0:0:
344,108,173699,1,0,0:0:0:0:
348,144,173810,1,0,0:0:0:0:
140,168,174032,1,0,0:0:0:0:
248,116,174255,5,0,0:0:0:0:
244,116,174366,1,0,0:0:0:0:
248,120,174477,1,0,0:0:0:0:
368,192,174699,2,0,P|296:236|300:284,1,99.9999952316283
316,304,175143,1,0,0:0:0:0:
240,96,175366,1,0,0:0:0:0:
104,320,175588,1,0,0:0:0:0:
184,192,175810,2,0,P|172:232|112:224,1,99.9999952316283
80,184,176255,5,0,0:0:0:0:
280,316,176477,1,0,0:0:0:0:
352,200,176699,5,0,0:0:0:0:
352,168,176810,1,0,0:0:0:0:
324,148,176922,1,0,0:0:0:0:
144,204,177144,1,0,0:0:0:0:
372,296,177366,1,0,0:0:0:0:
276,96,177588,1,0,0:0:0:0:
212,316,177811,1,0,0:0:0:0:
116,100,178033,1,0,0:0:0:0:
276,220,178255,1,0,0:0:0:0:
196,100,178477,1,0,0:0:0:0:
148,224,178699,5,0,0:0:0:0:
372,296,178921,1,0,0:0:0:0:
324,88,179143,1,0,0:0:0:0:
212,316,179366,1,0,0:0:0:0:
116,100,179588,1,0,0:0:0:0:
292,232,179810,5,0,0:0:0:0:
320,220,179922,1,0,0:0:0:0:
328,188,180033,1,0,0:0:0:0:
144,120,180477,5,0,0:0:0:0:
144,120,180699,1,0,0:0:0:0:
140,112,180922,2,0,P|160:168|224:152,1,99.9999952316283
194,173,181366,1,0,0:0:0:0:
194,173,181588,1,0,0:0:0:0:
200,180,181810,2,0,P|224:224|280:216,1,99.9999952316283
269,223,182255,1,0,0:0:0:0:
269,223,182477,1,0,0:0:0:0:
272,232,182699,2,0,P|320:272|368:236,1,99.9999952316283
350,261,183144,5,0,0:0:0:0:
350,261,183366,1,0,0:0:0:0:
360,268,183588,2,0,P|396:304|464:296,1,99.9999952316283
440,312,184033,1,0,0:0:0:0:
440,312,184255,1,0,0:0:0:0:
440,312,184477,2,0,P|416:248|360:244,1,99.9999952316283
256,192,184922,1,0,0:0:0:0:
256,192,185144,1,0,0:0:0:0:
256,192,185366,1,0,0:0:0:0:
256,36,185810,5,0,0:0:0:0:
44,196,186255,1,0,0:0:0:0:
256,352,186699,5,0,0:0:0:0:
256,320,186922,1,0,0:0:0:0:
256,264,187144,1,0,0:0:0:0:
256,232,187255,1,0,0:0:0:0:
256,204,187366,1,0,0:0:0:0:
256,176,187477,1,0,0:0:0:0:
256,152,187588,6,0,P|256:84|256:32,1,99.9999952316283
256,52,188033,2,0,P|160:52|144:24,1,99.9999952316283
165,56,188477,2,0,P|96:64|72:116,1,99.9999952316283
79,84,188922,2,0,P|76:156|112:168,1,99.9999952316283
91,165,189366,6,0,P|120:232|72:272,1,99.9999952316283
110,250,189810,2,0,P|144:312|192:296,1,99.9999952316283
160,312,190255,2,0,P|196:260|240:264,1,99.9999952316283
236,260,190699,2,0,P|256:316|300:300,1,99.9999952316283
120,88,191144,6,0,B|148:144|204:180|292:108,1,199.999990463257
284,116,192033,2,0,P|236:152|108:88,1,199.999990463257
116,176,192922,1,0,0:0:0:0:
172,100,193144,1,0,0:0:0:0:
256,72,193366,1,0,0:0:0:0:
336,112,193588,1,0,0:0:0:0:
384,192,193810,6,0,P|352:260|252:208,1,199.999990463257
256,192,194699,2,0,P|272:260|368:196,1,199.999990463257
372,224,195588,2,0,P|364:160|240:180,1,199.999990463257
256,192,196477,6,0,P|208:144|216:104,1,99.9999952316283
210,116,196922,1,0,0:0:0:0:
216,120,197144,2,0,P|144:96|92:136,1,99.9999952316283
124,102,197588,1,0,0:0:0:0:
124,102,197810,2,0,P|88:156|124:216,1,99.9999952316283
94,186,198255,1,0,0:0:0:0:
192,284,198699,5,0,0:0:0:0:
360,176,199144,1,0,0:0:0:0:
264,52,199588,1,0,0:0:0:0:
144,64,199810,1,0,0:0:0:0:
100,132,200033,1,0,0:0:0:0:
104,236,200255,1,0,0:0:0:0:
272,192,200477,1,0,0:0:0:0:
368,96,200699,5,0,0:0:0:0:
320,72,200810,2,0,P|288:56|264:68,1,49.9999976158143
168,128,201144,1,0,0:0:0:0:
272,260,201366,1,0,0:0:0:0:
400,124,201588,1,0,0:0:0:0:
312,80,201810,5,0,0:0:0:0:
264,80,201922,2,0,L|208:84,1,49.9999976158142
152,124,202255,1,0,0:0:0:0:
188,200,202477,1,0,0:0:0:0:
216,224,202698,6,0,B|260:264|232:236,2,49.9999976158142
360,120,203142,1,0,0:0:0:0:
384,208,203364,1,0,0:0:0:0:
272,216,203586,1,0,0:0:0:0:
208,160,203809,6,0,P|148:132|92:144,1,99.9999952316283
115,134,204253,1,0,0:0:0:0:
115,134,204475,2,0,P|96:200|136:248,1,99.9999952316283
107,225,204920,1,0,0:0:0:0:
107,225,205142,2,0,P|144:280|200:256,1,99.9999952316283
171,279,205586,1,0,0:0:0:0:
171,279,205809,2,0,P|216:320|260:280,1,99.9999952316285
256,192,206253,12,0,207586,0:0:0:0:
72,176,208031,6,0,P|104:104|360:184,1,399.999980926514
344,164,211586,6,0,P|344:244|108:204,1,399.999980926514
256,192,215142,12,0,218475,2:0:0:0:
