osu file format v14

[General]
AudioFilename: audio.mp3
AudioLeadIn: 0
PreviewTime: -1
Countdown: 0
SampleSet: Normal
StackLeniency: 0.7
Mode: 0
LetterboxInBreaks: 0
WidescreenStoryboard: 0

[Editor]
DistanceSpacing: 1
BeatDivisor: 4
GridSize: 8
TimelineZoom: 1

[Metadata]
Title:Hope (TV Size)
TitleUnicode:Hope (TV Size)
Artist:Namie Amuro
ArtistUnicode:Namie Amuro
Creator:ShinteMaru
Version:Easy
Source:One Piece
Tags:Sanji Germa 66
BeatmapID:1519572
BeatmapSetID:719600

[Difficulty]
HPDrainRate:2
CircleSize:2
OverallDifficulty:2
ApproachRate:2
SliderMultiplier:1
SliderTickRate:1

[Events]
//Background and Video events
Video,0,"One Piece Opening 20 Hope v2 RAW UHD 4K 2160p.mp4"
0,0,"one_piece_chapter_844__sanji_vinsmoke_cry___sad_by_amanomoon-damhkrm.jpg",0,0
//Break Periods
//Storyboard Layer 0 (Background)
//Storyboard Layer 1 (Fail)
//Storyboard Layer 2 (Pass)
//Storyboard Layer 3 (Foreground)
//Storyboard Sound Samples

[TimingPoints]
1065,361.44578313253,4,1,0,59,1,0

[Colours]
Combo1 : 0,0,0
Combo2 : 255,255,0
Combo3 : 0,255,255
Combo4 : 255,0,0
Combo5 : 0,255,0
Combo6 : 255,255,255

[HitObjects]
96,152,1516,6,0,P|208:152|224:152,1,125
304,152,2510,1,0,0:0:0:0:
312,224,2872,2,0,L|312:320,1,75
232,296,3414,2,0,L|72:296,1,150
80,208,4227,2,0,L|80:104,2,100
160,208,5311,2,0,L|328:200,1,150
400,216,6034,2,2,P|336:312|304:312,2,150
336,208,7390,2,8,L|200:216,1,125
120,208,8113,2,4,P|120:176|200:104,2,125
72,136,9287,2,8,P|160:104|248:104,1,175
240,176,10191,2,0,L|232:280,1,100
160,272,10914,2,0,P|112:232|144:152,1,150
216,136,12089,2,8,P|272:128|328:136,3,100
368,160,13444,2,2,P|368:192|168:272,1,275
200,168,15071,1,4,0:0:0:0:
256,192,15884,12,4,18956,0:0:0:0:
144,136,22480,6,0,P|200:112|248:128,2,100
152,224,23474,2,8,P|192:240|288:208,2,125
96,168,24649,2,0,P|104:144|232:120,1,175
288,168,25552,2,0,L|344:240,1,75
264,240,26185,2,0,P|192:248|120:224,1,150
72,160,26998,2,0,P|80:136|160:112,3,100
248,80,28625,1,4,0:0:0:0:
304,88,29077,2,8,P|352:128|304:232,2,175
192,80,30703,2,8,P|176:104|224:176,1,125
328,192,31968,5,8,0:0:0:0:
208,256,32691,1,8,0:0:0:0:
104,240,33143,2,8,P|112:208|176:128,5,125
232,88,35854,2,4,P|360:104|480:208,1,275
440,256,37299,2,4,P|248:136|256:120,1,325
160,80,39107,1,4,0:0:0:0:
280,184,39920,5,4,0:0:0:0:
384,208,40372,2,0,P|384:232|192:296,1,275
136,240,41637,2,8,P|136:184|208:144,2,125
152,312,42902,2,0,L|344:312,1,175
320,240,43805,2,0,B|216:192|272:216,1,75
200,160,44528,2,0,P|144:168|120:224,2,100
216,64,45703,6,0,P|368:224|304:264,1,375
152,192,47962,2,0,P|176:176|264:176,4,100
120,248,49950,2,4,P|160:264|432:112,1,375
336,128,51757,1,4,0:0:0:0:
176,176,52661,1,4,0:0:0:0:
192,240,53113,6,8,P|232:256|352:184,1,175
288,120,54378,1,8,0:0:0:0:
192,112,55010,6,8,L|232:223,1,100
224,208,55914,2,0,L|336:208,2,100
224,208,56908,2,8,P|176:192|168:96,1,150
256,104,58354,2,8,L|352:96,2,75
336,104,59980,2,4,P|376:168|136:296,1,450
88,176,63143,2,4,P|144:240|200:240,1,125
240,240,63956,2,0,P|296:224|328:176,1,100
320,192,65311,1,0,0:0:0:0:
216,176,66034,1,0,0:0:0:0:
128,208,66486,1,0,0:0:0:0:
96,296,67028,6,0,P|192:288|320:200,1,250
352,136,68293,2,0,P|288:128|160:144,1,175
184,224,69558,1,0,0:0:0:0:
184,320,69830,2,0,L|360:320,1,175
360,240,70914,2,0,P|240:216|80:192,1,275
136,104,72540,1,0,0:0:0:0:
352,120,73173,5,0,0:0:0:0:
352,200,73805,2,0,P|328:232|128:216,1,250
112,160,75522,2,0,P|192:144|272:144,3,150
264,240,77601,2,8,P|96:240|72:176,1,250
145,97,78775,2,8,L|284:98,2,125
139,164,80040,2,8,L|143:275,1,100
223,282,80854,2,0,P|285:250|330:161,1,150
340,108,81667,2,2,P|247:94|141:142,1,200
155,222,82932,1,4,0:0:0:0:
310,224,84016,5,4,0:0:0:0:
384,218,84830,2,8,P|398:181|291:92,1,200
258,142,86004,2,8,L|172:203,1,100
109,251,86727,2,0,P|173:276|392:63,1,425
303,116,88625,2,4,L|216:153,2,75
205,162,90071,1,2,0:0:0:0:
344,125,90974,1,10,0:0:0:0:
325,195,91426,6,10,P|217:220|196:212,2,125
428,122,92781,2,8,P|361:100|277:99,1,150
172,96,93685,2,0,P|137:103|140:205,2,150
257,96,95402,2,0,P|299:118|296:169,1,100
213,181,96486,2,8,L|107:233,3,100
89,185,97842,2,8,P|136:149|211:136,1,125
262,148,98655,2,0,B|345:221|52:107,1,250
153,85,99920,2,4,P|246:122|268:150,1,125
271,185,101727,1,4,0:0:0:0:
161,207,102992,5,4,0:0:0:0:
82,147,103354,2,0,P|138:93|248:84,1,175
314,83,104348,2,0,P|361:111|330:193,1,150
253,212,105251,2,0,L|87:219,1,150
93,131,106336,1,0,0:0:0:0:
213,135,106787,1,0,0:0:0:0:
203,219,107239,2,0,L|362:216,1,150
350,304,108143,2,0,L|122:302,1,225
128,217,109498,1,0,0:0:0:0:
95,109,110040,6,0,P|214:95|267:122,1,175
350,142,110944,2,0,L|343:294,1,150
254,290,111848,2,0,L|164:297,2,75
257,225,112751,2,0,L|255:166,1,50
236,91,113293,2,0,P|262:85|342:106,2,100
256,192,115824,12,0,118444,0:0:0:0:
221,132,119167,5,4,0:0:0:0:
308,115,119619,2,8,P|341:148|239:240,1,225
147,252,120703,2,8,P|144:175|259:122,1,200
333,138,121968,5,4,0:0:0:0:
258,230,122601,1,4,0:0:0:0:
152,106,123052,1,2,0:0:0:0:
214,82,123595,2,0,P|315:116|334:146,1,125
295,182,124318,2,0,L|183:242,1,125
148,144,125311,5,0,0:0:0:0:
241,114,125673,2,0,P|287:118|311:131,2,75
215,167,126667,2,0,P|177:221|106:249,1,125
85,198,127390,2,0,L|124:132,1,75
145,115,128203,2,0,P|245:121|281:147,1,125
327,159,129107,1,0,0:0:0:0:
423,206,129830,5,0,0:0:0:0:
324,213,130372,2,0,L|223:222,1,100
118,230,131095,2,0,P|123:194|383:124,1,350
373,195,132902,1,0,0:0:0:0:
309,203,133354,2,0,P|250:216|90:137,1,225
118,101,134528,6,0,P|256:79|297:93,1,175
359,128,135613,2,0,P|399:167|376:240,2,125
279,129,136878,2,4,P|155:168|135:201,1,175
242,248,138233,1,0,0:0:0:0:
353,156,138956,1,8,0:0:0:0:
228,124,139498,2,8,B|156:139|58:228|50:107,1,225
183,119,140673,2,8,B|245:129|355:178|299:70,1,175
306,160,141757,2,8,B|223:227|98:91|223:69,1,225
303,103,143293,2,4,P|369:193|192:262,1,350
256,192,145462,12,0,147540,0:0:0:0:
