osu file format v14

[General]
AudioFilename: audio.mp3
AudioLeadIn: 0
PreviewTime: 144871
Countdown: 0
SampleSet: Soft
StackLeniency: 0.7
Mode: 0
LetterboxInBreaks: 0
WidescreenStoryboard: 1

[Editor]
Bookmarks: 7762,28353
DistanceSpacing: 0.5
BeatDivisor: 8
GridSize: 8
TimelineZoom: 2.6

[Metadata]
Title:All I Need Are Things I Like
TitleUnicode:All I Need Are Things I Like
Artist:Nameless
ArtistUnicode:Nameless
Creator:SkyDiverFox
Version:Kitsu AR 9.5
Source:
Tags:
BeatmapID:1410867
BeatmapSetID:661883

[Difficulty]
HPDrainRate:5
CircleSize:3.9
OverallDifficulty:8
ApproachRate:9.5
SliderMultiplier:2
SliderTickRate:1

[Events]
//Background and Video events
0,0,"1122.jpg",0,0
//Break Periods
2,98839,101542
//Storyboard Layer 0 (Background)
//Storyboard Layer 1 (Fail)
//Storyboard Layer 2 (Pass)
//Storyboard Layer 3 (Foreground)
//Storyboard Sound Samples

[TimingPoints]
7782,428.571428571429,4,2,0,90,1,0
14639,-133.333333333333,4,2,0,90,0,0
21496,-153.846153846154,4,2,0,90,0,0
28353,-83.3333333333333,4,2,0,70,0,0
69496,-142.857142857143,4,2,0,90,0,1
98639,-83.3333333333333,4,2,0,70,0,0
117496,-76.9230769230769,4,2,0,80,0,0
135710,-68.9655172413793,4,2,0,80,0,0
144924,-83.3333333333333,4,2,0,90,0,1
174067,-83.3333333333333,4,2,0,70,0,0
215210,-83.3333333333333,4,2,0,90,0,1
244353,-83.3333333333333,4,2,0,90,0,0

[HitObjects]
72,160,7781,5,0,0:0:0:0:
109,130,7888,1,0,0:0:0:0:
139,168,7995,1,0,0:0:0:0:
101,197,8102,1,0,0:0:0:0:
160,256,8209,6,0,L|224:224,1,50
280,160,8424,1,0,0:0:0:0:
192,104,8531,1,0,0:0:0:0:
296,72,8638,2,0,P|344:64|360:56,1,50
216,24,8852,2,0,B|152:3|152:3|112:16,1,100
48,80,9281,5,0,0:0:0:0:
120,208,9495,1,0,0:0:0:0:
120,208,9602,1,0,0:0:0:0:
280,160,9816,1,0,0:0:0:0:
280,160,9924,2,0,B|261:144|234:108|234:108|184:100,1,100
400,144,10352,1,0,0:0:0:0:
400,144,10459,1,0,0:0:0:0:
256,256,10674,1,0,0:0:0:0:
256,256,10781,2,0,B|207:214|207:214|200:168,1,100
312,40,11209,6,0,L|280:88,1,50
152,288,11424,2,0,L|192:232,1,50
400,96,11638,2,0,L|344:136,1,50
88,200,11852,2,0,L|136:184,1,50
440,176,12067,2,0,B|344:208|344:208|432:256|430:255,1,200
240,200,12709,1,0,0:0:0:0:
64,56,12924,1,0,0:0:0:0:
80,72,13031,1,0,0:0:0:0:
208,120,13245,5,0,0:0:0:0:
208,120,13352,2,0,B|240:88|240:88|296:56,1,100
440,112,13782,2,0,L|456:136,8,25
168,48,14638,5,0,0:0:0:0:
40,48,14745,1,0,0:0:0:0:
152,88,14852,1,0,0:0:0:0:
72,80,14959,1,0,0:0:0:0:
152,144,15067,2,0,L|192:176,1,37.5000014305115
240,176,15281,1,0,0:0:0:0:
168,256,15388,1,0,0:0:0:0:
312,224,15495,6,0,B|328:216,4,18.7500007152558
416,192,15817,1,0,0:0:0:0:
360,288,15924,2,0,L|448:304,1,75.0000028610231
392,32,16352,5,0,0:0:0:0:
336,144,16459,1,0,0:0:0:0:
304,56,16566,1,0,0:0:0:0:
424,112,16674,1,0,0:0:0:0:
272,40,16781,2,0,P|240:32|224:32,1,37.5000014305115
184,168,16996,5,0,0:0:0:0:
120,96,17102,1,0,0:0:0:0:
205,197,17209,2,0,L|240:208,1,37.5000014305115
32,256,17424,1,0,0:0:0:0:
152,280,17531,1,0,0:0:0:0:
104,208,17639,1,0,0:0:0:0:
80,328,17746,2,0,B|95:354|95:354|144:360,1,75.0000028610231
120,120,18067,2,0,B|80:96|80:96|40:96,1,75.0000028610231
272,56,18496,5,0,0:0:0:0:
248,168,18603,1,0,0:0:0:0:
200,104,18709,1,0,0:0:0:0:
312,128,18816,1,0,0:0:0:0:
368,184,18924,2,0,L|376:200,3,12.5000004768372
368,56,19138,5,0,0:0:0:0:
464,136,19245,1,0,0:0:0:0:
449,60,19353,2,0,B|475:21|475:21|447:23,1,75.0000028610231
72,208,19782,2,0,L|32:192,1,37.5000014305115
160,144,19996,2,0,L|200:144,1,37.5000014305115
72,128,20209,2,0,B|48:104|48:104|80:48|144:32,1,150.000005722046
256,56,20746,2,0,L|272:48,2,18.7500007152558
288,168,20959,1,0,0:0:0:0:
360,88,21066,1,0,0:0:0:0:
192,216,21174,1,0,0:0:0:0:
40,56,21495,6,0,P|56:72|72:96,1,37.5000014305115
152,112,21709,2,0,P|128:128|120:176,1,64.9999970245363
128,360,22031,1,0,0:0:0:0:
208,328,22138,1,0,0:0:0:0:
80,280,22245,1,0,0:0:0:0:
176,240,22352,2,0,B|208:224|248:232,1,64.9999970245363
400,144,22781,5,0,0:0:0:0:
272,160,22888,1,0,0:0:0:0:
336,80,22995,1,0,0:0:0:0:
352,208,23102,1,0,0:0:0:0:
248,72,23209,2,0,B|232:40|184:40,1,64.9999970245363
176,192,23638,5,0,0:0:0:0:
128,64,23745,1,0,0:0:0:0:
80,192,23852,2,0,L|104:224,1,32.4999985122681
40,104,24066,2,0,L|32:64,1,32.4999985122681
208,96,24281,1,0,0:0:0:0:
256,184,24388,1,0,0:0:0:0:
208,96,24495,2,0,P|240:64|264:48,1,64.9999970245363
256,52,24924,6,0,P|280:88|312:104,1,64.9999970245363
424,232,25353,1,0,0:0:0:0:
376,104,25460,1,0,0:0:0:0:
400,224,25567,1,0,0:0:0:0:
448,112,25674,1,0,0:0:0:0:
360,216,25782,2,0,P|328:184|304:176,1,64.9999970245363
216,152,26210,5,0,0:0:0:0:
136,40,26317,1,0,0:0:0:0:
240,48,26424,1,0,0:0:0:0:
112,144,26532,2,0,L|96:136,4,16.2499992561341
184,256,26853,5,0,0:0:0:0:
56,160,26960,1,0,0:0:0:0:
144,288,27067,2,0,L|112:304,1,32.4999985122681
200,128,27282,1,0,0:0:0:0:
56,248,27389,1,0,0:0:0:0:
248,160,27496,2,0,L|288:160,1,32.4999985122681
32,160,27710,5,0,0:0:0:0:
224,240,27817,1,0,0:0:0:0:
88,80,27924,2,0,L|64:72,4,16.2499992561341
440,72,28353,6,0,B|448:104|472:112|472:112|472:144|448:200,1,119.999996337891
288,112,28782,1,0,0:0:0:0:
424,240,28996,1,0,0:0:0:0:
192,120,29210,2,0,B|144:104|128:152|128:152|32:168|16:72,1,239.999992675781
360,88,29853,6,0,P|384:72|424:64,1,59.9999981689454
416,152,30067,2,0,P|424:216|408:280,1,119.999996337891
240,304,30496,1,0,0:0:0:0:
112,304,30710,1,0,0:0:0:0:
32,200,30924,2,0,B|32:144|32:144|96:144|152:88,1,179.999994506836
216,40,31353,2,0,P|248:24|280:24,1,59.9999981689454
360,24,31567,2,0,B|400:48|400:80|400:80|448:96,1,119.999996337891
488,192,31996,5,0,0:0:0:0:
448,312,32210,1,0,0:0:0:0:
344,104,32424,1,0,0:0:0:0:
320,336,32639,2,0,B|248:312|248:312|208:264,1,119.999996337891
128,72,33067,5,0,0:0:0:0:
264,16,33282,2,0,B|264:72|264:72|224:88|224:144,1,119.999996337891
264,224,33710,1,0,0:0:0:0:
376,288,33924,1,0,0:0:0:0:
496,272,34139,2,0,B|528:224|528:224|472:224,1,89.9999972534181
464,216,34353,2,0,B|401:216|401:216|449:152,1,119.999996337891
436,169,34782,2,0,B|488:112|488:112|424:104,1,119.999996337891
320,128,35103,1,0,0:0:0:0:
200,112,35210,6,0,B|136:112|80:56,1,119.999996337891
91,66,35639,1,0,0:0:0:0:
104,232,35853,1,0,0:0:0:0:
192,24,36067,1,0,0:0:0:0:
104,232,36282,1,0,0:0:0:0:
272,32,36496,1,0,0:0:0:0:
272,32,36710,2,0,B|320:32|344:80|392:72,1,119.999996337891
440,256,37139,5,0,0:0:0:0:
384,72,37353,1,0,0:0:0:0:
352,336,37567,1,0,0:0:0:0:
384,72,37782,2,0,B|318:90|318:90|239:8|159:7,1,239.999992675781
293,184,38424,1,0,0:0:0:0:
293,184,38532,1,0,0:0:0:0:
293,184,38639,6,0,B|328:205|339:244|339:244|400:224|416:160,1,179.999994506836
271,280,39067,2,0,P|235:325|245:383,1,119.999996337891
328,351,39496,2,0,P|366:306|359:248,1,119.999996337891
48,240,39924,1,0,0:0:0:0:
312,144,40139,1,0,0:0:0:0:
152,272,40353,2,0,B|204:246|204:246|256:208,1,119.999996337891
400,32,40782,5,0,0:0:0:0:
352,312,40996,1,0,0:0:0:0:
128,112,41210,1,0,0:0:0:0:
416,56,41424,1,0,0:0:0:0:
312,328,41639,1,0,0:0:0:0:
152,84,41853,2,0,B|183:48|183:48|248:16,1,119.999996337891
256,264,42282,5,0,0:0:0:0:
264,272,42389,1,0,0:0:0:0:
264,272,42496,2,0,P|224:280|184:272,1,59.9999981689454
112,228,42710,2,0,P|96:196|96:148,1,59.9999981689454
152,84,42925,2,0,P|168:124|168:164,1,59.9999981689454
336,40,43353,5,0,0:0:0:0:
440,232,43567,2,0,P|400:296|368:328,1,119.999996337891
320,56,43996,1,0,0:0:0:0:
272,192,44210,2,0,L|192:200,1,59.9999981689454
80,160,44424,2,0,L|152:152,1,59.9999981689454
240,64,44639,2,0,L|104:72,1,119.999996337891
128,256,45067,5,0,0:0:0:0:
272,336,45282,1,0,0:0:0:0:
424,312,45496,2,0,P|480:256|488:200,1,119.999996337891
288,40,45924,1,0,0:0:0:0:
104,256,46139,1,0,0:0:0:0:
424,312,46353,2,0,L|480:256,1,59.9999981689454
196,88,46782,5,0,0:0:0:0:
204,96,46889,1,0,0:0:0:0:
204,96,46996,2,0,B|184:48|104:40,1,119.999996337891
264,160,47424,2,0,P|288:136|336:112,1,59.9999981689454
360,64,47639,2,0,P|312:32|288:32,1,59.9999981689454
432,80,47853,2,0,P|464:72|504:80,1,59.9999981689454
400,168,48067,2,0,P|376:248|336:280,1,119.999996337891
144,224,48496,1,0,0:0:0:0:
144,224,48603,1,0,0:0:0:0:
144,224,48710,2,0,B|144:152|144:152|192:112,1,119.999996337891
296,304,49139,5,0,0:0:0:0:
208,56,49353,1,0,0:0:0:0:
208,344,49567,1,0,0:0:0:0:
288,16,49782,1,0,0:0:0:0:
448,320,49996,1,0,0:0:0:0:
96,272,50210,1,0,0:0:0:0:
335,38,50424,2,0,L|423:119,1,119.999996337891
168,208,50853,5,0,0:0:0:0:
352,336,51067,1,0,0:0:0:0:
480,152,51282,1,0,0:0:0:0:
288,32,51496,2,0,B|256:80|256:80|184:56|144:88|144:88|168:144|208:120,1,239.999992675781
320,168,52139,6,0,B|400:168|400:168|448:192,1,119.999996337891
488,288,52567,1,0,0:0:0:0:
400,360,52782,2,0,P|336:360|272:336,1,119.999996337891
240,312,53103,1,0,0:0:0:0:
192,288,53210,2,0,P|112:264|56:264,1,119.999996337891
56,224,53532,1,0,0:0:0:0:
64,168,53639,2,0,P|128:128|192:112,1,119.999996337891
216,112,53960,1,0,0:0:0:0:
272,136,54067,6,0,B|314:150|314:150|376:96,1,119.999996337891
424,40,54496,2,0,B|432:16|432:16|320:16,1,119.999996337891
88,40,54924,2,0,B|79:16|79:16|184:16,1,119.999996337891
232,72,55353,2,0,B|178:149|178:149|192:200,1,119.999996337891
424,144,55782,6,0,B|456:168|456:168|464:200,1,59.9999981689454
416,288,55996,2,0,B|400:224|400:224|344:176,1,119.999996337891
272,16,56424,1,0,0:0:0:0:
256,216,56639,2,0,B|272:232|272:232|288:280,1,59.9999981689454
272,376,56853,2,0,B|232:360|232:360|208:272,1,119.999996337891
280,96,57282,1,0,0:0:0:0:
80,40,57496,2,0,B|32:40|32:40|8:64,1,59.9999981689454
56,120,57710,2,0,B|104:120|104:120|168:88,1,119.999996337891
408,192,58139,5,0,0:0:0:0:
280,120,58353,1,0,0:0:0:0:
280,120,58460,1,0,0:0:0:0:
280,120,58567,2,0,B|232:176|232:176|176:176,1,119.999996337891
64,280,58996,2,0,L|192:312,1,119.999996337891
360,288,59424,2,0,L|224:256,1,119.999996337891
464,224,59853,5,0,0:0:0:0:
472,232,59960,1,0,0:0:0:0:
472,232,60067,2,0,L|392:216,1,59.9999981689454
296,136,60282,2,0,L|368:160,1,59.9999981689454
512,136,60496,2,0,L|432:112,1,59.9999981689454
328,24,60710,2,0,L|400:48,1,59.9999981689454
224,64,60924,2,0,L|144:40,1,59.9999981689454
152,112,61139,2,0,L|144:32,1,59.9999981689454
72,80,61353,2,0,L|136:40,1,59.9999981689454
224,160,61567,2,0,B|184:240|184:240|144:216,1,119.999996337891
112,192,61889,5,0,0:0:0:0:
72,176,61996,2,0,P|48:160|15:157,1,59.9999981689454
304,120,62210,1,0,0:0:0:0:
344,104,62317,2,0,P|372:94|402:94,1,59.9999981689454
496,200,62639,2,0,L|448:264,1,59.9999981689454
408,296,62853,2,0,P|368:320|280:352,1,119.999996337891
160,304,63282,5,0,0:0:0:0:
360,232,63497,1,0,0:0:0:0:
112,224,63710,2,0,P|40:208|-8:176,1,119.999996337891
400,72,64139,1,0,0:0:0:0:
104,144,64353,1,0,0:0:0:0:
504,56,64567,2,0,P|496:136|464:192,1,119.999996337891
192,336,64996,1,0,0:0:0:0:
416,40,65210,1,0,0:0:0:0:
48,72,65424,2,0,P|86:149|119:187,1,119.999996337891
320,128,65853,5,0,0:0:0:0:
320,128,65960,1,0,0:0:0:0:
256,248,66067,2,0,L|288:168,1,59.9999981689454
264,40,66282,2,0,L|232:112,1,59.9999981689454
120,296,66496,2,0,L|152:232,1,59.9999981689454
152,152,66710,1,0,0:0:0:0:
152,152,66817,1,0,0:0:0:0:
152,72,66924,6,0,L|144:8,1,59.9999981689454
48,88,67139,2,0,L|64:160,1,59.9999981689454
240,256,67353,2,0,L|216:192,1,59.9999981689454
288,8,67567,2,0,L|304:80,1,59.9999981689454
440,296,67781,2,0,L|416:224,1,59.9999981689454
216,48,67996,2,0,L|280:96,1,59.9999981689454
472,200,68210,2,0,L|402:170,1,59.9999981689454
192,128,68424,2,0,L|264:136,1,59.9999981689454
496,80,68639,2,0,B|464:120|464:120|400:144,1,119.999996337891
208,40,69067,5,0,0:0:0:0:
176,40,69175,1,0,0:0:0:0:
152,56,69282,1,0,0:0:0:0:
34,155,69496,5,0,0:0:0:0:
23,212,69603,1,0,0:0:0:0:
45,263,69710,2,0,P|83:291|83:291,1,34.9999989318848
176,248,69924,1,0,0:0:0:0:
208,160,70031,1,0,0:0:0:0:
264,288,70139,1,0,0:0:0:0:
304,200,70246,1,0,0:0:0:0:
264,288,70353,2,0,L|304:288,1,34.9999989318848
387,207,70567,2,0,B|419:199|419:199|456:208,1,69.9999978637696
360,0,70889,5,0,0:0:0:0:
320,88,70996,1,0,0:0:0:0:
248,32,71103,2,0,L|208:64,1,34.9999989318848
136,64,71317,1,0,0:0:0:0:
104,72,71424,2,0,P|72:72|32:48,1,69.9999978637696
112,160,71746,1,0,0:0:0:0:
144,192,71853,1,0,0:0:0:0:
184,216,71960,2,0,L|224:232,1,34.9999989318848
248,96,72174,5,0,0:0:0:0:
344,56,72281,1,0,0:0:0:0:
264,16,72389,1,0,0:0:0:0:
344,176,72496,1,0,0:0:0:0:
217,364,72924,2,0,L|184:376,2,34.9999989318848
365,273,73246,1,0,0:0:0:0:
208,272,73353,1,0,0:0:0:0:
341,369,73460,1,0,0:0:0:0:
288,208,73567,1,0,0:0:0:0:
221,361,73674,1,0,0:0:0:0:
392,192,73782,6,0,L|419:215,1,34.9999989318848
477,265,73996,2,0,B|498:245|498:245|509:201,1,69.9999978637696
456,48,74317,1,0,0:0:0:0:
408,72,74424,1,0,0:0:0:0:
352,64,74532,2,0,L|320:40,1,34.9999989318848
296,232,74746,1,0,0:0:0:0:
320,144,74853,1,0,0:0:0:0:
216,200,74960,1,0,0:0:0:0:
232,112,75067,1,0,0:0:0:0:
320,264,75174,1,0,0:0:0:0:
184,120,75282,6,0,P|160:104|116:86,1,69.9999978637696
0,288,75603,1,0,0:0:0:0:
144,240,75710,1,0,0:0:0:0:
48,216,75817,1,0,0:0:0:0:
216,328,75924,1,0,0:0:0:0:
240,56,76353,5,0,0:0:0:0:
296,40,76460,1,0,0:0:0:0:
352,56,76567,2,0,L|384:96,1,34.9999989318848
504,152,76782,1,0,0:0:0:0:
376,240,76889,1,0,0:0:0:0:
376,160,76996,1,0,0:0:0:0:
512,232,77103,1,0,0:0:0:0:
336,136,77210,2,0,P|319:130|303:122,1,34.9999989318848
440,304,77424,2,0,B|403:326|403:326|377:320,1,69.9999978637696
120,240,77746,5,0,0:0:0:0:
240,320,77853,1,0,0:0:0:0:
120,240,77960,2,0,L|88:256,1,34.9999989318848
144,352,78174,1,0,0:0:0:0:
240,216,78282,1,0,0:0:0:0:
320,344,78389,1,0,0:0:0:0:
240,216,78496,2,0,L|240:168,1,34.9999989318848
408,344,78710,5,0,0:0:0:0:
480,224,78817,1,0,0:0:0:0:
408,344,78924,2,0,L|432:304,1,34.9999989318848
400,200,79139,2,0,P|416:168|448:144,1,69.9999978637696
160,56,79782,6,0,P|120:72|104:96,1,69.9999978637696
256,144,80210,2,0,P|296:160|312:184,1,69.9999978637696
128,320,80639,5,0,0:0:0:0:
208,224,80746,1,0,0:0:0:0:
248,344,80853,1,0,0:0:0:0:
208,200,80960,1,0,0:0:0:0:
88,328,81067,2,0,L|64:288,2,34.9999989318848
72,149,81496,5,0,0:0:0:0:
171,38,81603,1,0,0:0:0:0:
155,185,81710,1,0,0:0:0:0:
80,57,81817,1,0,0:0:0:0:
216,117,81924,1,0,0:0:0:0:
72,149,82032,5,0,0:0:0:0:
171,38,82139,1,0,0:0:0:0:
155,185,82246,1,0,0:0:0:0:
80,57,82353,2,0,L|48:41,4,34.9999989318848
400,240,83210,5,0,0:0:0:0:
344,248,83317,1,0,0:0:0:0:
304,288,83424,2,0,L|272:320,1,34.9999989318848
232,176,83639,1,0,0:0:0:0:
160,296,83746,1,0,0:0:0:0:
88,176,83853,1,0,0:0:0:0:
160,296,83960,1,0,0:0:0:0:
88,176,84067,2,0,L|60:155,1,34.9999989318848
152,296,84282,2,0,B|157:278|157:278|197:246,1,69.9999978637696
304,168,84603,5,0,0:0:0:0:
200,72,84710,1,0,0:0:0:0:
288,200,84817,1,0,0:0:0:0:
344,56,84924,1,0,0:0:0:0:
176,104,85032,1,0,0:0:0:0:
320,232,85139,1,0,0:0:0:0:
320,24,85246,1,0,0:0:0:0:
160,136,85353,2,0,L|152:184,2,34.9999989318848
320,128,85674,5,0,0:0:0:0:
408,240,85782,1,0,0:0:0:0:
224,240,85889,1,0,0:0:0:0:
320,96,85996,1,0,0:0:0:0:
320,312,86103,1,0,0:0:0:0:
472,128,86210,1,0,0:0:0:0:
32,152,86639,5,0,0:0:0:0:
128,224,86746,1,0,0:0:0:0:
24,264,86853,1,0,0:0:0:0:
136,208,86960,1,0,0:0:0:0:
51,132,87067,2,0,L|72:104,1,34.9999989318848
328,160,87282,1,0,0:0:0:0:
264,224,87389,1,0,0:0:0:0:
288,80,87496,2,0,L|304:48,1,34.9999989318848
192,160,87710,2,0,P|152:152|120:168,1,69.9999978637696
24,32,88032,5,0,0:0:0:0:
32,160,88139,1,0,0:0:0:0:
112,48,88246,1,0,0:0:0:0:
32,160,88353,2,0,L|0:147,1,34.9999989318848
152,32,88567,2,0,L|184:19,3,34.9999989318848
138,301,88996,5,0,0:0:0:0:
173,152,89103,1,0,0:0:0:0:
206,301,89211,1,0,0:0:0:0:
111,181,89318,1,0,0:0:0:0:
249,248,89425,1,0,0:0:0:0:
96,248,89532,1,0,0:0:0:0:
328,176,89639,1,0,0:0:0:0:
264,56,90067,5,0,0:0:0:0:
208,40,90174,1,0,0:0:0:0:
152,56,90282,2,0,P|128:72|120:80,1,34.9999989318848
40,128,90496,2,0,L|72:152,1,34.9999989318848
160,224,90710,1,0,0:0:0:0:
192,136,90818,1,0,0:0:0:0:
256,224,90924,2,0,L|290:218,1,34.9999989318848
312,120,91139,2,0,P|328:128|360:168,1,69.9999978637696
440,256,91460,2,0,P|432:280|416:304,1,34.9999989318848
368,336,91674,1,0,0:0:0:0:
336,256,91782,5,0,0:0:0:0:
264,344,91889,1,0,0:0:0:0:
224,240,91996,1,0,0:0:0:0:
144,336,92103,1,0,0:0:0:0:
64,200,92210,1,0,0:0:0:0:
144,336,92317,1,0,0:0:0:0:
112,176,92424,1,0,0:0:0:0:
144,336,92532,1,0,0:0:0:0:
160,168,92639,2,0,B|184:160|184:160|200:168,1,34.9999989318848
264,160,92853,2,0,B|304:160|304:160|336:128,1,69.9999978637696
384,0,93496,6,0,B|368:40|368:40|328:56,1,69.9999978637696
128,80,93924,1,0,0:0:0:0:
248,96,94139,1,0,0:0:0:0:
96,200,94353,2,0,P|110:218|126:226,2,34.9999989318848
32,88,94782,1,0,0:0:0:0:
184,8,94996,1,0,0:0:0:0:
344,256,95210,5,0,0:0:0:0:
320,290,95317,1,0,0:0:0:0:
285,310,95424,1,0,0:0:0:0:
244,314,95532,1,0,0:0:0:0:
208,296,95639,5,0,0:0:0:0:
170,261,95746,1,0,0:0:0:0:
149,215,95853,1,0,0:0:0:0:
149,164,95960,1,0,0:0:0:0:
160,104,96067,5,0,0:0:0:0:
208,56,96174,1,0,0:0:0:0:
272,36,96282,1,0,0:0:0:0:
340,43,96389,1,0,0:0:0:0:
424,96,96496,2,0,L|440:112,8,17.4999994659424
256,192,97032,12,0,98639,0:0:0:0:
243,86,102067,5,0,0:0:0:0:
361,179,102281,1,0,0:0:0:0:
268,297,102496,1,0,0:0:0:0:
150,204,102710,1,0,0:0:0:0:
271,67,102924,5,0,0:0:0:0:
131,176,103138,1,0,0:0:0:0:
240,316,103353,1,0,0:0:0:0:
380,207,103567,6,0,B|308:167|308:167|244:167,1,119.999996337891
416,96,103996,1,0,0:0:0:0:
264,48,104210,2,0,B|184:48|184:48|120:80,1,119.999996337891
128,104,104532,1,0,0:0:0:0:
186,136,104639,2,0,B|224:136|224:136|304:176,1,119.999996337891
440,264,105067,5,0,0:0:0:0:
440,264,105174,1,0,0:0:0:0:
440,264,105282,2,0,B|368:296|368:296|312:296,1,119.999996337891
138,266,105710,2,0,L|192:240,1,59.9999981689454
152,170,105924,2,0,L|42:218,1,119.999996337891
202,146,106246,1,0,0:0:0:0:
234,130,106353,2,0,B|306:106|306:106|370:146,1,119.999996337891
424,248,106782,1,0,0:0:0:0:
448,112,106996,6,0,B|416:48|416:48|368:24,1,119.999996337891
336,320,107424,1,0,0:0:0:0:
357,103,107639,2,0,B|389:167|389:167|437:191,1,119.999996337891
480,176,107960,1,0,0:0:0:0:
488,128,108067,2,0,B|488:48|488:48|432:0,1,119.999996337891
64,128,108496,1,0,0:0:0:0:
64,128,108710,2,0,P|112:192|160:224,1,119.999996337891
312,216,109139,6,0,P|352:208|384:192,1,59.9999981689454
480,200,109353,2,0,P|448:232|416:248,1,59.9999981689454
384,328,109567,1,0,0:0:0:0:
384,328,109782,2,0,P|440:320|503:280,1,119.999996337891
376,144,110210,1,0,0:0:0:0:
216,96,110424,1,0,0:0:0:0:
48,80,110639,6,0,B|80:144|80:144|160:184,1,119.999996337891
336,80,111067,1,0,0:0:0:0:
232,208,111282,1,0,0:0:0:0:
416,24,111496,2,0,B|464:64|464:64|488:136,1,119.999996337891
320,296,111924,1,0,0:0:0:0:
264,32,112139,1,0,0:0:0:0:
216,320,112353,2,0,B|144:296|144:296|112:240,1,119.999996337891
136,144,112782,6,0,P|160:104|192:88,1,59.9999981689454
192,144,112996,2,0,P|224:112|264:104,1,59.9999981689454
232,168,113210,2,0,P|288:144|360:152,1,119.999996337891
432,336,113639,1,0,0:0:0:0:
176,248,113853,1,0,0:0:0:0:
448,192,114067,2,0,B|480:120|480:120|472:56,1,119.999996337891
208,320,114496,5,0,0:0:0:0:
408,48,114710,1,0,0:0:0:0:
336,80,114817,1,0,0:0:0:0:
264,112,114924,2,0,B|256:40|256:40|296:-8,1,119.999996337891
400,128,115353,2,0,B|408:200|408:200|368:248,1,119.999996337891
64,184,115782,6,0,P|88:120|128:96,1,59.9999981689454
144,80,115996,1,0,0:0:0:0:
160,240,116210,2,0,P|144:208|136:160,1,59.9999981689454
160,80,116424,1,0,0:0:0:0:
256,216,116639,2,0,P|216:192|184:160,1,59.9999981689454
176,80,116854,1,0,0:0:0:0:
320,48,117067,2,0,L|352:32,6,29.9999990844727
480,144,117496,6,0,B|448:216|448:216|384:256,1,129.999994049073
232,304,117924,2,0,B|136:304|136:304|96:264,1,129.999994049073
256,208,118353,2,0,B|352:208|352:208|392:168,1,129.999994049073
320,48,118781,1,0,0:0:0:0:
320,48,118888,1,0,0:0:0:0:
320,48,118996,2,0,B|352:64|376:64|376:64|408:96|416:144,1,129.999994049073
368,320,119424,5,0,0:0:0:0:
128,120,119639,1,0,0:0:0:0:
448,24,119853,1,0,0:0:0:0:
344,152,120067,2,0,P|408:184|496:168,1,129.999994049073
392,32,120496,1,0,0:0:0:0:
104,144,120710,1,0,0:0:0:0:
392,328,120924,2,0,B|464:288|464:288|488:232,1,129.999994049073
512,0,121353,5,0,0:0:0:0:
360,96,121567,1,0,0:0:0:0:
360,96,121674,1,0,0:0:0:0:
360,96,121782,2,0,P|368:176|352:240,1,129.999994049073
48,136,122210,1,0,0:0:0:0:
320,288,122424,1,0,0:0:0:0:
152,80,122639,2,0,P|120:40|72:24,1,64.9999970245363
232,112,122853,6,0,P|240:80|240:48,1,64.9999970245363
272,192,123067,6,0,P|304:152|312:120,1,64.9999970245363
192,200,123282,6,0,P|152:176|96:184,1,64.9999970245363
232,272,123496,6,0,P|320:264|360:200,1,129.999994049073
416,176,123924,1,0,0:0:0:0:
336,88,124139,2,0,B|272:64|272:64|208:64,1,129.999994049073
80,168,124567,1,0,0:0:0:0:
80,168,124674,1,0,0:0:0:0:
80,168,124782,2,0,B|144:216|144:216|208:224,1,129.999994049073
272,224,125103,1,0,0:0:0:0:
360,224,125210,2,0,L|432:200,1,64.9999970245363
480,128,125424,2,0,L|344:128,1,129.999994049073
480,40,125853,5,0,0:0:0:0:
128,184,126067,1,0,0:0:0:0:
424,104,126282,1,0,0:0:0:0:
128,56,126496,1,0,0:0:0:0:
128,56,126602,1,0,0:0:0:0:
128,56,126710,2,0,B|200:24|200:24,1,64.9999970245363
280,0,126924,2,0,L|312:72,1,64.9999970245363
216,104,127353,5,0,0:0:0:0:
216,104,127567,2,0,B|160:168|160:168|160:224,1,129.999994049073
200,232,127889,1,0,0:0:0:0:
232,264,127996,2,0,B|230:349|230:349|266:391,1,129.999994049073
296,360,128317,1,0,0:0:0:0:
320,336,128424,2,0,B|387:387|387:387|443:383,1,129.999994049073
344,192,128853,2,0,L|384:248,1,64.9999970245363
416,248,129067,2,0,L|416:168,1,64.9999970245363
496,200,129282,2,0,L|464:264,1,64.9999970245363
344,56,129496,6,0,L|312:40,4,32.4999985122681
416,168,129924,6,0,L|448:152,4,32.4999985122681
248,40,130353,6,0,L|216:24,4,32.4999985122681
88,16,130782,6,0,L|56:0,4,32.4999985122681
416,80,131210,6,0,P|400:128|368:152,1,64.9999970245363
312,120,131424,2,0,P|304:160|376:208,1,129.999994049073
96,80,131853,2,0,P|112:128|144:152,1,64.9999970245363
200,120,132067,2,0,P|208:160|176:200,1,64.9999970245363
120,208,132282,2,0,P|176:256|240:240,1,129.999994049073
344,72,132710,6,0,P|384:32|408:32,1,64.9999970245363
472,48,132924,2,0,P|440:88|408:96,1,64.9999970245363
344,72,133139,2,0,P|288:48|232:112,1,129.999994049073
376,320,133567,2,0,P|428:307|441:285,1,64.9999970245363
384,264,133782,2,0,P|408:240|416:200,1,64.9999970245363
367,106,133996,2,0,P|419:162|407:226,1,129.999994049073
104,304,134424,6,0,L|40:272,1,64.9999970245363
112,248,134639,2,0,L|176:224,1,64.9999970245363
112,200,134853,2,0,L|48:176,1,64.9999970245363
224,48,135067,2,0,L|224:120,1,64.9999970245363
264,208,135282,2,0,L|264:128,1,64.9999970245363
304,48,135496,2,0,L|304:128,1,64.9999970245363
457,317,135710,6,0,P|427:336|392:344,1,72.5000022125245
448,240,135924,2,0,P|430:267|384:296,1,72.5000022125245
400,184,136139,2,0,P|400:219|386:253,1,72.5000022125245
262,103,136353,2,0,P|248:69|249:34,1,72.5000022125245
250,140,136568,2,0,P|220:120|201:90,1,72.5000022125245
257,194,136782,2,0,P|222:187|192:168,1,72.5000022125245
96,120,136996,6,0,P|112:200|184:240,1,145.000004425049
232,280,137317,1,0,0:0:0:0:
208,312,137424,2,0,P|168:320|120:320,1,72.5000022125245
16,200,137639,1,0,0:0:0:0:
32,240,137746,2,0,P|72:256|112:256,1,72.5000022125245
336,144,138067,6,0,P|392:104|416:104,1,72.5000022125245
488,104,138282,2,0,P|408:96|336:144,1,145.000004425049
112,48,138710,2,0,P|72:80|56:112,1,72.5000022125245
54,149,138924,2,0,P|57:113|72:80,1,72.5000022125245
214,237,139139,2,0,B|162:224|138:176|136:128,1,145.000004425049
352,344,139567,6,0,P|400:312|416:272,1,72.5000022125245
496,320,139782,2,0,P|496:272|480:232,1,72.5000022125245
392,208,139996,2,0,P|328:160|320:88,1,145.000004425049
64,64,140424,2,0,P|64:112|88:144,1,72.5000022125245
88,256,140639,2,0,P|144:272|176:256,1,72.5000022125245
272,344,140853,2,0,P|327:303|349:209,1,145.000004425049
352,32,141282,6,0,P|408:48|440:72,1,72.5000022125245
224,144,141496,2,0,P|176:128|152:104,1,72.5000022125245
375,53,141710,2,0,P|423:92|445:129,1,72.5000022125245
204,109,141924,2,0,P|163:74|150:40,1,72.5000022125245
312,160,142139,6,0,P|292:190|263:211,1,72.5000022125245
37,202,142353,2,0,P|61:175|91:154,1,72.5000022125245
307,215,142567,2,0,P|277:236|242:244,1,72.5000022125245
47,156,142781,2,0,P|79:139|114:132,1,72.5000022125245
352,32,142996,6,0,P|408:48|440:72,1,72.5000022125245
224,144,143210,2,0,P|176:128|152:104,1,72.5000022125245
375,53,143424,2,0,P|423:92|445:129,1,72.5000022125245
204,109,143638,2,0,P|163:74|150:40,1,72.5000022125245
408,104,143853,2,0,B|456:156|411:251|344:159|344:159|298:167|277:242,1,290.000008850098
272,336,144496,2,0,L|288:368,6,36.2500011062622
