osu file format v14

[General]
AudioFilename: audio.mp3
AudioLeadIn: 0
PreviewTime: -1
Countdown: 0
SampleSet: Normal
StackLeniency: 0.7
Mode: 1
LetterboxInBreaks: 0
WidescreenStoryboard: 1

[Editor]
Bookmarks: 8122,16122
DistanceSpacing: 0.8
BeatDivisor: 4
GridSize: 8
TimelineZoom: 2.4

[Metadata]
Title:Taiko 1/6patterns training
TitleUnicode:Taiko 1/6patterns training
Artist:Namco
ArtistUnicode:Namco
Creator:Arach
Version:Stream - DKKD KDDK
Source:
Tags:training patterns taiko osu namco
BeatmapID:1900131
BeatmapSetID:910583

[Difficulty]
HPDrainRate:5
CircleSize:2
OverallDifficulty:5
ApproachRate:5
SliderMultiplier:1.4
SliderTickRate:1

[Events]
//Background and Video events
0,0,"3V5TFP.jpg",0,-130
//Break Periods
//Storyboard Layer 0 (Background)
//Storyboard Layer 1 (Fail)
//Storyboard Layer 2 (Pass)
//Storyboard Layer 3 (Foreground)
//Storyboard Layer 4 (Overlay)
//Storyboard Sound Samples

[TimingPoints]
1722,400,4,1,0,100,1,0

[HitObjects]
255,192,1722,5,0,0:0:0:0:
255,192,1822,1,0,0:0:0:0:
255,192,1922,1,0,0:0:0:0:
255,192,1989,1,8,0:0:0:0:
255,192,2056,1,8,0:0:0:0:
255,192,2122,1,0,0:0:0:0:
255,192,2222,1,0,0:0:0:0:
255,192,2322,1,0,0:0:0:0:
255,192,2522,1,0,0:0:0:0:
255,192,2922,1,0,0:0:0:0:
255,192,3322,1,8,0:0:0:0:
255,192,3422,1,8,0:0:0:0:
255,192,3522,1,0,0:0:0:0:
255,192,3589,1,8,0:0:0:0:
255,192,3656,1,8,0:0:0:0:
255,192,3722,1,0,0:0:0:0:
255,192,3822,1,8,0:0:0:0:
255,192,3922,1,8,0:0:0:0:
255,192,4122,1,8,0:0:0:0:
255,192,4522,1,8,0:0:0:0:
255,192,4922,1,0,0:0:0:0:
255,192,5022,1,0,0:0:0:0:
255,192,5122,1,8,0:0:0:0:
255,192,5189,1,0,0:0:0:0:
255,192,5256,1,0,0:0:0:0:
255,192,5322,1,8,0:0:0:0:
255,192,5422,1,0,0:0:0:0:
255,192,5522,1,0,0:0:0:0:
255,192,5722,1,0,0:0:0:0:
255,192,6122,1,0,0:0:0:0:
255,192,6522,1,8,0:0:0:0:
255,192,6622,1,8,0:0:0:0:
255,192,6722,1,8,0:0:0:0:
255,192,6789,1,0,0:0:0:0:
255,192,6856,1,0,0:0:0:0:
255,192,6922,1,8,0:0:0:0:
255,192,7022,1,8,0:0:0:0:
255,192,7122,1,8,0:0:0:0:
255,192,7322,1,8,0:0:0:0:
255,192,7722,1,8,0:0:0:0:
255,192,9722,1,0,0:0:0:0:
255,192,9822,1,8,0:0:0:0:
255,192,9922,1,0,0:0:0:0:
255,192,9989,1,8,0:0:0:0:
255,192,10056,1,8,0:0:0:0:
255,192,10122,1,0,0:0:0:0:
255,192,10222,1,0,0:0:0:0:
255,192,10322,1,0,0:0:0:0:
255,192,10422,1,8,0:0:0:0:
255,192,10522,1,0,0:0:0:0:
255,192,10622,1,0,0:0:0:0:
255,192,10722,1,0,0:0:0:0:
255,192,10822,1,8,0:0:0:0:
255,192,10922,1,0,0:0:0:0:
255,192,11022,1,0,0:0:0:0:
255,192,11122,1,8,0:0:0:0:
255,192,11222,1,0,0:0:0:0:
255,192,11322,1,8,0:0:0:0:
255,192,11422,1,8,0:0:0:0:
255,192,11522,1,0,0:0:0:0:
255,192,11589,1,8,0:0:0:0:
255,192,11656,1,8,0:0:0:0:
255,192,11722,1,0,0:0:0:0:
255,192,11822,1,8,0:0:0:0:
255,192,11922,1,8,0:0:0:0:
255,192,12022,1,0,0:0:0:0:
255,192,12122,1,8,0:0:0:0:
255,192,12222,1,8,0:0:0:0:
255,192,12322,1,8,0:0:0:0:
255,192,12422,1,0,0:0:0:0:
255,192,12522,1,8,0:0:0:0:
255,192,12622,1,0,0:0:0:0:
255,192,12722,1,0,0:0:0:0:
255,192,12822,1,8,0:0:0:0:
255,192,12922,1,0,0:0:0:0:
255,192,13022,1,0,0:0:0:0:
255,192,13122,1,8,0:0:0:0:
255,192,13189,1,0,0:0:0:0:
255,192,13256,1,0,0:0:0:0:
255,192,13322,1,8,0:0:0:0:
255,192,13422,1,0,0:0:0:0:
255,192,13522,1,0,0:0:0:0:
255,192,13622,1,8,0:0:0:0:
255,192,13722,1,0,0:0:0:0:
255,192,13822,1,0,0:0:0:0:
255,192,13922,1,0,0:0:0:0:
255,192,14022,1,8,0:0:0:0:
255,192,14122,1,0,0:0:0:0:
255,192,14222,1,0,0:0:0:0:
255,192,14322,1,8,0:0:0:0:
255,192,14422,1,0,0:0:0:0:
255,192,14522,1,8,0:0:0:0:
255,192,14622,1,8,0:0:0:0:
255,192,14722,1,8,0:0:0:0:
255,192,14789,1,0,0:0:0:0:
255,192,14856,1,0,0:0:0:0:
255,192,14922,1,8,0:0:0:0:
255,192,15022,1,8,0:0:0:0:
255,192,15122,1,8,0:0:0:0:
255,192,15222,1,0,0:0:0:0:
255,192,15322,1,8,0:0:0:0:
255,192,15422,1,0,0:0:0:0:
255,192,15522,1,0,0:0:0:0:
255,192,15622,1,0,0:0:0:0:
255,192,15722,1,8,0:0:0:0:
255,192,15822,1,8,0:0:0:0:
255,192,15922,1,0,0:0:0:0:
255,192,16022,1,0,0:0:0:0:
255,192,16122,1,12,0:0:0:0:
