osu file format v14

[General]
AudioFilename: audio.mp3
AudioLeadIn: 0
PreviewTime: -1
Countdown: 0
SampleSet: Normal
StackLeniency: 0.7
Mode: 1
LetterboxInBreaks: 0
WidescreenStoryboard: 1

[Editor]
Bookmarks: 8122,16122
DistanceSpacing: 0.8
BeatDivisor: 4
GridSize: 16
TimelineZoom: 2.4

[Metadata]
Title:Taiko 1/6 patterns training
TitleUnicode:Taiko 1/6 patterns training
Artist:Namco
ArtistUnicode:Namco
Creator:Arach
Version:DKKK
Source:
Tags:training patterns taiko osu namco
BeatmapID:1900123
BeatmapSetID:910583

[Difficulty]
HPDrainRate:5
CircleSize:5
OverallDifficulty:5
ApproachRate:5
SliderMultiplier:1.4
SliderTickRate:1

[Events]
//Background and Video events
0,0,"3V5TFP.jpg",0,-130
//Break Periods
//Storyboard Layer 0 (Background)
//Storyboard Layer 1 (Fail)
//Storyboard Layer 2 (Pass)
//Storyboard Layer 3 (Foreground)
//Storyboard Layer 4 (Overlay)
//Storyboard Sound Samples

[TimingPoints]
1722,400,4,1,0,100,1,0

[HitObjects]
256,192,1722,5,8,0:0:0:0:
256,192,1922,1,0,0:0:0:0:
256,192,1989,1,8,0:0:0:0:
256,192,2056,1,8,0:0:0:0:
256,192,2122,1,8,0:0:0:0:
256,192,2322,1,0,0:0:0:0:
256,192,2389,1,8,0:0:0:0:
256,192,2456,1,8,0:0:0:0:
256,192,2522,1,8,0:0:0:0:
256,192,2722,1,0,0:0:0:0:
256,192,2789,1,8,0:0:0:0:
256,192,2856,1,8,0:0:0:0:
256,192,2922,1,8,0:0:0:0:
256,192,3122,1,0,0:0:0:0:
256,192,3322,1,8,0:0:0:0:
256,192,3522,1,0,0:0:0:0:
256,192,3589,1,8,0:0:0:0:
256,192,3656,1,8,0:0:0:0:
256,192,3722,1,8,0:0:0:0:
256,192,3922,1,0,0:0:0:0:
256,192,3989,1,8,0:0:0:0:
256,192,4056,1,8,0:0:0:0:
256,192,4122,1,8,0:0:0:0:
256,192,4322,1,0,0:0:0:0:
256,192,4389,1,8,0:0:0:0:
256,192,4456,1,8,0:0:0:0:
256,192,4522,1,8,0:0:0:0:
256,192,4722,1,0,0:0:0:0:
256,192,4922,1,8,0:0:0:0:
256,192,5122,1,0,0:0:0:0:
256,192,5189,1,8,0:0:0:0:
256,192,5256,1,8,0:0:0:0:
256,192,5322,1,8,0:0:0:0:
256,192,5522,1,0,0:0:0:0:
256,192,5589,1,8,0:0:0:0:
256,192,5656,1,8,0:0:0:0:
256,192,5722,1,8,0:0:0:0:
256,192,5922,1,0,0:0:0:0:
256,192,5989,1,8,0:0:0:0:
256,192,6056,1,8,0:0:0:0:
256,192,6122,1,8,0:0:0:0:
256,192,6322,1,0,0:0:0:0:
256,192,6522,1,8,0:0:0:0:
256,192,6722,1,0,0:0:0:0:
256,192,6789,1,8,0:0:0:0:
256,192,6856,1,8,0:0:0:0:
256,192,6922,1,8,0:0:0:0:
256,192,7122,1,0,0:0:0:0:
256,192,7189,1,8,0:0:0:0:
256,192,7256,1,8,0:0:0:0:
256,192,7322,1,8,0:0:0:0:
256,192,7522,1,0,0:0:0:0:
256,192,7589,1,8,0:0:0:0:
256,192,7656,1,8,0:0:0:0:
256,192,7722,1,8,0:0:0:0:
256,192,7922,1,0,0:0:0:0:
256,192,8122,5,8,0:0:0:0:
256,192,8322,1,0,0:0:0:0:
256,192,8389,1,8,0:0:0:0:
256,192,8456,1,8,0:0:0:0:
256,192,8522,1,8,0:0:0:0:
256,192,8722,1,0,0:3:0:0:
256,192,8822,1,0,0:3:0:0:
256,192,8922,1,0,0:3:0:0:
256,192,9122,1,0,0:0:0:0:
256,192,9189,1,8,0:0:0:0:
256,192,9256,1,8,0:0:0:0:
256,192,9322,1,8,0:0:0:0:
256,192,9522,1,8,0:0:0:0:
256,192,9622,1,8,0:0:0:0:
256,192,9722,1,8,0:0:0:0:
256,192,9922,1,0,0:0:0:0:
256,192,9989,1,8,0:0:0:0:
256,192,10056,1,8,0:0:0:0:
256,192,10122,1,8,0:0:0:0:
256,192,10322,1,0,0:0:0:0:
256,192,10422,1,0,0:0:0:0:
256,192,10522,1,0,0:0:0:0:
256,192,10722,1,0,0:0:0:0:
256,192,10789,1,8,0:0:0:0:
256,192,10856,1,8,0:0:0:0:
256,192,10922,1,8,0:0:0:0:
256,192,11122,1,8,0:0:0:0:
256,192,11222,1,8,0:0:0:0:
256,192,11322,1,8,0:0:0:0:
256,192,11522,1,0,0:0:0:0:
256,192,11589,1,8,0:0:0:0:
256,192,11656,1,8,0:0:0:0:
256,192,11722,1,8,0:0:0:0:
256,192,11922,1,0,0:0:0:0:
256,192,12022,1,0,0:0:0:0:
256,192,12122,1,0,0:0:0:0:
256,192,12322,1,0,0:0:0:0:
256,192,12389,1,8,0:0:0:0:
256,192,12456,1,8,0:0:0:0:
256,192,12522,1,8,0:0:0:0:
256,192,12722,1,8,0:0:0:0:
256,192,12822,1,8,0:0:0:0:
256,192,12922,1,8,0:0:0:0:
256,192,13122,1,0,0:0:0:0:
256,192,13189,1,8,0:0:0:0:
256,192,13256,1,8,0:0:0:0:
256,192,13322,1,8,0:0:0:0:
256,192,13522,1,0,0:0:0:0:
256,192,13622,1,0,0:0:0:0:
256,192,13722,1,0,0:0:0:0:
256,192,13922,1,0,0:0:0:0:
256,192,13989,1,8,0:0:0:0:
256,192,14056,1,8,0:0:0:0:
256,192,14122,1,8,0:0:0:0:
256,192,14322,1,8,0:0:0:0:
256,192,14422,1,8,0:0:0:0:
256,192,14522,1,8,0:0:0:0:
256,192,14722,1,0,0:0:0:0:
256,192,14789,1,8,0:0:0:0:
256,192,14856,1,8,0:0:0:0:
256,192,14922,1,8,0:0:0:0:
256,192,15122,1,0,0:0:0:0:
256,192,15222,1,0,0:0:0:0:
256,192,15322,1,0,0:0:0:0:
256,192,15522,1,0,0:0:0:0:
256,192,15589,1,8,0:0:0:0:
256,192,15656,1,8,0:0:0:0:
256,192,15722,1,8,0:0:0:0:
256,192,15922,1,8,0:0:0:0:
256,192,16022,1,8,0:0:0:0:
256,192,16122,1,8,0:0:0:0:
