osu file format v14

[General]
AudioFilename: audio.mp3
AudioLeadIn: 0
PreviewTime: -1
Countdown: 0
SampleSet: None
StackLeniency: 0.7
Mode: 1
LetterboxInBreaks: 0
WidescreenStoryboard: 1

[Editor]
Bookmarks: 8122,16122
DistanceSpacing: 0.8
BeatDivisor: 4
GridSize: 8
TimelineZoom: 2.4

[Metadata]
Title:Taiko 1/6 patterns training
TitleUnicode:Taiko 1/6 patterns training
Artist:Namco
ArtistUnicode:Namco
Creator:Arach
Version:DDKD - KKDK
Source:
Tags:training patterns taiko osu namco
BeatmapID:2441271
BeatmapSetID:910583

[Difficulty]
HPDrainRate:5
CircleSize:2
OverallDifficulty:5
ApproachRate:5
SliderMultiplier:1.4
SliderTickRate:1

[Events]
//Background and Video events
0,0,"3V5TFP.jpg",0,-130
//Break Periods
//Storyboard Layer 0 (Background)
//Storyboard Layer 1 (Fail)
//Storyboard Layer 2 (Pass)
//Storyboard Layer 3 (Foreground)
//Storyboard Layer 4 (Overlay)
//Storyboard Sound Samples

[TimingPoints]
1722,400,4,1,0,100,1,0

[HitObjects]
256,192,1722,5,8,0:0:0:0:
256,192,1922,1,0,0:0:0:0:
256,192,1988,1,0,0:0:0:0:
256,192,2055,1,8,0:0:0:0:
256,192,2122,1,0,0:0:0:0:
256,192,2322,1,0,0:0:0:0:
256,192,2522,1,8,0:0:0:0:
256,192,2588,1,8,0:0:0:0:
256,192,2655,1,0,0:0:0:0:
256,192,2722,1,8,0:0:0:0:
256,192,2922,1,8,0:0:0:0:
256,192,3122,1,0,0:0:0:0:
256,192,3322,1,8,0:0:0:0:
256,192,3522,1,0,0:0:0:0:
256,192,3588,1,0,0:0:0:0:
256,192,3655,1,8,0:0:0:0:
256,192,3722,1,0,0:0:0:0:
256,192,3922,1,0,0:0:0:0:
256,192,4122,1,8,0:0:0:0:
256,192,4188,1,8,0:0:0:0:
256,192,4255,1,0,0:0:0:0:
256,192,4322,1,8,0:0:0:0:
256,192,4522,1,8,0:0:0:0:
256,192,4722,1,0,0:0:0:0:
256,192,4922,1,8,0:0:0:0:
256,192,5122,1,0,0:0:0:0:
256,192,5188,1,0,0:0:0:0:
256,192,5255,1,8,0:0:0:0:
256,192,5322,1,0,0:0:0:0:
256,192,5522,1,0,0:0:0:0:
256,192,5722,1,8,0:0:0:0:
256,192,5788,1,8,0:0:0:0:
256,192,5855,1,0,0:0:0:0:
256,192,5922,1,8,0:0:0:0:
256,192,6122,1,8,0:0:0:0:
256,192,6322,1,0,0:0:0:0:
256,192,6522,1,8,0:0:0:0:
256,192,6722,1,0,0:0:0:0:
256,192,6788,1,0,0:0:0:0:
256,192,6855,1,8,0:0:0:0:
256,192,6922,1,0,0:0:0:0:
256,192,7122,1,0,0:0:0:0:
256,192,7322,1,8,0:0:0:0:
256,192,7388,1,8,0:0:0:0:
256,192,7455,1,0,0:0:0:0:
256,192,7522,1,8,0:0:0:0:
256,192,7722,1,8,0:0:0:0:
256,192,7922,1,0,0:0:0:0:
256,192,8122,1,8,0:0:0:0:
256,192,8322,1,0,0:0:0:0:
256,192,8388,1,0,0:0:0:0:
256,192,8455,1,8,0:0:0:0:
256,192,8522,1,0,0:0:0:0:
256,192,8722,1,0,0:0:0:0:
256,192,8922,1,8,0:0:0:0:
256,192,8988,1,8,0:0:0:0:
256,192,9055,1,0,0:0:0:0:
256,192,9122,1,8,0:0:0:0:
256,192,9322,1,8,0:0:0:0:
256,192,9522,1,0,0:0:0:0:
256,192,9722,1,8,0:0:0:0:
256,192,9922,1,0,0:0:0:0:
256,192,9988,1,0,0:0:0:0:
256,192,10055,1,8,0:0:0:0:
256,192,10122,1,0,0:0:0:0:
256,192,10322,1,0,0:0:0:0:
256,192,10522,1,8,0:0:0:0:
256,192,10588,1,8,0:0:0:0:
256,192,10655,1,0,0:0:0:0:
256,192,10722,1,8,0:0:0:0:
256,192,10922,1,8,0:0:0:0:
256,192,11122,1,0,0:0:0:0:
256,192,11322,1,8,0:0:0:0:
256,192,11522,1,0,0:0:0:0:
256,192,11588,1,0,0:0:0:0:
256,192,11655,1,8,0:0:0:0:
256,192,11722,1,0,0:0:0:0:
256,192,11922,1,0,0:0:0:0:
256,192,12122,1,8,0:0:0:0:
256,192,12188,1,8,0:0:0:0:
256,192,12255,1,0,0:0:0:0:
256,192,12322,1,8,0:0:0:0:
256,192,12522,1,8,0:0:0:0:
256,192,12722,1,0,0:0:0:0:
256,192,12922,1,8,0:0:0:0:
256,192,13122,1,0,0:0:0:0:
256,192,13188,1,0,0:0:0:0:
256,192,13255,1,8,0:0:0:0:
256,192,13322,1,0,0:0:0:0:
256,192,13522,1,0,0:0:0:0:
256,192,13722,1,8,0:0:0:0:
256,192,13788,1,8,0:3:0:0:
256,192,13855,1,0,0:0:0:0:
256,192,13922,1,8,0:3:0:0:
256,192,14122,1,8,0:0:0:0:
256,192,14322,1,0,0:0:0:0:
256,192,14522,1,8,0:0:0:0:
256,192,14722,1,0,0:0:0:0:
256,192,14788,1,0,0:0:0:0:
256,192,14855,1,8,0:0:0:0:
256,192,14922,1,0,0:0:0:0:
256,192,15122,1,0,0:0:0:0:
256,192,15322,1,8,0:0:0:0:
256,192,15388,1,8,0:0:0:0:
256,192,15455,1,0,0:0:0:0:
256,192,15522,1,8,0:0:0:0:
256,192,15722,1,8,0:0:0:0:
256,192,15922,1,0,0:0:0:0:
256,192,16122,1,8,0:0:0:0:
