osu file format v14

[General]
AudioFilename: audio.mp3
AudioLeadIn: 0
PreviewTime: 48499
Countdown: 0
SampleSet: Soft
StackLeniency: 0.4
Mode: 0
LetterboxInBreaks: 0
WidescreenStoryboard: 1

[Editor]
Bookmarks: 1602,13168,24373,24734,26722,36300,49312,60879,72445,84011,95578,107144,118710,131722,143288,154855,166421,177987,189553,201120,214132,225698,237264,248831,261843
DistanceSpacing: 0.3
BeatDivisor: 4
GridSize: 32
TimelineZoom: 3.159999

[Metadata]
Title:Yoi no Yo, Yoi!
TitleUnicode:宵の余、良い!
Artist:Nakiri Ayame
ArtistUnicode:百鬼あやめ
Creator:Mir
Version:Insane
Source:
Tags:vtuber virtual youtuber hololive ホロライブ japanese pop jpop j-pop oriental jdm umbra boppin
BeatmapID:3255684
BeatmapSetID:1593663

[Difficulty]
HPDrainRate:5
CircleSize:4
OverallDifficulty:7.5
ApproachRate:8.7
SliderMultiplier:1.6
SliderTickRate:1

[Events]
//Background and Video events
0,0,"fixed.jpg",0,0
//Break Periods
2,84211,91936
2,166620,176514
//Storyboard Layer 0 (Background)
//Storyboard Layer 1 (Fail)
//Storyboard Layer 2 (Pass)
//Storyboard Layer 3 (Foreground)
//Storyboard Layer 4 (Overlay)
//Storyboard Sound Samples

[TimingPoints]
-4181,361.44578313253,4,2,1,60,1,0
156,-166.666666666667,4,2,1,60,0,0
879,-66.6666666666667,4,2,3,60,0,0
924,-66.6666666666667,4,2,3,5,0,0
969,-66.6666666666667,4,2,3,60,0,0
1105,-66.6666666666667,4,2,3,5,0,0
1150,-66.6666666666667,4,2,3,60,0,0
1285,-66.6666666666667,4,2,3,5,0,0
1330,-66.6666666666667,4,2,3,60,0,0
1466,-66.6666666666667,4,2,3,5,0,0
1511,-66.6666666666667,4,2,3,60,0,0
1602,-100,4,2,1,85,0,0
1963,-100,4,2,3,85,0,0
2325,-100,4,2,1,85,0,0
6662,-66.6666666666667,4,2,3,85,0,0
6707,-66.6666666666667,4,2,3,5,0,0
6752,-66.6666666666667,4,2,3,60,0,0
6888,-66.6666666666667,4,2,3,5,0,0
6933,-66.6666666666667,4,2,3,60,0,0
7068,-66.6666666666667,4,2,3,5,0,0
7113,-66.6666666666667,4,2,3,60,0,0
7249,-66.6666666666667,4,2,3,5,0,0
7294,-66.6666666666667,4,2,3,60,0,0
7385,-100,4,2,1,85,0,0
7746,-100,4,2,3,85,0,0
8108,-100,4,2,1,85,0,0
12445,-66.6666666666667,4,2,1,85,0,0
12806,-133.333333333333,4,2,3,85,0,0
13168,-125,4,2,1,60,0,0
23108,-125,4,2,3,85,0,0
24373,-100,4,2,3,85,0,0
24734,-100,4,2,1,75,0,0
36300,-133.333333333333,4,2,1,70,0,0
38469,-133.333333333333,4,2,1,85,0,0
39192,-100,4,2,1,85,0,0
42084,-133.333333333333,4,2,1,70,0,0
44252,-133.333333333333,4,2,1,85,0,0
44975,-100,4,2,1,85,0,0
48590,-133.333333333333,4,2,1,60,0,0
49312,-76.9230769230769,4,2,1,85,0,1
49674,-76.9230769230769,4,2,3,85,0,1
50035,-76.9230769230769,4,2,1,85,0,1
55457,-76.9230769230769,4,2,3,85,0,1
55818,-76.9230769230769,4,2,1,85,0,1
59433,-62.5,4,2,1,85,0,1
59975,-76.9230769230769,4,2,1,85,0,1
60517,-133.333333333333,4,2,3,85,0,0
60879,-62.5,4,2,1,85,0,1
61240,-62.5,4,2,3,85,0,1
61421,-76.9230769230769,4,2,1,85,0,1
67023,-76.9230769230769,4,2,3,85,0,1
67385,-76.9230769230769,4,2,1,85,0,1
72084,-133.333333333333,4,2,1,85,0,0
72445,-76.9230769230769,4,2,3,85,0,1
72806,-76.9230769230769,4,2,1,85,0,1
78590,-76.9230769230769,4,2,3,85,0,1
78951,-76.9230769230769,4,2,1,85,0,1
83288,-62.5,4,2,1,85,0,1
83650,-133.333333333333,4,2,3,85,0,1
84011,-100,4,2,1,85,0,0
84373,-100,4,2,3,85,0,0
84734,-100,4,2,1,85,0,0
89072,-66.6666666666667,4,2,3,85,0,0
89117,-66.6666666666667,4,2,3,5,0,0
89162,-66.6666666666667,4,2,3,60,0,0
89297,-66.6666666666667,4,2,3,5,0,0
89342,-66.6666666666667,4,2,3,60,0,0
89478,-66.6666666666667,4,2,3,5,0,0
89523,-66.6666666666667,4,2,3,60,0,0
89659,-66.6666666666667,4,2,3,5,0,0
89704,-66.6666666666667,4,2,3,60,0,0
89794,-100,4,2,1,85,0,0
90156,-100,4,2,3,85,0,0
90517,-100,4,2,1,85,0,0
94855,-66.6666666666667,4,2,1,85,0,0
95216,-133.333333333333,4,2,3,85,0,0
95578,-153.846153846153,4,2,2,60,0,0
100999,-125,4,2,2,60,0,0
101361,-153.846153846154,4,2,2,60,0,0
105517,-153.846153846154,4,2,3,85,0,0
106782,-100,4,2,3,85,0,0
107144,-100,4,2,1,85,0,0
115818,-83.3333333333333,4,2,1,85,0,0
118710,-133.333333333333,4,2,1,70,0,0
120879,-133.333333333333,4,2,1,85,0,0
121602,-100,4,2,1,85,0,0
124493,-133.333333333333,4,2,1,70,0,0
126662,-133.333333333333,4,2,1,85,0,0
128650,-100,4,2,1,85,0,0
129192,-66.6666666666667,4,2,1,85,0,0
130276,-66.6666666666667,4,2,1,70,0,0
131361,-133.333333333333,4,2,3,85,0,0
131722,-62.5,4,2,1,85,0,1
132084,-76.9230769230769,4,2,3,85,0,1
132445,-76.9230769230769,4,2,1,85,0,1
137867,-76.9230769230769,4,2,3,85,0,1
138228,-76.9230769230769,4,2,1,85,0,1
141843,-62.5,4,2,1,85,0,1
142385,-76.9230769230769,4,2,1,85,0,1
142927,-133.333333333333,4,2,3,85,0,0
143288,-62.5,4,2,1,85,0,1
143650,-76.9230769230769,4,2,3,85,0,1
144011,-76.9230769230769,4,2,1,85,0,1
149433,-76.9230769230769,4,2,3,85,0,1
149794,-76.9230769230769,4,2,1,85,0,1
154493,-133.333333333333,4,2,1,85,0,0
154855,-76.9230769230769,4,2,3,85,0,1
155216,-76.9230769230769,4,2,1,85,0,1
160999,-76.9230769230769,4,2,3,85,0,1
161361,-76.9230769230769,4,2,1,85,0,1
165698,-62.5,4,2,1,85,0,1
166059,-133.333333333333,4,2,3,85,0,1
166421,-133.333333333333,4,2,1,70,0,0
177445,-100,4,2,3,80,0,0
177987,-100,4,2,1,85,0,0
189553,-66.6666666666667,4,2,1,85,0,0
189915,-83.3333333333333,4,2,3,85,0,0
190276,-83.3333333333333,4,2,1,85,0,0
200397,-66.6666666666667,4,2,1,85,0,0
201120,-83.3333333333333,4,2,1,85,0,0
201481,-83.3333333333333,4,2,3,85,0,0
201843,-83.3333333333333,4,2,1,85,0,0
205638,-83.3333333333333,4,2,3,85,0,0
206903,-83.3333333333333,4,2,1,85,0,0
207264,-83.3333333333333,4,2,3,85,0,0
207626,-83.3333333333333,4,2,1,85,0,0
214132,-83.3333333333333,4,2,3,70,0,0
214312,-125,4,2,3,70,0,0
214855,-125,4,2,3,30,0,0
216120,-125,4,2,1,70,0,0
217204,-125,4,2,1,30,0,0
217385,-71.4285714285714,4,2,3,70,0,0
218469,-71.4285714285714,4,2,1,60,0,0
219553,-125,4,2,3,85,0,0
219915,-62.5,4,2,1,85,0,1
220276,-76.9230769230769,4,2,3,85,0,1
220638,-76.9230769230769,4,2,1,85,0,1
225337,-133.333333333333,4,2,3,85,0,0
225698,-62.5,4,2,1,85,0,1
226059,-76.9230769230769,4,2,3,85,0,1
226421,-76.9230769230769,4,2,1,85,0,1
231843,-76.9230769230769,4,2,3,85,0,1
232204,-76.9230769230769,4,2,1,85,0,1
236903,-133.333333333333,4,2,1,85,0,0
237264,-76.9230769230769,4,2,3,85,0,1
237626,-76.9230769230769,4,2,1,85,0,1
243409,-76.9230769230769,4,2,3,85,0,1
243770,-76.9230769230769,4,2,1,85,0,1
248469,-133.333333333333,4,2,3,85,0,1
248831,-100,4,2,1,85,0,0
249192,-100,4,2,3,85,0,0
249553,-100,4,2,1,85,0,0
253891,-66.6666666666667,4,2,3,85,0,0
253936,-66.6666666666667,4,2,3,5,0,0
253981,-66.6666666666667,4,2,3,60,0,0
254117,-66.6666666666667,4,2,3,5,0,0
254162,-66.6666666666667,4,2,3,60,0,0
254297,-66.6666666666667,4,2,3,5,0,0
254342,-66.6666666666667,4,2,3,60,0,0
254478,-66.6666666666667,4,2,3,5,0,0
254523,-66.6666666666667,4,2,3,60,0,0
254614,-100,4,2,1,85,0,0
254975,-100,4,2,3,85,0,0
255337,-100,4,2,1,85,0,0
261120,-133.333333333333,4,2,1,85,0,0
261391,-133.333333333333,4,2,1,5,0,0
261481,-83.3333333333333,4,2,3,85,0,0
261662,-83.3333333333333,4,2,3,5,0,0

[Colours]
Combo1 : 241,199,152
Combo2 : 247,181,249
Combo3 : 233,101,193
Combo4 : 239,157,97

[HitObjects]
22,235,156,6,0,L|66:225,7,23.9999992675781
104,171,879,5,6,0:2:0:0:
179,237,1059,5,6,0:2:0:0:
275,191,1240,5,6,0:2:0:0:
351,252,1421,5,6,0:2:0:0:
469,190,1602,6,0,P|478:129|484:91,1,80,6|2,3:2|0:0,0:0:0:0:
295,0,1963,2,0,P|301:39|306:79,1,80,10|0,3:1|0:0,0:0:0:0:
355,242,2325,2,0,P|278:225|177:213,1,160,2|10,3:2|3:2,0:0:0:0:
54,243,2867,2,0,P|48:203|42:163,1,80,2|0,0:0|3:2,0:0:0:0:
198,129,3228,5,2,0:0:0:0:
127,181,3409,1,10,3:2:0:0:
259,278,3590,1,2,0:0:0:0:
259,278,3680,1,0,0:0:0:0:
259,278,3770,5,2,3:1:0:0:
292,201,3951,1,2,0:1:0:0:
306,343,4132,1,10,3:1:0:0:
172,285,4312,1,2,0:1:0:0:
80,372,4493,5,2,3:2:0:0:
80,372,4674,1,2,0:0:0:0:
0,247,4855,2,0,P|62:261|101:269,1,80,10|0,3:2|0:0,0:0:0:0:
214,159,5216,2,0,P|221:83|243:-25,1,160,2|10,3:2|3:2,0:0:0:0:
112,52,5758,2,0,P|50:66|11:74,1,80,2|0,0:0|3:2,0:0:0:0:
98,160,6120,1,2,0:0:0:0:
98,160,6210,1,0,0:0:0:0:
98,160,6300,1,10,3:2:0:0:
199,80,6481,1,2,0:0:0:0:
315,191,6662,5,6,3:2:0:0:
366,106,6843,5,6,0:2:0:0:
458,148,7023,5,14,3:2:0:0:
509,63,7204,5,6,0:2:0:0:
402,219,7385,5,6,3:2:0:0:
402,219,7565,1,2,0:0:0:0:
512,294,7746,6,0,P|497:354|495:390,1,80,10|0,3:1|0:0,0:0:0:0:
251,295,8108,2,0,P|245:255|234:217,1,80,2|0,3:2|0:0,0:0:0:0:
315,191,8469,5,10,3:2:0:0:
431,342,8650,2,0,P|376:352|262:392,1,160,2|2,0:0|0:0,0:0:0:0:
333,273,9192,1,10,3:2:0:0:
196,355,9373,2,0,P|120:328|42:312,1,160,2|2,0:0|0:0,0:0:0:0:
31,233,9915,1,10,3:2:0:0:
31,233,10096,1,2,0:0:0:0:
240,252,10276,5,14,3:2:0:0:
206,86,10457,1,14,3:2:0:0:
171,16,10999,5,14,3:2:0:0:
137,182,11180,1,14,3:2:0:0:
296,123,11722,5,14,3:2:0:0:
70,64,11993,1,14,3:2:0:0:
364,78,12264,1,14,3:2:0:0:
138,161,12445,6,0,B|42:182|105:240|-5:273,1,180.000006866455,14|0,3:2|0:0,0:0:0:0:
0,286,12806,2,0,B|32:304|34:362|9:309|19:264,1,90.0000034332277,4|0,0:2|0:0,0:0:0:0:
91,248,13168,6,0,P|146:257|174:261,1,64,6|0,3:2|0:0,0:0:0:0:
208,315,13529,2,0,P|239:310|271:304,1,64,2|0,3:2|0:0,0:0:0:0:
348,354,13891,2,0,P|353:322|359:290,1,64,2|0,3:2|0:0,0:0:0:0:
431,257,14252,1,0,3:2:0:0:
306,227,14433,2,0,P|296:166|284:86,1,128,2|0,0:0|0:0,0:0:0:0:
333,35,14975,1,2,3:2:0:0:
333,35,15156,1,2,0:0:0:0:
393,93,15337,5,2,3:2:0:0:
306,227,15608,2,0,P|252:213|185:199,1,96,2|0,0:0|0:0,0:0:0:0:
161,142,16059,6,0,P|111:149|85:152,1,64,2|0,3:2|0:0,0:0:0:0:
154,64,16421,2,0,P|104:71|78:74,1,64,2|0,3:2|0:0,0:0:0:0:
0,215,16782,2,0,P|50:222|76:225,1,64,2|0,3:2|0:0,0:0:0:0:
97,150,17144,1,0,3:2:0:0:
212,204,17325,2,0,P|202:257|189:348,1,128,2|0,0:0|0:0,0:0:0:0:
128,379,17867,1,2,3:2:0:0:
128,379,18047,1,2,0:0:0:0:
0,338,18228,6,0,P|54:320|95:307,1,96,2|0,3:2|0:0,0:0:0:0:
96,301,18590,2,0,B|105:268|105:268|83:297,1,64,2|0,3:1|0:0,0:0:0:0:
273,345,18951,6,0,L|363:359,1,64,2|0,3:2|0:0,0:0:0:0:
424,265,19312,2,0,L|334:279,1,64,2|0,3:2|0:0,0:0:0:0:
278,181,19674,2,0,L|368:195,1,64,2|0,3:2|0:0,0:0:0:0:
403,133,20035,1,0,3:2:0:0:
503,64,20216,6,0,P|496:109|484:200,1,128,2|0,0:0|0:0,0:0:0:0:
403,133,20758,2,0,P|395:91|387:55,1,64,2|2,3:2|0:0,0:0:0:0:
443,0,21120,5,2,3:2:0:0:
341,190,21391,2,0,P|334:235|317:374,1,160,2|0,0:0|0:0,0:0:0:0:
6,263,23108,5,14,3:2:0:0:
24,259,23469,1,14,3:2:0:0:
42,255,23831,1,14,3:2:0:0:
60,251,24192,1,14,3:2:0:0:
201,298,24373,2,0,B|209:321|201:360|201:360|194:325|167:309,1,120,6|0,0:0|0:0,0:0:0:0:
124,376,24734,6,0,P|201:348|311:339,1,160,6|10,3:2|3:2,0:0:0:0:
359,382,25276,1,0,0:0:0:0:
359,382,25367,1,0,0:0:0:0:
359,382,25457,2,0,P|367:321|376:293,1,80,2|0,3:2|0:0,0:0:0:0:
419,244,25818,1,8,3:2:0:0:
304,263,25999,6,0,P|295:194|271:90,1,160,2|2,0:0|0:0,0:0:0:0:
323,42,26541,1,10,3:2:0:0:
199,5,26722,1,2,0:0:0:0:
199,5,26812,1,0,0:0:0:0:
199,5,26903,6,0,P|144:15|116:17,1,80,2|0,3:2|0:0,0:0:0:0:
6,86,27174,2,0,P|65:91|135:105,1,120,0|2,0:0|0:1,0:0:0:0:
262,142,27626,6,0,B|280:181|280:181|250:227,1,80,2|0,3:2|0:0,0:0:0:0:
202,265,27897,1,0,0:0:0:0:
193,274,27987,2,0,L|97:259,1,80,10|0,3:2|0:0,0:0:0:0:
106,271,28258,1,0,0:0:0:0:
98,280,28349,1,2,3:2:0:0:
41,216,28529,1,0,0:0:0:0:
121,187,28710,1,8,3:2:0:0:
259,212,28891,6,0,L|439:189,1,160,2|0,0:0|0:0,0:0:0:0:
505,245,29433,1,10,3:2:0:0:
435,368,29614,5,2,0:0:0:0:
435,368,29704,1,0,0:0:0:0:
435,368,29794,1,2,3:2:0:0:
417,191,29975,5,2,0:1:0:0:
348,269,30156,1,10,3:1:0:0:
259,212,30337,1,2,0:1:0:0:
345,285,30517,6,0,B|276:301|319:347|238:360,1,120,2|0,3:2|0:0,0:0:0:0:
246,368,30879,2,0,P|193:360|164:358,1,80,10|0,3:2|0:0,0:0:0:0:
155,362,31150,1,0,0:0:0:0:
144,367,31240,1,2,3:2:0:0:
110,289,31421,1,0,0:0:0:0:
49,350,31602,1,8,3:2:0:0:
121,279,31782,6,0,L|105:110,1,160,2|2,0:0|0:0,0:0:0:0:
170,57,32325,1,10,3:2:0:0:
85,31,32505,1,2,0:0:0:0:
85,31,32596,1,0,0:0:0:0:
85,31,32686,1,2,3:2:0:0:
191,130,32867,1,0,0:0:0:0:
80,198,33047,2,0,P|23:190|-22:184,1,80,10|0,3:2|0:0,0:0:0:0:
200,138,33409,6,0,B|241:147|241:147|267:183|267:183|321:196,1,120,6|0,3:2|0:0,0:0:0:0:
311,267,33770,2,0,B|352:258|352:258|378:222|378:222|432:209,1,120,10|0,3:2|0:0,0:0:0:0:
466,155,34132,2,0,B|507:188|507:188|476:282,1,120,6|0,3:2|0:0,0:0:0:0:
425,300,34493,1,10,3:2:0:0:
384,136,34764,5,0,0:0:0:0:
390,120,34855,1,6,3:2:0:0:
299,190,35035,1,2,0:0:0:0:
234,66,35216,1,10,3:2:0:0:
355,17,35397,1,2,0:0:0:0:
314,103,35578,5,2,3:2:0:0:
314,103,35758,1,8,3:0:0:0:
447,37,35939,1,8,3:2:0:0:
57,38,36300,6,0,P|49:93|36:165,1,120.000004577637,6|0,3:2|0:0,0:0:0:0:
12,229,36843,1,0,3:2:0:0:
12,229,37204,1,0,3:2:0:0:
139,295,37385,5,8,0:2:0:0:
139,295,37746,2,0,P|134:339|133:396,2,90.0000034332277,0|0|0,3:2|3:2|3:2,0:0:0:0:
190,233,38469,5,2,0:1:0:0:
190,233,38650,1,2,0:1:0:0:
265,303,38831,5,10,0:1:0:0:
265,303,38921,1,2,0:1:0:0:
265,303,39011,1,2,0:1:0:0:
265,303,39102,1,2,0:1:0:0:
265,303,39192,6,0,P|315:294|366:289,1,80,6|0,3:2|0:0,0:0:0:0:
353,298,39463,1,0,0:0:0:0:
362,305,39553,1,10,0:2:0:0:
327,378,39734,1,0,0:0:0:0:
439,381,39915,2,0,P|449:327|477:210,1,160,2|8,0:0|0:2,0:0:0:0:
493,89,40457,5,2,3:2:0:0:
493,89,40638,2,0,P|457:139|343:137,1,160,2|10,3:2|0:2,0:0:0:0:
292,99,41180,1,0,0:0:0:0:
238,175,41361,1,2,0:0:0:0:
238,175,41451,1,0,0:0:0:0:
238,175,41541,1,0,3:2:0:0:
292,88,41722,2,0,P|301:29|304:-3,1,80,10|2,0:1|0:1,0:0:0:0:
364,149,42084,6,0,L|390:285,1,120.000004577637,6|0,3:2|0:0,0:0:0:0:
407,347,42626,1,0,3:2:0:0:
407,347,42987,1,0,3:2:0:0:
282,365,43168,5,8,0:2:0:0:
282,365,43529,2,0,L|301:264,2,90.0000034332277,0|0|0,3:2|3:2|3:2,0:0:0:0:
211,304,44252,5,2,0:1:0:0:
211,304,44433,1,2,3:1:0:0:
138,358,44614,5,10,0:1:0:0:
138,358,44704,1,2,0:1:0:0:
138,358,44794,1,2,0:1:0:0:
138,358,44885,1,2,0:1:0:0:
138,358,44975,6,0,P|76:343|43:338,1,80,6|0,3:2|0:0,0:0:0:0:
187,227,45337,2,0,P|205:288|217:319,1,80,10|0,3:2|0:0,0:0:0:0:
50,251,45698,2,0,P|93:204|114:178,1,80,2|0,3:2|0:0,0:0:0:0:
87,115,46059,1,10,3:2:0:0:
187,227,46240,6,0,B|285:226|223:154|351:153,1,160,2|2,0:0|0:0,0:0:0:0:
384,212,46782,1,10,3:2:0:0:
459,182,46963,1,2,0:0:0:0:
487,55,47144,5,2,3:2:0:0:
420,5,47325,1,0,0:0:0:0:
420,5,47415,1,0,0:0:0:0:
420,5,47505,1,8,3:2:0:0:
331,30,47686,1,0,0:0:0:0:
91,31,48590,5,2,0:0:0:0:
95,48,48951,1,2,0:0:0:0:
10,217,49312,6,0,B|145:238|44:306|211:327,1,207.999990478516,6|8,3:2|3:1,0:0:0:0:
257,301,49855,1,2,0:0:0:0:
432,373,50035,5,2,3:2:0:0:
496,314,50216,2,0,P|508:237|520:196,1,103.999995239258,2|8,0:0|3:2,0:0:0:0:
236,213,50578,6,0,P|308:225|333:355,1,207.999990478516,2|2,0:0|0:0,0:0:0:0:
331,354,51029,1,2,0:0:0:0:
318,363,51120,1,10,3:2:0:0:
257,301,51300,1,2,0:0:0:0:
396,195,51481,5,2,3:1:0:0:
219,125,51662,1,2,0:1:0:0:
175,278,51843,1,10,3:1:0:0:
236,213,52023,1,2,0:1:0:0:
153,74,52204,6,0,P|93:64|33:52,1,103.999995239258,2|0,3:1|0:0,0:0:0:0:
9,127,52565,1,10,3:1:0:0:
9,127,52746,1,2,0:1:0:0:
31,268,52927,5,2,3:1:0:0:
151,192,53108,1,2,0:0:0:0:
9,127,53288,1,10,3:1:0:0:
67,192,53469,1,2,0:1:0:0:
218,132,53650,6,0,P|282:124|346:119,1,103.999995239258,2|0,3:1|0:0,0:0:0:0:
332,131,53921,1,0,0:0:0:0:
344,139,54011,1,10,3:2:0:0:
488,85,54192,1,0,0:0:0:0:
325,48,54373,1,2,3:1:0:0:
441,158,54553,5,2,0:1:0:0:
447,172,54644,1,2,0:1:0:0:
453,186,54734,2,0,L|446:254,1,51.999997619629,10|2,3:1|0:1,0:0:0:0:
338,227,54915,2,0,L|345:295,1,51.999997619629,2|2,0:1|0:1,0:0:0:0:
310,384,55096,6,0,P|387:359|540:348,1,207.999990478516,6|8,3:2|3:1,0:0:0:0:
343,278,55638,1,2,0:0:0:0:
106,306,55818,5,2,3:2:0:0:
185,366,55999,2,0,P|196:310|191:251,1,103.999995239258,2|8,0:0|3:2,0:0:0:0:
235,98,56361,6,0,P|188:166|41:161,1,207.999990478516,2|2,0:0|0:0,0:0:0:0:
58,168,56812,1,2,0:0:0:0:
47,156,56903,1,10,3:2:0:0:
12,234,57084,1,2,0:0:0:0:
127,94,57264,5,2,3:2:0:0:
219,182,57445,1,0,0:0:0:0:
310,55,57626,1,10,3:1:0:0:
310,55,57806,1,2,0:1:0:0:
507,173,57987,6,0,P|501:231|506:287,1,103.999995239258,2|0,3:1|0:0,0:0:0:0:
509,291,58258,2,0,P|458:332|420:385,1,103.999995239258,2|0,0:1|0:0,0:0:0:0:
420,359,58529,1,2,0:1:0:0:
314,323,58710,2,0,P|319:264|314:208,1,103.999995239258,2|0,3:1|0:0,0:0:0:0:
312,204,58981,2,0,P|362:162|400:109,1,103.999995239258,2|0,0:1|0:0,0:0:0:0:
402,137,59252,1,2,0:1:0:0:
408,258,59433,6,0,B|308:267|356:340|181:335,1,192,2|0,3:2|0:0,0:0:0:0:
222,319,59794,1,8,3:2:0:0:
54,358,59975,1,2,3:2:0:0:
54,358,60065,1,2,0:0:0:0:
54,358,60156,2,0,P|63:291|67:261,3,51.999997619629,2|0|0|0,0:0|0:0|3:2|0:0,0:0:0:0:
9,240,60517,1,6,0:0:0:0:
396,54,60879,6,0,B|354:18|354:18|151:62,1,256,6|8,3:2|3:1,0:0:0:0:
64,86,61421,1,2,0:0:0:0:
331,114,61602,1,2,3:2:0:0:
131,142,61782,2,0,B|106:170|106:170|139:257,1,103.999995239258,2|8,0:0|3:2,0:0:0:0:
241,0,62144,6,0,L|222:218,1,207.999990478516,2|2,0:0|0:0,0:0:0:0:
231,220,62596,1,2,0:0:0:0:
239,232,62686,1,10,3:2:0:0:
331,114,62867,1,2,0:0:0:0:
193,84,63047,5,2,3:1:0:0:
255,148,63228,1,2,0:1:0:0:
416,135,63409,1,10,3:1:0:0:
361,197,63590,1,2,0:1:0:0:
327,33,63770,5,2,3:1:0:0:
327,33,64132,1,10,3:1:0:0:
416,135,64312,1,2,0:1:0:0:
255,148,64493,1,2,3:1:0:0:
331,114,64674,1,2,0:0:0:0:
452,212,64855,1,10,3:1:0:0:
301,277,65035,1,2,0:1:0:0:
355,200,65216,5,2,3:1:0:0:
201,248,65397,1,0,0:0:0:0:
201,248,65487,1,0,0:0:0:0:
201,248,65578,2,0,P|131:229|76:219,1,103.999995239258,10|0,3:1|0:0,0:0:0:0:
35,273,65939,1,2,3:1:0:0:
306,360,66120,5,2,0:1:0:0:
308,344,66210,1,2,0:1:0:0:
310,328,66300,2,0,L|297:260,1,51.999997619629,10|2,3:1|0:1,0:0:0:0:
200,247,66481,2,0,L|191:299,1,51.999997619629,2|2,0:1|0:1,0:0:0:0:
81,359,66662,6,0,P|72:259|53:138,1,207.999990478516,4|12,3:2|3:1,0:0:0:0:
19,83,67204,1,2,0:0:0:0:
260,15,67385,5,2,3:2:0:0:
210,75,67565,2,0,P|145:63|100:56,1,103.999995239258,2|8,0:0|3:2,0:0:0:0:
148,180,67927,6,0,P|217:166|277:278,1,207.999990478516,2|2,0:0|0:0,0:0:0:0:
277,285,68379,1,2,0:0:0:0:
267,297,68469,1,10,3:2:0:0:
350,189,68650,1,2,0:1:0:0:
196,251,68831,6,0,P|184:316|211:362,1,103.999995239258,2|2,3:2|0:1,0:0:0:0:
355,301,69192,1,10,3:1:0:0:
355,301,69373,1,2,0:1:0:0:
498,355,69553,6,0,P|514:306|500:257,1,103.999995239258,2|0,3:1|0:0,0:0:0:0:
512,245,69825,2,0,P|489:198|444:173,1,103.999995239258,2|0,0:1|0:0,0:0:0:0:
435,155,70096,1,2,0:1:0:0:
297,0,70276,2,0,P|280:48|294:97,1,103.999995239258,2|0,3:1|0:0,0:0:0:0:
283,110,70548,2,0,P|305:156|350:181,1,103.999995239258,2|0,0:1|0:0,0:0:0:0:
360,200,70819,1,2,0:1:0:0:
498,99,70999,5,2,3:2:0:0:
378,56,71180,1,0,0:0:0:0:
378,56,71270,1,0,0:0:0:0:
378,56,71361,1,8,3:2:0:0:
360,200,71541,1,0,3:2:0:0:
426,145,71722,5,2,1:2:0:0:
426,145,71812,1,2,1:2:0:0:
426,145,71903,1,2,1:2:0:0:
426,145,71993,1,0,1:0:0:0:
426,145,72084,2,0,B|462:185|462:185|424:155,1,90.0000034332277,8|0,3:2|0:0,0:0:0:0:
360,200,72445,5,2,3:1:0:0:
153,211,72626,1,2,0:0:0:0:
153,211,72716,1,2,0:0:0:0:
153,211,72806,1,10,3:2:0:0:
85,163,72987,5,2,0:0:0:0:
224,252,73168,1,2,3:2:0:0:
99,364,73349,2,0,P|45:346|-22:333,1,103.999995239258,2|8,0:0|3:2,0:0:0:0:
157,78,73710,6,0,P|139:164|117:289,1,207.999990478516,2|2,0:0|0:0,0:0:0:0:
224,252,74252,1,10,3:2:0:0:
224,252,74433,1,2,0:0:0:0:
45,188,74614,6,0,P|35:132|20:67,1,103.999995239258,2|0,3:2|0:0,0:0:0:0:
0,2,74885,2,0,P|58:12|116:18,1,103.999995239258,2|0,0:0|0:0,0:0:0:0:
180,0,75156,1,2,0:0:0:0:
317,116,75337,5,2,3:2:0:0:
393,80,75517,2,0,P|454:112|466:171,1,103.999995239258,2|8,0:0|3:2,0:0:0:0:
247,168,75879,5,2,0:0:0:0:
322,34,76059,1,2,3:2:0:0:
385,162,76240,2,0,P|374:221|366:278,1,103.999995239258,2|8,0:0|3:2,0:0:0:0:
374,278,76511,1,0,0:0:0:0:
381,291,76602,6,0,P|474:282|491:407,1,207.999990478516,2|2,0:0|0:0,0:0:0:0:
481,198,77144,1,10,3:2:0:0:
432,356,77325,1,2,0:1:0:0:
290,235,77505,5,2,3:2:0:0:
290,235,77686,1,2,0:1:0:0:
450,113,77867,1,10,3:1:0:0:
450,113,78048,1,2,0:1:0:0:
287,19,78228,5,6,3:2:0:0:
385,162,78409,1,2,0:0:0:0:
223,82,78590,1,10,3:1:0:0:
184,212,78770,1,2,0:0:0:0:
305,113,78951,1,2,3:2:0:0:
143,129,79132,2,0,L|17:158,1,103.999995239258,2|8,0:0|3:2,0:0:0:0:
146,306,79493,6,0,P|221:301|265:163,1,207.999990478516,2|2,0:0|0:0,0:0:0:0:
223,82,80035,1,10,3:2:0:0:
97,223,80216,1,2,0:0:0:0:
275,192,80397,6,0,P|339:208|382:225,1,103.999995239258,2|0,3:2|0:0,0:0:0:0:
413,288,80668,2,0,P|477:272|498:173,1,155.999992858887,2|0,0:0|0:0,0:0:0:0:
336,123,81120,5,14,3:2:0:0:
294,347,81300,1,14,3:2:0:0:
222,380,81843,5,14,3:2:0:0:
180,156,82023,1,14,3:2:0:0:
241,102,82565,5,14,3:2:0:0:
26,263,82837,1,14,3:2:0:0:
294,347,83108,1,14,3:2:0:0:
252,279,83288,6,0,B|141:276|197:359|50:361,1,192,14|0,3:2|0:0,0:0:0:0:
6,364,83650,2,0,P|-10:356|10:360,1,60.0000022888184,4|0,0:0|0:0,0:0:0:0:
227,193,84011,5,6,3:2:0:0:
239,91,92686,5,14,3:2:0:0:
210,269,92867,1,14,3:2:0:0:
146,318,93409,5,14,3:2:0:0:
117,140,93590,1,14,3:2:0:0:
318,75,94132,5,14,3:2:0:0:
42,216,94403,1,14,3:2:0:0:
260,374,94674,1,14,3:2:0:0:
258,255,94855,6,0,P|342:241|436:306,1,180.000006866455,14|0,3:2|0:0,0:0:0:0:
474,351,95216,2,0,P|475:358|475:347,1,60.0000022888184,4|0,0:0|0:0,0:0:0:0:
421,285,95578,6,0,P|429:226|447:121,1,155.999992858887,4|0,3:2|3:2,0:0:0:0:
470,61,96300,1,8,0:2:0:0:
338,10,96843,5,0,3:2:0:0:
265,44,97204,1,0,3:2:0:0:
265,44,97294,1,0,3:2:0:0:
185,10,97565,1,0,3:2:0:0:
185,10,97746,2,0,P|149:16|124:19,1,51.999997619629,8|0,0:2|0:0,0:0:0:0:
291,121,98108,2,0,P|316:124|342:128,1,51.999997619629
195,106,98469,6,0,P|188:155|175:227,1,103.999995239258,0|0,3:2|0:0,0:0:0:0:
148,279,99011,1,0,3:2:0:0:
63,370,99192,1,8,0:2:0:0:
63,370,99373,2,0,P|30:355|29:355,1,25.9999988098145,2|0,0:1|0:0,0:0:0:0:
41,356,99734,6,0,P|71:348|106:341,1,51.999997619629,0|0,3:2|0:0,0:0:0:0:
148,279,100096,1,0,3:2:0:0:
148,279,100186,1,0,3:2:0:0:
232,297,100457,1,0,3:2:0:0:
232,297,100638,2,0,L|246:386,1,77.9999964294435,8|0,0:2|3:2,0:0:0:0:
253,378,100999,6,0,B|288:364|288:364|247:362,1,64,2|0,0:1|3:2,0:0:0:0:
89,184,101361,5,4,3:2:0:0:
23,220,101541,2,0,L|-7:207,2,25.9999988098145
89,184,101903,1,0,3:2:0:0:
148,279,102084,1,8,0:2:0:0:
148,279,102626,5,0,3:2:0:0:
250,214,102987,1,0,3:2:0:0:
250,214,103077,1,0,3:2:0:0:
371,249,103349,1,0,3:2:0:0:
445,224,103529,6,0,L|454:159,1,51.999997619629,8|0,0:2|3:2,0:0:0:0:
385,135,103891,2,0,L|378:85,1,25.9999988098145
381,99,104072,1,2,3:1:0:0:
418,20,104252,5,2,0:1:0:0:
459,8,104433,1,2,0:1:0:0:
493,40,104614,1,2,0:1:0:0:
479,78,104794,1,2,0:1:0:0:
91,332,105517,5,14,3:2:0:0:
86,308,105879,1,14,3:2:0:0:
81,284,106240,1,14,3:2:0:0:
76,260,106602,1,14,3:2:0:0:
114,137,106782,2,0,B|107:104|64:103|64:103|102:122|99:170,1,120,6|0,0:0|0:0,0:0:0:0:
21,165,107144,6,0,P|100:176|195:218,1,160,6|10,3:2|3:2,0:0:0:0:
257,304,107686,1,0,0:0:0:0:
257,304,107776,1,0,0:0:0:0:
257,304,107867,2,0,P|248:344|242:396,1,80,2|0,3:2|0:0,0:0:0:0:
327,264,108228,1,8,3:2:0:0:
214,135,108409,1,2,0:0:0:0:
268,77,108590,6,0,P|315:88|364:101,1,80,0|2,3:2|0:0,0:0:0:0:
356,90,108861,1,0,0:0:0:0:
366,85,108951,1,10,3:2:0:0:
491,37,109132,1,2,0:0:0:0:
488,48,109222,1,0,0:0:0:0:
486,59,109312,1,2,3:2:0:0:
410,18,109493,1,0,0:0:0:0:
448,140,109674,1,10,3:1:0:0:
448,140,109855,1,2,0:1:0:0:
378,205,110035,6,0,P|386:245|393:296,1,80,2|2,3:2|0:0,0:0:0:0:
388,295,110306,1,2,0:0:0:0:
385,306,110397,1,10,3:2:0:0:
470,342,110578,2,0,P|494:350|522:363,2,40,2|2|2,0:0|0:0|3:2,0:0:0:0:
472,261,110939,5,0,0:0:0:0:
402,384,111120,1,8,3:2:0:0:
279,297,111300,2,0,P|216:286|168:365,1,160,2|2,0:0|0:0,0:0:0:0:
96,288,111843,5,10,3:2:0:0:
96,288,112023,1,2,0:0:0:0:
96,288,112204,1,2,3:2:0:0:
240,200,112385,5,2,0:1:0:0:
76,147,112565,1,10,3:1:0:0:
220,108,112746,1,2,0:1:0:0:
217,96,112837,1,2,0:1:0:0:
215,84,112927,6,0,L|223:-2,1,80,2|0,3:1|0:0,0:0:0:0:
211,10,113198,1,0,0:0:0:0:
200,16,113288,1,10,3:2:0:0:
301,58,113469,2,0,L|359:47,2,40,2|2|2,0:0|0:0|3:2,0:0:0:0:
157,168,113831,2,0,P|147:223|141:275,1,80,0|8,0:0|3:2,0:0:0:0:
0,300,114192,6,0,P|14:344|130:360,1,160,2|2,0:0|0:0,0:0:0:0:
177,313,114734,1,10,3:2:0:0:
286,368,114915,1,2,0:0:0:0:
296,362,115005,1,2,0:0:0:0:
306,356,115096,6,0,P|312:311|326:248,1,80,2|0,3:2|0:0,0:0:0:0:
509,198,115457,2,0,P|498:230|403:227,1,120,10|0,3:2|0:0,0:0:0:0:
329,175,115818,6,0,B|319:120|319:120|342:72|342:72|331:16,1,143.999995605469,6|0,3:2|0:0,0:0:0:0:
256,58,116180,2,0,B|221:51|221:51|173:74|173:74|118:64,1,143.999995605469,10|0,3:2|0:0,0:0:0:0:
42,77,116541,2,0,B|9:39|9:39|72:17,1,95.9999970703126,6|0,3:2|0:0,0:0:0:0:
238,137,116903,1,10,3:2:0:0:
37,247,117174,5,2,0:0:0:0:
23,244,117264,1,6,3:2:0:0:
92,184,117445,1,2,0:0:0:0:
136,317,117626,1,10,3:2:0:0:
259,246,117806,1,2,0:0:0:0:
167,242,117987,5,2,3:2:0:0:
167,242,118168,1,8,3:0:0:0:
300,335,118349,1,8,3:2:0:0:
512,61,118710,6,0,P|447:59|410:118,1,120.000004577637,6|0,3:2|0:0,0:0:0:0:
449,171,119252,1,0,3:2:0:0:
449,171,119614,1,0,3:2:0:0:
312,99,119794,5,8,0:2:0:0:
312,99,120156,2,0,P|329:65|306:6,2,90.0000034332277,0|0|0,3:2|3:2|3:2,0:0:0:0:
243,139,120879,5,2,0:1:0:0:
243,139,121059,1,2,0:1:0:0:
172,81,121240,5,10,0:1:0:0:
172,81,121331,1,2,0:1:0:0:
172,81,121421,1,2,0:1:0:0:
172,81,121511,1,2,0:1:0:0:
172,81,121602,6,0,P|125:70|94:64,1,80,6|0,3:2|0:0,0:0:0:0:
223,230,121963,2,0,P|270:219|301:213,1,80,10|0,0:2|0:0,0:0:0:0:
143,168,122325,2,0,P|129:227|117:263,1,80,2|0,0:0|3:2,0:0:0:0:
114,253,122596,1,0,0:0:0:0:
105,261,122686,1,8,0:2:0:0:
139,383,122867,6,0,P|183:338|296:350,1,160,2|0,3:2|0:0,0:0:0:0:
283,345,123318,1,0,0:0:0:0:
290,354,123409,2,0,P|343:366|369:348,1,80,10|0,0:2|0:0,0:0:0:0:
398,281,123770,1,2,0:0:0:0:
398,281,123861,1,0,0:0:0:0:
398,281,123951,1,0,3:2:0:0:
327,225,124132,5,10,0:1:0:0:
410,176,124312,1,2,0:1:0:0:
315,232,124493,6,0,P|273:223|193:210,1,120.000004577637,6|0,3:2|0:0,0:0:0:0:
116,225,125035,1,0,3:2:0:0:
116,225,125397,1,0,3:2:0:0:
96,97,125578,5,8,0:2:0:0:
96,97,125939,2,0,P|50:84|-16:69,2,90.0000034332277,0|0|0,3:2|3:2|3:2,0:0:0:0:
172,41,126662,5,2,0:1:0:0:
172,41,126843,1,2,3:1:0:0:
266,114,127023,5,10,0:1:0:0:
266,114,127114,1,2,0:1:0:0:
266,114,127204,1,2,0:1:0:0:
266,114,127294,1,2,0:1:0:0:
266,114,127385,5,8,3:2:0:0:
447,140,127565,1,8,3:2:0:0:
490,214,128108,5,8,3:2:0:0:
309,240,128288,1,8,3:2:0:0:
379,384,128650,6,0,P|390:324|405:199,1,160,2|2,3:2|3:2,0:0:0:0:
490,214,129192,1,10,3:2:0:0:
370,164,129373,5,2,0:0:0:0:
370,164,129463,1,0,0:0:0:0:
370,164,129553,2,0,P|300:152|251:142,1,120.000004577637,2|0,3:2|0:0,0:0:0:0:
7,77,129915,2,0,P|37:24|115:37,1,120.000004577637,8|0,3:2|0:0,0:0:0:0:
149,113,130276,5,4,3:0:0:0:
146,130,130367,1,4,3:0:0:0:
143,147,130457,1,4,3:0:0:0:
140,164,130547,1,4,3:0:0:0:
138,182,130638,1,4,3:0:0:0:
47,303,130818,5,4,3:0:0:0:
80,273,130908,1,4,3:0:0:0:
124,268,130998,1,4,3:0:0:0:
163,289,131089,1,4,3:0:0:0:
183,328,131179,1,4,3:0:0:0:
103,377,131361,5,6,0:0:0:0:
228,193,131722,6,0,B|319:185|319:185|370:222|370:222|497:211,1,256,6|8,3:2|3:1,0:0:0:0:
505,140,132264,1,2,0:0:0:0:
306,79,132445,1,2,3:2:0:0:
412,28,132626,2,0,P|405:94|401:151,1,103.999995239258,2|8,0:0|3:2,0:0:0:0:
268,306,132987,6,0,P|227:242|89:244,1,207.999990478516,2|2,0:0|0:0,0:0:0:0:
48,300,133529,1,10,3:2:0:0:
146,141,133710,1,2,0:0:0:0:
146,141,133800,1,0,0:0:0:0:
146,141,133891,6,0,P|133:70|129:24,1,103.999995239258,2|2,3:1|0:1,0:0:0:0:
209,15,134252,1,10,3:1:0:0:
52,117,134433,1,2,0:1:0:0:
246,155,134614,1,2,3:1:0:0:
152,364,134975,5,10,3:1:0:0:
48,300,135156,1,2,0:1:0:0:
155,242,135337,2,0,B|284:261|190:335|356:354,1,207.999990478516,2|10,3:1|3:1,0:0:0:0:
391,271,135879,1,2,0:1:0:0:
489,269,136059,6,0,P|496:331|510:388,1,103.999995239258,2|0,3:1|0:0,0:0:0:0:
307,218,136421,2,0,P|317:167|323:115,1,103.999995239258,10|2,3:1|0:0,0:0:0:0:
502,22,136782,1,2,3:1:0:0:
492,146,136963,5,2,0:1:0:0:
481,145,137053,1,2,0:1:0:0:
471,144,137144,2,0,L|409:137,1,51.999997619629,10|2,3:1|0:1,0:0:0:0:
342,20,137325,2,0,L|404:13,1,51.999997619629,2|2,0:1|0:1,0:0:0:0:
307,218,137505,6,0,P|288:140|163:147,1,207.999990478516,6|8,3:2|3:1,0:0:0:0:
18,85,138047,1,2,0:0:0:0:
172,34,138228,1,2,3:2:0:0:
223,203,138409,2,0,P|209:263|204:326,1,103.999995239258,2|8,0:0|3:2,0:0:0:0:
33,377,138770,6,0,P|26:325|14:274,1,103.999995239258,2|0,0:0|3:2,0:0:0:0:
95,187,139132,1,2,0:0:0:0:
95,187,139222,1,2,0:0:0:0:
95,187,139312,1,10,3:2:0:0:
118,282,139493,1,2,0:0:0:0:
303,269,139674,6,0,P|364:276|425:289,1,103.999995239258,2|2,3:2|0:1,0:0:0:0:
489,235,140035,1,10,3:1:0:0:
373,364,140216,1,2,0:1:0:0:
373,184,140397,6,0,P|430:148|426:84,1,103.999995239258,2|0,3:1|0:0,0:0:0:0:
459,106,140668,2,0,P|441:58|395:37,1,103.999995239258,2|0,0:1|0:0,0:0:0:0:
385,10,140939,1,2,0:1:0:0:
284,13,141120,2,0,P|227:49|231:113,1,103.999995239258,2|0,3:1|0:0,0:0:0:0:
198,91,141391,2,0,P|215:138|261:159,1,103.999995239258,2|0,0:1|0:0,0:0:0:0:
272,187,141662,1,2,0:1:0:0:
341,101,141843,6,0,P|308:199|304:329,1,192,2|0,3:2|0:0,0:0:0:0:
313,300,142204,1,8,3:2:0:0:
512,316,142385,2,0,P|486:364|412:357,1,103.999995239258,0|0,3:2|0:0,0:0:0:0:
429,362,142656,1,0,0:0:0:0:
419,349,142746,1,0,3:2:0:0:
433,207,142927,5,4,0:1:0:0:
236,360,143288,6,0,B|96:369|166:251|-32:266,1,256,6|8,3:2|3:1,0:0:0:0:
46,359,143831,1,2,0:0:0:0:
183,244,144011,1,2,3:2:0:0:
72,176,144192,2,0,P|55:94|45:58,1,103.999995239258,2|8,0:0|3:2,0:0:0:0:
286,2,144553,6,0,P|273:52|263:103,1,103.999995239258,2|0,0:0|3:2,0:0:0:0:
295,222,144915,1,2,0:0:0:0:
295,222,145005,1,2,0:0:0:0:
295,222,145096,1,10,3:2:0:0:
175,140,145276,1,2,0:0:0:0:
356,108,145457,5,2,3:1:0:0:
453,140,145638,1,2,0:1:0:0:
453,140,145728,1,0,0:0:0:0:
453,140,145818,1,10,3:1:0:0:
507,64,145999,1,2,0:1:0:0:
456,219,146180,6,0,P|443:281|438:345,1,103.999995239258,2|0,3:1|0:0,0:0:0:0:
447,334,146451,1,0,0:0:0:0:
455,347,146541,1,10,3:1:0:0:
359,274,146722,1,2,0:1:0:0:
238,359,146903,5,2,3:1:0:0:
226,283,147084,1,2,0:0:0:0:
349,109,147264,1,10,3:1:0:0:
337,185,147445,1,2,0:1:0:0:
231,43,147626,6,0,B|182:24|182:24|117:61,1,103.999995239258,2|0,3:1|0:0,0:0:0:0:
124,58,147897,1,0,0:0:0:0:
111,66,147987,2,0,L|-12:46,1,103.999995239258,10|2,3:1|0:1,0:0:0:0:
190,117,148349,5,2,3:1:0:0:
64,233,148529,1,2,0:1:0:0:
62,217,148620,1,2,0:1:0:0:
60,201,148710,2,0,L|70:138,1,51.999997619629,10|2,3:1|0:1,0:0:0:0:
190,117,148891,2,0,L|198:168,1,51.999997619629,2|2,0:1|0:1,0:0:0:0:
203,289,149072,6,0,B|115:310|115:310|111:342|111:342|12:369,1,207.999990478516,6|8,3:2|3:1,0:0:0:0:
60,201,149614,1,2,0:0:0:0:
186,379,149794,1,2,3:2:0:0:
273,228,149975,2,0,L|398:250,1,103.999995239258,2|8,0:0|3:2,0:0:0:0:
493,54,150337,6,0,P|455:19|378:120,1,207.999990478516,2|2,0:0|0:0,0:0:0:0:
443,146,150879,1,10,3:2:0:0:
292,38,151059,1,2,0:0:0:0:
453,156,151240,2,0,P|466:223|475:273,1,103.999995239258,2|0,3:2|0:0,0:0:0:0:
273,228,151602,5,10,3:1:0:0:
348,209,151782,1,2,0:1:0:0:
231,152,151963,6,0,P|171:141|116:130,1,103.999995239258,2|0,3:1|0:0,0:0:0:0:
132,111,152234,2,0,P|80:121|29:130,1,103.999995239258,2|0,0:1|0:0,0:0:0:0:
17,144,152505,1,2,0:1:0:0:
0,276,152686,2,0,P|60:287|115:298,1,103.999995239258,2|0,3:1|0:0,0:0:0:0:
99,317,152957,2,0,P|150:306|201:297,1,103.999995239258,2|0,0:1|0:0,0:0:0:0:
214,284,153228,1,2,0:1:0:0:
95,214,153409,6,0,L|66:53,1,155.999992858887,0|0,3:2|0:0,0:0:0:0:
57,48,153770,1,8,3:2:0:0:
186,119,153951,1,0,3:2:0:0:
186,119,154041,1,0,1:0:0:0:
186,119,154132,2,0,L|262:101,3,51.999997619629,0|0|0|0,1:0|1:0|1:2|1:0,0:0:0:0:
316,89,154493,5,8,3:2:0:0:
438,351,154855,5,2,3:1:0:0:
481,241,155035,1,2,0:0:0:0:
481,241,155126,1,2,0:0:0:0:
481,241,155216,1,10,3:2:0:0:
348,370,155397,1,2,0:0:0:0:
267,264,155578,1,2,3:2:0:0:
380,163,155758,2,0,P|372:241|370:284,1,103.999995239258,2|8,0:0|3:2,0:0:0:0:
162,368,156120,6,0,P|158:316|152:264,1,103.999995239258,2|0,0:0|3:2,0:0:0:0:
84,209,156481,1,2,0:0:0:0:
240,265,156662,1,10,3:2:0:0:
73,300,156843,1,2,0:0:0:0:
190,178,157023,6,0,B|254:163|254:163|271:120|271:120|342:105,1,155.999992858887,2|2,3:2|0:0,0:0:0:0:
320,122,157385,1,8,3:2:0:0:
196,93,157565,1,2,0:0:0:0:
331,26,157746,5,2,3:2:0:0:
483,83,157927,2,0,B|508:113|508:113|486:194,1,103.999995239258,2|8,0:0|3:2,0:0:0:0:
474,253,158288,5,2,0:0:0:0:
320,122,158469,1,2,3:2:0:0:
190,178,158650,2,0,L|59:150,1,103.999995239258,2|8,0:0|3:2,0:0:0:0:
329,134,159011,6,0,L|361:348,1,207.999990478516,2|2,0:0|0:0,0:0:0:0:
440,384,159553,1,10,3:2:0:0:
474,253,159734,1,2,0:2:0:0:
259,233,159915,1,2,3:2:0:0:
329,134,160096,5,0,0:0:0:0:
329,134,160186,1,0,0:0:0:0:
329,134,160276,2,0,P|392:124|443:115,1,103.999995239258,8|0,3:2|0:1,0:0:0:0:
150,166,160638,5,6,3:2:0:0:
189,330,160818,1,2,0:0:0:0:
26,271,160999,1,10,3:1:0:0:
127,262,161180,1,2,0:0:0:0:
3,361,161361,1,2,3:2:0:0:
133,252,161541,6,0,L|235:232,1,103.999995239258,2|8,0:0|3:2,0:0:0:0:
361,20,161903,2,0,P|460:21|471:132,1,207.999990478516,2|0,0:0|0:0,0:0:0:0:
358,230,162445,1,10,3:2:0:0:
252,138,162626,1,2,0:0:0:0:
447,188,162806,6,0,P|462:281|471:333,1,103.999995239258,2|0,3:2|0:0,0:0:0:0:
488,374,163078,2,0,P|408:363|363:357,1,103.999995239258,2|0,0:0|0:0,0:0:0:0:
312,384,163349,1,0,0:0:0:0:
240,142,163529,5,14,3:2:0:0:
219,336,163710,1,14,3:2:0:0:
144,379,164252,5,14,3:2:0:0:
123,185,164433,1,14,3:2:0:0:
354,250,164975,5,14,3:2:0:0:
53,151,165246,1,14,3:2:0:0:
341,98,165517,1,14,3:2:0:0:
229,10,165698,6,0,P|217:110|207:224,1,192,14|0,3:2|0:0,0:0:0:0:
186,279,166059,2,0,P|212:308|200:279,1,120.000004577637,4|4,0:0|3:2,0:0:0:0:
255,356,177264,5,0,3:2:0:0:
257,239,177445,5,4,0:0:0:0:
257,239,177626,1,14,3:2:0:0:
255,159,177806,1,0,0:0:0:0:
143,9,177987,6,0,L|49:24,1,80,2|0,3:2|0:0,0:0:0:0:
77,101,178349,2,0,L|156:88,1,80,2|0,3:2|0:0,0:0:0:0:
143,9,178710,1,2,3:2:0:0:
143,9,178891,2,0,L|49:24,1,80,2|0,0:0|3:2,0:0:0:0:
76,100,179252,1,2,0:0:0:0:
76,100,179433,2,0,L|156:88,1,80,2|0,3:2|0:0,0:0:0:0:
141,13,179794,1,2,3:2:0:0:
141,13,179975,1,2,0:0:0:0:
141,13,180156,2,0,L|61:25,2,80,2|2|0,3:2|0:1|3:2,0:0:0:0:
381,72,180879,6,0,L|475:87,1,80,2|0,3:2|0:0,0:0:0:0:
447,164,181241,2,0,L|367:151,1,80,2|0,3:2|0:0,0:0:0:0:
381,72,181602,1,2,3:2:0:0:
381,72,181783,2,0,L|475:87,1,80,2|0,0:0|3:2,0:0:0:0:
447,163,182144,1,2,0:0:0:0:
447,163,182325,2,0,L|367:150,1,80,2|0,3:2|0:0,0:0:0:0:
383,76,182686,1,2,3:2:0:0:
383,76,182867,1,2,0:0:0:0:
383,76,183048,2,0,L|462:88,2,80,2|2|0,3:2|0:1|3:2,0:0:0:0:
133,228,183770,6,0,L|39:243,1,80,6|0,3:2|0:0,0:0:0:0:
67,320,184132,2,0,L|146:307,1,80,2|0,3:2|0:0,0:0:0:0:
133,228,184493,1,2,3:2:0:0:
133,228,184674,2,0,L|39:243,1,80,2|0,0:0|3:2,0:0:0:0:
66,319,185035,1,2,0:0:0:0:
66,319,185216,2,0,L|145:306,1,80,2|0,3:2|0:0,0:0:0:0:
131,232,185577,1,2,3:2:0:0:
131,232,185758,1,2,0:0:0:0:
131,232,185939,2,0,L|51:244,2,80,2|2|0,3:2|0:1|3:2,0:0:0:0:
370,271,186662,6,0,L|464:286,1,80,2|0,3:2|0:0,0:0:0:0:
436,363,187024,2,0,L|356:350,1,80,2|0,3:2|0:0,0:0:0:0:
370,271,187385,1,2,3:2:0:0:
370,271,187566,2,0,L|464:286,1,80,2|0,0:0|3:2,0:0:0:0:
436,362,187927,1,2,0:0:0:0:
436,362,188108,2,0,L|356:349,1,80,2|0,3:2|0:0,0:0:0:0:
372,275,188469,1,2,3:2:0:0:
372,275,188650,1,2,0:0:0:0:
372,275,188831,2,0,L|451:287,1,80,2|0,3:2|0:0,0:0:0:0:
460,200,189192,2,0,L|380:187,1,80,8|0,3:2|0:0,0:0:0:0:
256,384,189553,6,0,P|247:295|223:131,1,240.000009155274,6|10,3:2|3:1,0:0:0:0:
190,71,190096,1,0,0:0:0:0:
0,154,190276,6,0,P|26:197|76:201,1,95.9999970703126,2|0,3:2|0:0,0:0:0:0:
140,179,190638,1,10,3:2:0:0:
201,63,190818,6,0,P|264:70|322:80,1,95.9999970703126,2|0,0:0|3:2,0:0:0:0:
350,137,191180,1,2,0:0:0:0:
511,70,191361,1,10,3:2:0:0:
378,61,191541,1,2,0:0:0:0:
506,163,191722,5,2,3:1:0:0:
369,222,191903,1,2,0:1:0:0:
366,303,192084,1,10,3:1:0:0:
503,362,192265,1,2,0:1:0:0:
369,222,192445,6,0,L|262:241,1,95.9999970703126,2|0,3:1|0:0,0:0:0:0:
237,305,192716,2,0,L|142:288,1,95.9999970703126,2|0,0:1|0:0,0:0:0:0:
86,341,192987,1,2,0:1:0:0:
198,215,193168,5,2,3:1:0:0:
279,375,193349,1,2,0:1:0:0:
274,238,193529,1,10,3:1:0:0:
142,288,193710,1,2,0:1:0:0:
254,154,193891,6,0,L|240:55,1,95.9999970703126,2|2,3:1|0:0,0:0:0:0:
171,0,194162,2,0,L|157:95,1,95.9999970703126,2|0,0:0|0:0,0:0:0:0:
86,120,194433,1,2,0:1:0:0:
198,215,194614,1,2,3:1:0:0:
27,284,194794,5,2,0:1:0:0:
23,269,194885,1,2,0:1:0:0:
20,254,194975,2,0,L|31:197,1,47.9999985351563,10|2,3:1|0:1,0:0:0:0:
116,267,195156,2,0,L|125:314,1,47.9999985351563,2|2,0:1|0:1,0:0:0:0:
198,215,195337,6,0,P|254:222|276:280,1,95.9999970703126,6|2,3:2|0:1,0:0:0:0:
346,224,195608,2,0,P|380:268|355:325,1,95.9999970703126,2|2,0:1|0:1,0:0:0:0:
369,327,195879,2,0,P|403:282|378:225,1,95.9999970703126,2|2,0:1|3:1,0:0:0:0:
467,215,196150,2,0,P|460:159|402:137,1,95.9999970703126,2|2,0:1|0:1,0:0:0:0:
352,145,196421,1,10,3:1:0:0:
438,8,196602,1,2,0:1:0:0:
343,138,196782,6,0,P|287:145|265:203,1,95.9999970703126,2|2,3:1|0:1,0:0:0:0:
195,147,197053,2,0,P|161:191|186:248,1,95.9999970703126,2|2,0:1|0:1,0:0:0:0:
172,250,197324,2,0,P|138:205|163:148,1,95.9999970703126,2|2,0:1|3:1,0:0:0:0:
74,138,197595,2,0,P|81:82|139:60,1,95.9999970703126,2|2,0:1|0:1,0:0:0:0:
192,68,197867,1,8,3:2:0:0:
40,11,198047,1,2,0:1:0:0:
204,75,198228,6,0,L|273:59,3,47.9999985351563,2|2|2|2,3:2|0:2|0:2|0:2,0:0:0:0:
298,6,198590,2,0,L|367:22,3,47.9999985351563,10|2|2|2,3:2|0:2|0:2|0:2,0:0:0:0:
351,103,198951,5,2,3:2:0:0:
395,118,199041,1,2,0:2:0:0:
439,102,199131,1,2,0:2:0:0:
464,62,199222,1,2,0:2:0:0:
458,15,199312,2,0,L|447:77,1,47.9999985351563,10|2,3:2|0:2,0:0:0:0:
336,99,199493,2,0,L|347:160,1,47.9999985351563,2|2,0:2|0:2,0:0:0:0:
382,228,199674,5,2,3:1:0:0:
351,249,199764,1,2,0:1:0:0:
313,250,199854,1,2,0:1:0:0:
282,229,199945,1,2,0:1:0:0:
268,193,200035,1,10,3:1:0:0:
255,156,200126,1,2,0:1:0:0:
224,135,200217,1,2,0:1:0:0:
186,136,200307,1,2,0:1:0:0:
155,157,200397,6,2,P|163:232|64:162,1,240.000009155274,2|8,3:2|3:2,0:0:0:0:
13,353,200939,5,2,0:1:0:0:
13,353,201029,1,2,0:1:0:0:
13,353,201120,2,0,P|65:307|174:323,1,143.999995605469,6|0,3:2|0:0,0:0:0:0:
211,280,201481,2,0,P|258:310|310:329,1,95.9999970703126,10|0,3:1|0:0,0:0:0:0:
505,162,201843,2,0,P|438:122|410:146,1,95.9999970703126,2|0,3:2|0:0,0:0:0:0:
384,185,202204,1,8,3:2:0:0:
206,44,202385,5,2,0:0:0:0:
302,17,202565,2,0,P|287:85|282:119,1,95.9999970703126,2|0,3:2|0:0,0:0:0:0:
132,133,202927,2,0,P|124:85|113:38,1,95.9999970703126,10|0,3:2|0:0,0:0:0:0:
261,197,203288,2,0,P|185:208|70:243,1,191.999994140625,2|8,3:2|3:2,0:0:0:0:
507,295,204011,6,0,P|475:347|430:349,1,95.9999970703126,2|0,3:2|0:0,0:0:0:0:
432,343,204282,1,0,0:0:0:0:
420,334,204373,2,0,P|426:284|422:230,1,95.9999970703126,10|0,3:2|0:0,0:0:0:0:
493,185,204734,1,2,3:2:0:0:
334,293,204915,1,0,0:0:0:0:
334,293,205005,1,0,0:0:0:0:
334,293,205096,2,0,P|265:301|217:309,1,95.9999970703126,10|0,3:2|0:0,0:0:0:0:
179,359,205457,1,2,3:2:0:0:
293,204,205638,5,6,0:2:0:0:
293,204,205818,1,8,3:2:0:0:
256,69,205999,1,6,0:2:0:0:
256,69,206180,1,0,3:2:0:0:
122,105,206361,1,6,0:2:0:0:
122,105,206541,1,8,3:2:0:0:
158,240,206722,1,6,0:2:0:0:
256,69,206903,6,0,P|330:85|388:98,1,95.9999970703126,6|0,3:2|0:0,0:0:0:0:
507,2,207264,2,0,P|433:18|375:31,1,95.9999970703126,10|0,3:1|0:0,0:0:0:0:
421,297,207626,2,0,P|434:207|472:74,1,191.999994140625,2|8,3:2|3:2,0:0:0:0:
229,183,208168,5,2,0:0:0:0:
260,256,208349,2,0,P|340:236|376:232,1,95.9999970703126,2|0,3:2|0:0,0:0:0:0:
390,370,208710,2,0,P|310:350|274:346,1,95.9999970703126,10|0,3:2|0:0,0:0:0:0:
456,204,209072,2,0,P|436:284|432:320,1,95.9999970703126,2|0,3:2|0:0,0:0:0:0:
199,378,209433,2,0,P|190:330|177:284,1,95.9999970703126,10|0,3:2|0:0,0:0:0:0:
103,219,209794,5,6,3:2:0:0:
178,193,209975,1,0,0:0:0:0:
210,50,210156,5,10,3:2:0:0:
135,24,210337,1,0,0:0:0:0:
5,82,210517,6,0,P|55:93|110:110,1,95.9999970703126,2|0,3:2|0:0,0:0:0:0:
108,116,210788,1,0,0:0:0:0:
117,126,210879,1,10,3:2:0:0:
265,134,211059,2,0,P|331:113|326:3,1,191.999994140625,2|0,0:0|0:0,0:0:0:0:
210,50,211602,5,10,3:2:0:0:
122,138,211782,1,2,0:0:0:0:
282,210,211963,1,2,3:2:0:0:
200,184,212144,5,2,0:0:0:0:
127,365,212325,1,10,3:2:0:0:
13,214,212505,1,2,0:0:0:0:
13,214,213409,5,0,0:0:0:0:
32,207,213770,1,0,0:0:0:0:
365,368,214132,6,0,P|367:333|412:305,1,47.9999985351563,12|0,3:2|0:0,0:0:0:0:
512,254,214312,2,0,P|455:271|406:155,1,192,12|0,3:2|0:0,0:0:0:0:
222,23,216120,6,0,P|223:40|245:54,1,32,12|0,3:2|0:0,0:0:0:0:
294,5,216481,5,0,3:2:0:0:
512,63,216662,2,0,P|485:148|395:143,1,192,12|0,3:2|0:0,0:0:0:0:
285,215,217385,6,0,P|295:149|311:67,1,111.999996582031,12|0,3:2|0:0,0:0:0:0:
304,247,218108,2,0,P|294:181|278:99,1,111.999996582031,12|0,3:2|0:0,0:0:0:0:
285,136,218469,5,2,0:1:0:0:
211,177,218650,1,2,0:1:0:0:
193,176,218740,1,2,0:1:0:0:
177,167,218831,1,2,0:1:0:0:
135,94,219011,1,2,0:1:0:0:
60,116,219192,1,2,0:1:0:0:
60,116,219373,1,0,3:2:0:0:
87,335,219553,6,0,B|65:343|51:368|51:368|45:340|15:305,1,96,12|0,3:2|0:0,0:0:0:0:
78,254,219915,6,0,P|161:240|344:219,1,256,6|8,3:2|3:1,0:0:0:0:
403,274,220457,1,2,0:0:0:0:
412,8,220638,5,2,3:2:0:0:
487,36,220818,2,0,P|504:94|461:117,1,103.999995239258,2|8,0:0|3:2,0:0:0:0:
243,152,221180,2,0,P|234:88|222:37,1,103.999995239258,2|0,0:0|3:2,0:0:0:0:
293,7,221541,5,2,0:0:0:0:
157,117,221722,1,10,3:2:0:0:
338,167,221903,1,2,0:0:0:0:
338,167,221993,1,0,0:0:0:0:
338,167,222084,5,2,3:2:0:0:
254,93,222264,1,0,0:0:0:0:
157,199,222445,1,10,3:1:0:0:
81,73,222626,1,2,0:1:0:0:
5,190,222806,6,0,P|26:267|34:311,1,103.999995239258,2|0,3:1|0:0,0:0:0:0:
17,310,223078,2,0,P|77:342|114:310,1,103.999995239258,2|0,0:1|0:0,0:0:0:0:
117,304,223349,1,2,0:1:0:0:
205,384,223529,2,0,P|226:307|234:263,1,103.999995239258,2|0,3:1|0:0,0:0:0:0:
217,264,223801,2,0,P|277:232|314:264,1,103.999995239258,2|0,0:1|0:0,0:0:0:0:
317,270,224072,1,2,0:1:0:0:
157,205,224252,6,0,P|198:272|330:258,1,207.999990478516,2|8,3:2|3:2,0:0:0:0:
493,238,224794,1,0,3:2:0:0:
488,222,224885,1,0,0:0:0:0:
483,207,224975,1,0,0:0:0:0:
478,192,225065,1,0,0:0:0:0:
473,176,225156,1,0,3:2:0:0:
255,195,225337,5,6,0:0:0:0:
512,10,225698,6,0,B|347:12|467:117|286:129,1,256,6|8,3:2|3:1,0:0:0:0:
222,54,226240,1,2,0:0:0:0:
61,206,226421,5,2,3:2:0:0:
15,142,226602,2,0,P|26:79|32:13,1,103.999995239258,2|8,0:0|3:2,0:0:0:0:
160,172,226963,6,0,B|287:182|212:267|360:278,1,207.999990478516,2|2,0:0|0:0,0:0:0:0:
346,271,227415,1,2,0:0:0:0:
356,257,227505,1,10,3:2:0:0:
175,266,227686,1,2,0:0:0:0:
175,266,227776,1,0,0:0:0:0:
175,266,227867,5,2,3:1:0:0:
329,177,228047,1,2,0:1:0:0:
113,113,228228,1,10,3:1:0:0:
237,181,228409,1,2,0:1:0:0:
383,95,228590,6,0,P|464:82|514:76,1,103.999995239258,2|0,3:1|0:0,0:0:0:0:
510,2,228951,1,10,3:1:0:0:
444,171,229132,1,2,0:1:0:0:
309,49,229312,5,2,3:1:0:0:
458,203,229493,1,2,0:0:0:0:
458,203,229584,1,0,0:0:0:0:
458,203,229674,1,10,3:1:0:0:
485,79,229855,1,2,0:1:0:0:
331,196,230035,6,0,P|321:264|312:307,1,103.999995239258,2|0,3:1|0:0,0:0:0:0:
311,314,230306,1,0,0:0:0:0:
306,328,230397,1,10,3:1:0:0:
395,375,230578,1,0,0:0:0:0:
242,228,230758,1,2,3:1:0:0:
134,384,230939,5,2,0:1:0:0:
124,373,231029,1,2,0:1:0:0:
116,359,231120,2,0,L|196:344,1,51.999997619629,10|2,3:1|0:1,0:0:0:0:
231,237,231300,2,0,L|151:222,1,51.999997619629,2|2,0:1|0:1,0:0:0:0:
50,57,231481,6,0,P|63:134|81:282,1,207.999990478516,4|8,3:2|3:1,0:0:0:0:
30,323,232023,1,2,0:0:0:0:
148,142,232204,1,2,3:2:0:0:
239,244,232385,2,0,P|296:231|354:222,1,103.999995239258,2|8,0:0|3:2,0:0:0:0:
512,110,232746,6,0,P|495:43|359:47,1,207.999990478516,2|2,0:0|0:0,0:0:0:0:
367,46,233198,1,2,0:0:0:0:
364,61,233288,1,10,3:2:0:0:
435,180,233469,1,2,0:0:0:0:
251,143,233650,2,0,P|260:77|266:28,1,103.999995239258,2|0,3:2|0:0,0:0:0:0:
364,61,234011,1,10,3:1:0:0:
166,102,234192,1,2,0:1:0:0:
344,206,234373,6,0,P|352:258|362:320,1,103.999995239258,2|0,3:1|0:0,0:0:0:0:
360,331,234644,2,0,P|308:339|257:347,1,103.999995239258,2|0,0:1|0:0,0:0:0:0:
232,373,234915,1,2,0:1:0:0:
69,359,235096,2,0,P|61:307|51:245,1,103.999995239258,2|0,3:1|0:0,0:0:0:0:
53,234,235367,2,0,P|104:225|155:217,1,103.999995239258,2|0,0:1|0:0,0:0:0:0:
181,192,235638,1,2,0:1:0:0:
180,301,235818,6,0,L|204:70,1,207.999990478516,2|8,3:2|3:2,0:0:0:0:
146,32,236361,1,0,3:2:0:0:
283,141,236541,1,0,1:0:0:0:
298,139,236632,1,0,1:0:0:0:
313,137,236722,1,0,1:2:0:0:
328,135,236812,1,0,1:0:0:0:
341,133,236903,2,0,L|436:158,1,90.0000034332277,8|0,3:2|0:0,0:0:0:0:
488,107,237264,5,2,3:1:0:0:
359,224,237445,1,2,0:0:0:0:
359,224,237535,1,2,0:0:0:0:
359,224,237626,1,10,3:2:0:0:
307,58,237806,1,2,0:0:0:0:
438,174,237987,1,2,3:2:0:0:
295,270,238168,2,0,P|287:324|279:388,1,103.999995239258,2|8,0:0|3:2,0:0:0:0:
443,189,238529,6,0,P|336:173|218:156,1,207.999990478516,2|2,0:0|0:0,0:0:0:0:
185,104,239072,1,10,3:2:0:0:
33,191,239252,1,2,0:0:0:0:
232,38,239433,6,0,P|179:22|123:55,1,103.999995239258,2|0,3:2|0:0,0:0:0:0:
97,108,239704,2,0,P|115:173|130:233,1,103.999995239258,2|0,0:0|0:0,0:0:0:0:
91,276,239975,1,2,0:0:0:0:
237,376,240156,5,2,3:2:0:0:
291,319,240337,2,0,P|352:309|412:299,1,103.999995239258,2|8,0:0|3:2,0:0:0:0:
474,293,240698,5,2,0:0:0:0:
273,153,240879,1,2,3:2:0:0:
327,210,241060,2,0,P|388:220|448:230,1,103.999995239258,2|8,0:0|3:2,0:0:0:0:
236,241,241421,6,0,B|102:261|220:344|43:364,1,207.999990478516,2|2,0:0|0:0,0:0:0:0:
69,346,241873,1,0,0:0:0:0:
58,334,241963,1,10,3:2:0:0:
219,364,242144,1,2,0:1:0:0:
88,248,242325,2,0,P|74:194|54:130,1,103.999995239258,2|2,3:2|0:1,0:0:0:0:
300,41,242686,2,0,P|284:90|271:141,1,103.999995239258,10|2,3:1|0:1,0:0:0:0:
409,141,243047,5,6,3:2:0:0:
167,107,243228,1,2,0:0:0:0:
361,209,243409,1,10,3:1:0:0:
207,232,243590,1,2,0:0:0:0:
281,161,243770,1,2,3:2:0:0:
293,280,243951,2,0,P|306:355|310:393,1,103.999995239258,2|8,0:0|3:2,0:0:0:0:
499,291,244312,6,0,P|476:216|342:228,1,207.999990478516,2|0,0:0|0:0,0:0:0:0:
293,280,244855,1,10,3:2:0:0:
385,111,245035,1,2,0:0:0:0:
253,36,245216,2,0,P|190:19|137:7,1,103.999995239258,2|0,3:2|0:0,0:0:0:0:
69,10,245487,2,0,P|80:73|94:190,1,155.999992858887,2|0,0:0|0:0,0:0:0:0:
280,269,245939,5,8,3:2:0:0:
34,221,246120,1,8,3:2:0:0:
0,296,246662,5,8,3:2:0:0:
291,191,246843,1,8,3:2:0:0:
199,379,247385,5,8,3:2:0:0:
196,96,247656,1,8,3:2:0:0:
410,222,247927,1,8,3:2:0:0:
512,126,248108,6,0,B|465:117|465:117|426:69|426:69|365:59,1,155.999992858887,8|0,3:2|0:0,0:0:0:0:
329,6,248469,2,0,B|298:12|298:12|336:13,1,60.0000022888184,4|0,0:1|0:0,0:0:0:0:
512,44,248831,5,6,3:2:0:0:
383,147,249011,1,2,0:0:0:0:
506,258,249192,2,0,P|490:322|483:363,1,80,10|0,3:1|0:0,0:0:0:0:
309,199,249553,2,0,P|300:159|290:121,1,80,2|0,3:2|0:0,0:0:0:0:
219,72,249915,1,10,3:2:0:0:
156,209,250096,6,0,B|70:217|115:287|3:285,1,160,2|2,0:0|0:0,0:0:0:0:
25,196,250638,1,10,3:2:0:0:
25,196,250818,1,2,0:0:0:0:
161,303,250999,5,2,3:1:0:0:
215,150,251180,1,2,0:1:0:0:
317,267,251361,1,10,3:1:0:0:
233,238,251541,1,2,0:1:0:0:
327,356,251722,5,2,3:2:0:0:
406,264,251903,1,2,0:0:0:0:
406,264,251993,1,0,0:0:0:0:
406,264,252084,2,0,P|391:193|384:162,1,80,10|0,3:2|0:0,0:0:0:0:
231,71,252445,2,0,P|222:110|214:149,1,80,2|0,3:2|0:0,0:0:0:0:
143,183,252806,1,10,3:2:0:0:
350,76,252987,6,0,P|436:57|525:44,1,160,2|2,0:0|0:0,0:0:0:0:
506,58,253439,1,2,0:0:0:0:
504,69,253529,1,10,3:2:0:0:
330,0,253710,1,2,0:0:0:0:
318,151,253891,5,6,3:2:0:0:
165,197,254072,5,6,0:2:0:0:
334,285,254252,5,14,3:2:0:0:
181,331,254433,5,6,0:2:0:0:
251,245,254614,5,6,3:2:0:0:
251,245,254794,1,2,0:0:0:0:
173,320,254975,2,0,P|106:309|67:304,1,80,10|0,3:1|0:0,0:0:0:0:
0,60,255337,2,0,P|82:74|101:149,1,160,2|10,3:2|3:2,0:0:0:0:
78,213,255879,6,0,P|38:218|0:225,1,80,2|0,0:0|3:2,0:0:0:0:
197,65,256240,1,2,0:0:0:0:
103,139,256421,1,10,3:2:0:0:
268,117,256602,2,0,P|307:122|346:129,1,80,2|0,0:0|3:2,0:0:0:0:
422,99,256963,5,2,0:0:0:0:
292,201,257144,1,10,3:2:0:0:
276,34,257325,1,2,0:0:0:0:
431,192,257505,5,14,3:2:0:0:
215,231,257686,1,14,3:2:0:0:
158,291,258228,5,14,3:2:0:0:
374,330,258409,1,14,3:2:0:0:
440,381,258951,5,14,3:2:0:0:
215,231,259222,1,14,3:2:0:0:
374,120,259493,1,14,3:2:0:0:
72,381,259674,5,14,3:2:0:0:
297,231,259945,1,14,3:2:0:0:
138,120,260216,1,14,3:2:0:0:
362,276,260397,5,14,3:2:0:0:
150,276,260668,1,14,3:2:0:0:
256,32,260939,1,14,3:2:0:0:
256,128,261120,6,0,L|256:224,1,90.0000034332277,8|0,3:2|0:0,0:0:0:0:
256,224,261481,1,4,0:1:0:0:
