osu file format v14

[General]
AudioFilename: audio.mp3
AudioLeadIn: 0
PreviewTime: 48499
Countdown: 0
SampleSet: Soft
StackLeniency: 0.4
Mode: 0
LetterboxInBreaks: 0
WidescreenStoryboard: 1

[Editor]
Bookmarks: 1602,13168,24373,24734,26722,36300,49312,60879,72445,84011,95578,107144,118710,131722,143288,154855,166421,177987,189553,201120,214132,225698,237264,248831,261843
DistanceSpacing: 0.3
BeatDivisor: 4
GridSize: 32
TimelineZoom: 3.159999

[Metadata]
Title:Yoi no Yo, Yoi!
TitleUnicode:宵の余、良い!
Artist:Nakiri Ayame
ArtistUnicode:百鬼あやめ
Creator:Mir
Version:Hard
Source:
Tags:vtuber virtual youtuber hololive ホロライブ japanese pop jpop j-pop oriental jdm umbra boppin
BeatmapID:3257036
BeatmapSetID:1593663

[Difficulty]
HPDrainRate:4
CircleSize:4
OverallDifficulty:6
ApproachRate:7
SliderMultiplier:1.6
SliderTickRate:1

[Events]
//Background and Video events
0,0,"fixed.jpg",0,0
//Break Periods
2,84211,91786
2,166620,177087
//Storyboard Layer 0 (Background)
//Storyboard Layer 1 (Fail)
//Storyboard Layer 2 (Pass)
//Storyboard Layer 3 (Foreground)
//Storyboard Layer 4 (Overlay)
//Storyboard Sound Samples

[TimingPoints]
-4181,361.44578313253,4,2,1,60,1,0
879,-100,4,2,3,60,0,0
924,-100,4,2,3,5,0,0
969,-100,4,2,3,60,0,0
1105,-100,4,2,3,5,0,0
1150,-100,4,2,3,60,0,0
1285,-100,4,2,3,5,0,0
1330,-100,4,2,3,60,0,0
1466,-100,4,2,3,5,0,0
1511,-100,4,2,3,60,0,0
1602,-100,4,2,1,85,0,0
1963,-100,4,2,3,85,0,0
2325,-100,4,2,1,85,0,0
6662,-100,4,2,3,85,0,0
6707,-100,4,2,3,5,0,0
6752,-100,4,2,3,60,0,0
6888,-100,4,2,3,5,0,0
6933,-100,4,2,3,60,0,0
7068,-100,4,2,3,5,0,0
7113,-100,4,2,3,60,0,0
7249,-100,4,2,3,5,0,0
7294,-100,4,2,3,60,0,0
7385,-100,4,2,1,85,0,0
7746,-100,4,2,3,85,0,0
8108,-100,4,2,1,85,0,0
12806,-100,4,2,3,85,0,0
13168,-100,4,2,1,60,0,0
23108,-100,4,2,3,85,0,0
24734,-100,4,2,1,75,0,0
36300,-125,4,2,1,70,0,0
38469,-125,4,2,1,85,0,0
39192,-100,4,2,1,85,0,0
42084,-125,4,2,1,70,0,0
44252,-125,4,2,1,85,0,0
44975,-100,4,2,1,85,0,0
48590,-100,4,2,1,60,0,0
49312,-83.3333333333333,4,2,1,85,0,1
49674,-83.3333333333333,4,2,3,85,0,1
50035,-83.3333333333333,4,2,1,85,0,1
55457,-83.3333333333333,4,2,3,85,0,1
55818,-83.3333333333333,4,2,1,85,0,1
60517,-83.3333333333333,4,2,3,85,0,0
60879,-83.3333333333333,4,2,1,85,0,1
61240,-83.3333333333333,4,2,3,85,0,1
61421,-83.3333333333333,4,2,1,85,0,1
67023,-83.3333333333333,4,2,3,85,0,1
67385,-83.3333333333333,4,2,1,85,0,1
72084,-83.3333333333333,4,2,1,85,0,0
72445,-83.3333333333333,4,2,3,85,0,1
72806,-83.3333333333333,4,2,1,85,0,1
78590,-83.3333333333333,4,2,3,85,0,1
78951,-83.3333333333333,4,2,1,85,0,1
83650,-83.3333333333333,4,2,3,85,0,1
84011,-90.9090909090909,4,2,1,85,0,0
84373,-90.9090909090909,4,2,3,85,0,0
84734,-90.9090909090909,4,2,1,85,0,0
89072,-90.9090909090909,4,2,3,85,0,0
89117,-90.9090909090909,4,2,3,5,0,0
89162,-90.9090909090909,4,2,3,60,0,0
89297,-90.9090909090909,4,2,3,5,0,0
89342,-90.9090909090909,4,2,3,60,0,0
89478,-90.9090909090909,4,2,3,5,0,0
89523,-90.9090909090909,4,2,3,60,0,0
89659,-90.9090909090909,4,2,3,5,0,0
89704,-90.9090909090909,4,2,3,60,0,0
89794,-90.9090909090909,4,2,1,85,0,0
90156,-90.9090909090909,4,2,3,85,0,0
90517,-90.9090909090909,4,2,1,85,0,0
95216,-90.9090909090909,4,2,3,60,0,0
95578,-142.857142857143,4,2,2,60,0,0
105517,-142.857142857143,4,2,3,75,0,0
107144,-100,4,2,1,85,0,0
118710,-125,4,2,1,70,0,0
120879,-125,4,2,1,85,0,0
121601,-100,4,2,1,85,0,0
124493,-125,4,2,1,70,0,0
126662,-125,4,2,1,85,0,0
127384,-100,4,2,1,85,0,0
130276,-100,4,2,1,70,0,0
131361,-100,4,2,3,85,0,0
131722,-83.3333333333333,4,2,1,85,0,1
132084,-83.3333333333333,4,2,3,85,0,1
132445,-83.3333333333333,4,2,1,85,0,1
137867,-83.3333333333333,4,2,3,85,0,1
138228,-83.3333333333333,4,2,1,85,0,1
142927,-83.3333333333333,4,2,3,85,0,0
143288,-83.3333333333333,4,2,1,85,0,1
143650,-83.3333333333333,4,2,3,85,0,1
144011,-83.3333333333333,4,2,1,85,0,1
149433,-83.3333333333333,4,2,3,85,0,1
149794,-83.3333333333333,4,2,1,85,0,1
154493,-83.3333333333333,4,2,1,85,0,0
154855,-83.3333333333333,4,2,3,85,0,1
155216,-83.3333333333333,4,2,1,85,0,1
160999,-83.3333333333333,4,2,3,85,0,1
161361,-83.3333333333333,4,2,1,85,0,1
166059,-83.3333333333333,4,2,3,85,0,0
166421,-83.3333333333333,4,2,1,70,0,0
177445,-83.3333333333333,4,2,3,80,0,0
177987,-111.111111111111,4,2,1,85,0,0
189553,-100,4,2,1,85,0,0
189915,-100,4,2,3,85,0,0
190276,-100,4,2,1,85,0,0
201481,-100,4,2,3,85,0,0
201843,-100,4,2,1,85,0,0
205638,-100,4,2,3,85,0,0
206903,-100,4,2,1,85,0,0
207264,-100,4,2,3,85,0,0
207626,-100,4,2,1,85,0,0
214132,-100,4,2,3,70,0,0
214855,-100,4,2,3,30,0,0
216120,-100,4,2,1,70,0,0
217204,-100,4,2,1,30,0,0
217385,-100,4,2,3,70,0,0
218469,-100,4,2,1,60,0,0
219553,-100,4,2,3,70,0,0
219915,-83.3333333333333,4,2,1,85,0,1
220276,-83.3333333333333,4,2,3,85,0,1
220638,-83.3333333333333,4,2,1,85,0,1
225337,-83.3333333333333,4,2,3,85,0,0
225698,-83.3333333333333,4,2,1,85,0,1
226059,-83.3333333333333,4,2,3,85,0,1
226421,-83.3333333333333,4,2,1,85,0,1
231843,-83.3333333333333,4,2,3,85,0,1
232204,-83.3333333333333,4,2,1,85,0,1
236903,-83.3333333333333,4,2,1,85,0,0
237264,-83.3333333333333,4,2,3,85,0,1
237626,-83.3333333333333,4,2,1,85,0,1
243409,-83.3333333333333,4,2,3,85,0,1
243770,-83.3333333333333,4,2,1,85,0,1
248469,-83.3333333333333,4,2,3,85,0,0
248831,-100,4,2,1,85,0,0
249192,-100,4,2,3,85,0,0
249553,-100,4,2,1,85,0,0
253891,-100,4,2,3,85,0,0
253936,-100,4,2,3,5,0,0
253981,-100,4,2,3,60,0,0
254117,-100,4,2,3,5,0,0
254162,-100,4,2,3,60,0,0
254297,-100,4,2,3,5,0,0
254342,-100,4,2,3,60,0,0
254478,-100,4,2,3,5,0,0
254523,-100,4,2,3,60,0,0
254614,-100,4,2,1,85,0,0
254975,-100,4,2,3,85,0,0
255337,-100,4,2,1,85,0,0
261391,-100,4,2,1,5,0,0
261481,-100,4,2,3,85,0,0
261662,-100,4,2,3,5,0,0

[Colours]
Combo1 : 241,199,152
Combo2 : 247,181,249
Combo3 : 233,101,193
Combo4 : 239,157,97

[HitObjects]
208,371,156,6,0,L|198:320,3,40
221,314,517,2,0,L|231:263,3,40
171,225,879,5,6,0:2:0:0:
171,225,1059,1,6,0:2:0:0:
171,225,1240,1,6,0:2:0:0:
171,225,1421,1,6,0:2:0:0:
96,266,1602,6,0,P|45:252|2:244,1,80,6|2,3:2|0:0,0:0:0:0:
5,159,1963,2,0,P|44:167|82:178,1,80,10|0,3:1|0:0,0:0:0:0:
171,225,2325,2,0,P|163:150|162:53,1,160,2|10,3:2|3:2,0:0:0:0:
227,20,2867,2,0,P|265:8|304:0,1,80,2|0,0:0|3:2,0:0:0:0:
385,37,3228,5,2,0:0:0:0:
349,108,3409,1,10,3:2:0:0:
419,158,3590,1,2,0:0:0:0:
419,158,3680,1,0,0:0:0:0:
419,158,3770,2,0,P|465:165|509:176,1,80,2|2,3:1|0:1,0:0:0:0:
509,250,4132,1,10,3:1:0:0:
435,270,4312,1,2,0:1:0:0:
372,220,4493,6,0,P|350:266|364:308,1,80,2|2,3:2|0:0,0:0:0:0:
492,322,4855,2,0,P|514:276|500:234,1,80,10|0,3:2|0:0,0:0:0:0:
435,270,5216,2,0,B|336:286|414:347|282:367,1,160,2|10,3:2|3:2,0:0:0:0:
242,330,5758,2,0,P|231:287|217:238,1,80,2|0,0:0|3:2,0:0:0:0:
252,181,6120,2,0,P|277:190|309:196,2,40,2|0|10,0:0|0:0|3:2,0:0:0:0:
201,125,6481,1,2,0:0:0:0:
137,173,6662,5,6,3:2:0:0:
137,173,6843,1,6,0:2:0:0:
137,173,7023,1,14,3:2:0:0:
137,173,7204,1,6,0:2:0:0:
59,119,7385,6,0,P|51:69|42:23,1,80,6|2,3:2|0:0,0:0:0:0:
120,0,7746,2,0,P|127:39|133:78,1,80,10|0,3:1|0:0,0:0:0:0:
137,173,8108,2,0,P|86:201|58:299,1,160,2|10,3:2|3:2,0:0:0:0:
147,264,8650,2,0,P|162:340|227:384,1,160,2|2,0:0|0:0,0:0:0:0:
303,355,9192,1,10,3:2:0:0:
242,305,9373,6,0,P|308:294|301:207,1,160,2|2,0:0|0:0,0:0:0:0:
238,181,9915,1,10,3:2:0:0:
273,112,10096,1,2,0:0:0:0:
222,47,10276,5,14,3:2:0:0:
222,47,10457,1,14,3:2:0:0:
238,181,10999,5,14,3:2:0:0:
238,181,11180,1,14,3:2:0:0:
347,81,11722,5,14,3:2:0:0:
486,114,11993,5,14,3:2:0:0:
394,221,12264,5,14,3:2:0:0:
394,221,12445,2,0,P|404:282|496:268,1,160,14|4,3:2|0:2,0:0:0:0:
487,280,13168,6,0,P|449:327|441:360,1,80,6|0,3:2|0:0,0:0:0:0:
371,384,13529,2,0,P|355:347|327:319,1,80,2|0,3:2|0:0,0:0:0:0:
383,250,13891,2,0,P|420:215|359:142,1,160,2|0,3:2|3:2,0:0:0:0:
309,205,14433,2,0,B|276:217|222:205|255:169|198:149|132:176,1,160,2|0,0:0|0:0,0:0:0:0:
109,225,14975,1,2,3:2:0:0:
109,225,15156,1,2,0:0:0:0:
36,181,15337,2,0,P|44:131|53:46,2,120,2|2|0,3:2|0:0|0:0,0:0:0:0:
39,263,16059,6,0,P|30:308|21:352,1,80,2|0,3:2|0:0,0:0:0:0:
98,384,16421,2,0,P|105:344|113:305,1,80,2|0,3:2|0:0,0:0:0:0:
190,353,16782,2,0,P|244:361|269:261,1,160,2|0,3:2|3:2,0:0:0:0:
218,221,17325,2,0,P|164:229|139:129,1,160,2|0,0:0|0:0,0:0:0:0:
191,99,17867,2,0,P|200:37|200:-7,2,80,2|2|2,3:2|0:0|3:2,0:0:0:0:
362,139,18499,5,0,0:0:0:0:
362,139,18590,2,0,B|435:141|403:116|498:116,1,120,2|0,3:1|0:0,0:0:0:0:
486,106,18951,6,0,P|490:55|498:7,1,80,2|0,3:2|0:0,0:0:0:0:
423,0,19312,2,0,P|417:39|414:79,1,80,2|0,3:2|0:0,0:0:0:0:
362,139,19674,2,0,P|307:160|258:64,1,160,2|0,3:2|3:2,0:0:0:0:
205,23,20216,2,0,P|150:2|101:98,1,160,2|0,0:0|0:0,0:0:0:0:
151,125,20758,1,2,3:2:0:0:
151,125,20939,1,2,0:0:0:0:
117,194,21120,2,0,P|61:180|-10:166,2,120,2|2|0,3:2|0:0|0:0,0:0:0:0:
265,378,23108,5,14,3:2:0:0:
269,353,23469,1,14,3:2:0:0:
273,328,23831,1,14,3:2:0:0:
277,303,24192,1,14,3:2:0:0:
229,243,24373,2,0,B|205:234|183:216|183:216|205:257|210:302,1,120,6|0,0:0|0:0,0:0:0:0:
213,286,24734,6,0,P|159:278|118:271,1,80,6|0,3:2|0:0,0:0:0:0:
121,282,25005,1,0,0:0:0:0:
108,288,25096,2,0,L|94:191,1,80,10|0,3:2|0:0,0:0:0:0:
29,166,25457,2,0,L|43:69,1,80,2|0,3:2|0:0,0:0:0:0:
44,67,25728,1,2,0:0:0:0:
48,48,25818,1,8,3:2:0:0:
128,118,25999,6,0,B|192:103|192:103|204:75|204:75|277:58,1,160,2|2,0:0|0:0,0:0:0:0:
280,74,26451,1,0,0:0:0:0:
294,88,26541,1,10,3:2:0:0:
366,28,26722,1,2,0:0:0:0:
451,81,26903,2,0,P|469:21|481:-9,1,80,2|0,3:2|0:0,0:0:0:0:
373,117,27264,2,0,P|386:154|397:193,1,80,10|2,3:1|0:1,0:0:0:0:
512,260,27626,6,0,B|469:247|426:274|453:298|421:325|374:315,1,160,2|10,3:2|3:2,0:0:0:0:
302,370,28168,1,0,0:0:0:0:
302,370,28258,1,0,0:0:0:0:
302,370,28349,2,0,P|293:324|281:279,1,80,2|0,3:2|0:0,0:0:0:0:
204,279,28710,2,0,P|213:233|225:188,1,80,8|2,3:2|0:0,0:0:0:0:
289,128,29072,6,0,P|221:114|121:94,1,160,0|10,3:2|3:2,0:0:0:0:
80,35,29614,1,2,0:0:0:0:
80,35,29794,1,2,3:2:0:0:
32,107,29975,5,2,0:1:0:0:
89,167,30156,1,10,3:1:0:0:
30,220,30337,1,2,0:1:0:0:
79,285,30517,6,0,P|132:302|206:393,1,160,2|10,3:2|3:2,0:0:0:0:
293,384,31059,1,0,0:0:0:0:
293,384,31150,1,0,0:0:0:0:
293,384,31240,2,0,P|308:337|350:304,1,80,2|0,3:2|0:0,0:0:0:0:
242,288,31602,1,8,3:2:0:0:
344,307,31782,6,0,B|391:306|429:330|394:351|435:380|479:383,1,160,2|2,0:0|0:0,0:0:0:0:
493,301,32325,1,10,3:2:0:0:
429,240,32505,1,2,0:0:0:0:
429,240,32596,1,0,0:0:0:0:
429,240,32686,2,0,P|435:198|447:149,1,80,2|0,3:2|0:0,0:0:0:0:
328,142,33047,2,0,P|336:181|342:220,1,80,10|0,3:2|0:0,0:0:0:0:
389,84,33409,5,6,3:2:0:0:
259,200,33770,1,10,3:2:0:0:
91,112,34132,1,6,3:2:0:0:
240,0,34493,2,0,P|250:45|193:95,1,120,10|0,3:2|0:0,0:0:0:0:
186,85,34855,5,6,3:2:0:0:
170,160,35035,1,2,0:0:0:0:
154,235,35216,1,10,3:2:0:0:
138,310,35397,1,2,0:0:0:0:
79,258,35578,2,0,L|-9:239,2,80,2|8|8,3:2|3:0|3:2,0:0:0:0:
257,382,36300,6,0,P|313:375|341:287,1,128,6|0,3:2|0:0,0:0:0:0:
291,263,36843,1,0,3:2:0:0:
368,147,37204,1,0,3:2:0:0:
368,147,37385,2,0,P|410:154|451:160,1,64,8|0,0:2|0:0,0:0:0:0:
480,90,37746,2,0,P|493:41|515:-10,2,96,0|0|0,3:2|3:2|3:2,0:0:0:0:
402,71,38469,6,0,P|397:27|387:-7,1,64,2|2,0:1|0:1,0:0:0:0:
315,34,38831,2,0,P|317:61|323:89,3,32,10|2|2|2,0:1|0:1|0:1|0:1,0:0:0:0:
312,78,39192,6,0,L|208:63,1,80,6|0,3:2|0:0,0:0:0:0:
151,12,39553,2,0,L|71:23,1,80,10|0,0:2|0:0,0:0:0:0:
153,103,39915,2,0,P|139:163|119:271,1,160,2|8,0:0|0:2,0:0:0:0:
153,333,40457,1,2,3:2:0:0:
85,376,40638,6,0,P|46:363|-2:354,1,80,2|0,3:2|0:0,0:0:0:0:
165,335,40999,2,0,P|204:322|252:313,1,80,10|0,0:2|0:0,0:0:0:0:
110,262,41361,2,0,P|77:251|37:243,2,40,2|0|0,0:0|0:0|3:2,0:0:0:0:
168,194,41722,2,0,P|207:181|255:172,1,80,10|2,0:1|0:1,0:0:0:0:
311,112,42084,6,0,P|376:104|424:165,1,128,6|0,3:2|0:0,0:0:0:0:
419,220,42626,1,0,3:2:0:0:
438,359,42987,1,0,3:2:0:0:
438,359,43168,2,0,L|506:345,1,64,8|0,0:2|0:0,0:0:0:0:
496,258,43529,2,0,L|515:149,2,96,0|0|0,3:2|3:2|3:2,0:0:0:0:
427,295,44252,6,0,L|438:359,1,64,2|2,0:1|3:1,0:0:0:0:
358,359,44614,2,0,L|349:309,3,32,10|2|2|2,0:1|0:1|0:1|0:1,0:0:0:0:
348,305,44975,6,0,L|250:287,1,80,6|0,3:2|0:0,0:0:0:0:
165,229,45337,2,0,L|243:214,1,80,10|0,3:2|0:0,0:0:0:0:
329,219,45698,2,0,L|314:140,1,80,2|0,3:2|0:0,0:0:0:0:
236,131,46059,1,10,3:2:0:0:
236,131,46240,6,0,B|168:140|168:140|150:123|150:123|54:138,1,160,2|2,0:0|0:0,0:0:0:0:
44,202,46782,1,10,3:2:0:0:
44,202,46963,1,2,0:0:0:0:
124,212,47144,2,0,L|118:307,1,80,2|0,3:2|0:0,0:0:0:0:
111,369,47505,1,8,3:2:0:0:
111,369,47686,1,0,0:0:0:0:
476,363,48590,5,2,0:0:0:0:
476,363,48951,1,2,0:0:0:0:
283,384,49312,6,0,L|308:188,1,191.999994140625,6|10,3:2|3:1,0:0:0:0:
373,154,49855,1,2,0:0:0:0:
323,95,50035,1,2,3:2:0:0:
394,60,50216,2,0,L|504:38,1,95.9999970703126,2|8,0:0|3:2,0:0:0:0:
323,95,50578,6,0,P|260:18|160:8,1,191.999994140625,2|2,0:0|0:0,0:0:0:0:
158,18,51029,1,2,0:0:0:0:
141,32,51120,1,10,3:2:0:0:
185,110,51300,1,2,0:0:0:0:
129,177,51481,6,0,P|67:157|32:147,1,95.9999970703126,2|2,3:1|0:1,0:0:0:0:
15,230,51843,2,0,P|63:243|111:259,1,95.9999970703126,10|2,3:1|0:1,0:0:0:0:
202,313,52204,6,0,P|265:289|261:216,1,143.999995605469,2|0,3:1|0:0,0:0:0:0:
253,218,52565,2,0,L|275:114,1,95.9999970703126,10|2,3:1|0:1,0:0:0:0:
309,0,52927,2,0,P|372:24|368:97,1,143.999995605469,2|0,3:1|0:0,0:0:0:0:
360,95,53288,2,0,L|382:199,1,95.9999970703126,10|2,3:1|0:1,0:0:0:0:
494,217,53650,5,2,3:1:0:0:
424,248,53831,1,0,0:0:0:0:
396,322,54011,1,10,3:2:0:0:
323,353,54192,1,0,0:0:0:0:
256,313,54373,1,2,3:1:0:0:
190,358,54553,1,2,0:1:0:0:
190,358,54644,1,2,0:1:0:0:
190,358,54734,2,0,L|127:341,3,47.9999985351563,10|2|2|2,3:1|0:1|0:1|0:1,0:0:0:0:
127,364,55096,6,0,L|96:169,1,191.999994140625,6|10,3:2|3:1,0:0:0:0:
88,99,55638,1,2,0:0:0:0:
160,126,55818,1,2,3:2:0:0:
183,197,55999,2,0,P|244:206|303:222,1,95.9999970703126,2|8,0:0|3:2,0:0:0:0:
268,305,56361,6,0,B|325:313|363:290|337:256|382:227|453:239,1,191.999994140625,2|2,0:0|0:0,0:0:0:0:
455,218,56812,1,2,0:0:0:0:
468,201,56903,2,0,P|459:146|455:105,1,95.9999970703126,10|2,3:2|0:0,0:0:0:0:
472,87,57174,1,0,0:0:0:0:
489,69,57264,1,2,3:2:0:0:
429,18,57445,1,0,0:0:0:0:
364,61,57626,2,0,L|258:33,1,95.9999970703126,10|2,3:1|0:1,0:0:0:0:
205,138,57987,6,0,P|179:46|146:-32,2,143.999995605469,2|2|2,3:1|0:1|0:1,0:0:0:0:
298,134,58710,2,0,P|266:211|244:293,2,143.999995605469,2|2|2,3:1|0:1|0:1,0:0:0:0:
187,217,59433,2,0,P|121:197|-9:178,1,191.999994140625,2|8,3:2|3:2,0:0:0:0:
0,257,59975,1,0,3:2:0:0:
147,287,60337,5,0,3:2:0:0:
134,365,60517,1,6,0:0:0:0:
134,365,60879,6,0,P|194:378|288:293,1,191.999994140625,6|10,3:2|3:1,0:0:0:0:
316,221,61421,1,2,0:0:0:0:
369,278,61602,1,2,3:2:0:0:
398,206,61782,2,0,P|443:217|507:230,1,95.9999970703126,2|8,0:0|3:2,0:0:0:0:
316,221,62144,6,0,P|306:150|276:23,1,191.999994140625,2|2,0:0|0:0,0:0:0:0:
291,19,62596,1,2,0:0:0:0:
309,6,62686,1,10,3:2:0:0:
386,12,62867,1,2,0:0:0:0:
418,82,63047,2,0,L|515:67,1,95.9999970703126,2|2,3:1|0:1,0:0:0:0:
363,140,63409,2,0,L|266:125,1,95.9999970703126,10|2,3:1|0:1,0:0:0:0:
210,73,63770,5,2,3:1:0:0:
46,172,64132,1,10,3:1:0:0:
120,191,64312,1,2,0:1:0:0:
163,257,64493,1,2,3:1:0:0:
126,322,64674,1,2,0:0:0:0:
49,340,64855,2,0,P|38:294|21:237,1,95.9999970703126,10|2,3:1|0:1,0:0:0:0:
120,191,65216,5,2,3:1:0:0:
195,167,65397,1,0,0:0:0:0:
195,167,65487,1,0,0:0:0:0:
195,167,65578,2,0,P|237:181|293:197,1,95.9999970703126,10|0,3:1|0:0,0:0:0:0:
355,165,65939,1,2,3:1:0:0:
485,218,66120,1,2,0:1:0:0:
485,218,66210,1,2,0:1:0:0:
485,218,66300,2,0,L|497:267,3,47.9999985351563,10|2|2|2,3:1|0:1|0:1|0:1,0:0:0:0:
512,294,66662,6,0,P|445:305|333:373,1,191.999994140625,4|14,3:2|3:1,0:0:0:0:
285,311,67204,1,2,0:0:0:0:
229,362,67385,1,2,3:2:0:0:
168,315,67565,2,0,P|121:303|70:294,1,95.9999970703126,2|8,0:0|3:2,0:0:0:0:
226,256,67927,6,0,P|241:192|270:59,1,191.999994140625,2|2,0:0|0:0,0:0:0:0:
265,49,68379,1,2,0:0:0:0:
256,28,68469,1,10,3:2:0:0:
176,8,68650,1,2,0:1:0:0:
106,55,68831,2,0,P|54:68|6:77,1,95.9999970703126,2|2,3:2|0:1,0:0:0:0:
27,158,69192,5,10,3:1:0:0:
101,182,69373,1,2,0:1:0:0:
147,243,69553,2,0,P|162:326|178:401,2,143.999995605469,2|2|2,3:1|0:1|0:1,0:0:0:0:
226,238,70276,2,0,P|242:149|259:70,2,143.999995605469,2|2|2,3:1|0:1|0:1,0:0:0:0:
258,338,70999,6,0,P|315:286|438:271,1,191.999994140625,2|8,3:2|3:2,0:0:0:0:
480,328,71541,1,0,3:2:0:0:
504,256,71722,2,0,L|516:197,3,47.9999985351563,2|2|2|0,1:2|1:2|1:2|1:0,0:0:0:0:
501,194,72084,1,8,3:2:0:0:
394,78,72445,5,2,3:1:0:0:
303,46,72626,1,2,0:0:0:0:
310,53,72716,1,2,0:0:0:0:
310,53,72806,2,0,L|294:159,1,95.9999970703126,10|2,3:2|0:0,0:0:0:0:
226,176,73168,1,2,3:2:0:0:
166,131,73349,2,0,P|110:120|56:114,1,95.9999970703126,2|8,0:0|3:2,0:0:0:0:
28,37,73710,6,0,P|107:32|223:14,1,191.999994140625,2|2,0:0|0:0,0:0:0:0:
246,88,74252,1,10,3:2:0:0:
314,50,74433,1,2,0:0:0:0:
368,104,74614,2,0,P|420:110|477:123,1,95.9999970703126,2|0,3:2|0:0,0:0:0:0:
473,127,74885,2,0,P|481:183|497:271,1,143.999995605469,2|2,0:0|0:0,0:0:0:0:
470,338,75337,5,2,3:2:0:0:
416,285,75517,2,0,P|347:268|279:356,1,191.999994140625,2|2,0:0|0:0,0:0:0:0:
209,303,76059,5,2,3:2:0:0:
160,365,76239,2,0,P|97:380|57:351,1,95.9999970703126,2|8,0:0|3:2,0:0:0:0:
67,349,76511,1,0,0:0:0:0:
67,328,76602,2,0,P|85:240|100:132,1,191.999994140625,2|2,0:0|0:0,0:0:0:0:
46,89,77144,1,10,3:2:0:0:
99,36,77325,1,2,0:1:0:0:
174,70,77505,5,2,3:2:0:0:
174,70,77686,1,2,0:1:0:0:
241,29,77867,2,0,P|298:21|345:12,1,95.9999970703126,10|2,3:1|0:1,0:0:0:0:
399,63,78228,5,6,3:2:0:0:
378,132,78409,1,2,0:0:0:0:
295,139,78590,5,10,3:1:0:0:
316,208,78771,1,2,0:0:0:0:
389,239,78951,5,2,3:2:0:0:
368,307,79132,2,0,B|386:373|386:373|441:365,1,95.9999970703126,2|8,0:0|3:2,0:0:0:0:
468,312,79493,6,0,L|267:277,1,191.999994140625,2|2,0:0|0:0,0:0:0:0:
242,343,80035,1,10,3:2:0:0:
180,304,80216,1,2,0:0:0:0:
117,360,80397,2,0,P|90:306|69:268,1,95.9999970703126,2|0,3:2|0:0,0:0:0:0:
60,283,80668,2,0,P|71:199|82:125,1,143.999995605469,2|0,0:0|0:0,0:0:0:0:
42,79,81120,5,14,3:2:0:0:
42,79,81300,1,14,3:2:0:0:
242,163,81843,5,14,3:2:0:0:
242,163,82024,1,14,3:2:0:0:
442,43,82565,5,14,3:2:0:0:
346,164,82837,5,14,3:2:0:0:
310,22,83108,5,14,3:2:0:0:
310,22,83288,2,0,P|285:67|194:61,1,143.999995605469,14|0,3:2|0:0,0:0:0:0:
189,60,83650,2,0,P|161:63|191:63,1,95.9999970703126,4|0,0:0|0:0,0:0:0:0:
222,154,84011,5,6,3:2:0:0:
251,156,92686,5,14,3:2:0:0:
251,156,92867,1,14,3:2:0:0:
426,212,93409,5,14,3:2:0:0:
426,212,93590,1,14,3:2:0:0:
399,349,94132,5,14,3:2:0:0:
292,298,94403,5,14,3:2:0:0:
196,372,94674,5,14,3:2:0:0:
196,372,94855,2,0,P|188:317|181:269,1,88.000002685547,14|0,3:2|0:0,0:0:0:0:
167,210,95216,1,4,0:0:0:0:
167,210,95578,6,0,P|108:193|44:273,1,167.999994873047,4|0,3:2|3:2,0:0:0:0:
55,340,96300,1,8,0:2:0:0:
213,371,96843,2,0,L|337:346,1,111.999996582031,0|0,3:2|3:2,0:0:0:0:
330,335,97294,1,0,3:2:0:0:
420,367,97565,1,0,3:2:0:0:
420,367,97746,2,0,P|427:330|434:308,1,55.9999982910157,8|0,0:2|0:0,0:0:0:0:
369,267,98108,2,0,P|363:239|356:212,1,55.9999982910157
421,162,98469,6,0,P|475:152|495:37,1,167.999994873047,0|0,3:2|3:2,0:0:0:0:
441,14,99192,1,8,0:2:0:0:
376,53,99373,1,2,0:1:0:0:
271,13,99734,6,0,L|256:136,1,111.999996582031,0|0,3:2|3:2,0:0:0:0:
255,143,100186,1,0,3:2:0:0:
326,234,100457,1,0,3:2:0:0:
326,234,100638,2,0,L|381:250,1,55.9999982910157,8|0,0:2|0:0,0:0:0:0:
385,262,100909,1,0,3:2:0:0:
390,274,100999,2,0,P|412:295|402:338,1,55.9999982910157,2|0,0:1|3:2,0:0:0:0:
354,371,101361,5,4,3:2:0:0:
284,333,101541,2,0,L|280:300,2,27.9999991455078
223,384,101903,1,0,3:2:0:0:
223,384,102084,1,8,0:2:0:0:
49,299,102626,6,0,L|63:164,1,111.999996582031,0|0,3:2|3:2,0:0:0:0:
53,175,103078,1,0,3:2:0:0:
102,76,103349,1,0,3:2:0:0:
102,76,103529,2,0,L|86:13,1,55.9999982910157,8|0,0:2|3:2,0:0:0:0:
10,16,103891,1,0,0:0:0:0:
10,16,104072,1,2,3:1:0:0:
439,348,105517,5,14,3:2:0:0:
435,323,105878,1,14,3:2:0:0:
431,298,106240,1,14,3:2:0:0:
427,273,106601,1,14,3:2:0:0:
452,176,106782,2,0,B|482:153|482:153|476:209,1,83.9999974365235,6|0,0:0|0:0,0:0:0:0:
481,212,107144,6,0,L|377:189,1,80,6|0,3:2|0:0,0:0:0:0:
349,117,107505,2,0,L|270:134,1,80,10|0,3:2|0:0,0:0:0:0:
263,152,107776,1,0,0:0:0:0:
255,170,107867,1,2,3:2:0:0:
174,173,108047,1,0,0:0:0:0:
174,173,108228,2,0,P|180:116|199:2,1,160,8|0,3:2|3:2,0:0:0:0:
103,49,108770,5,2,0:0:0:0:
83,44,108861,1,0,0:0:0:0:
63,39,108951,1,10,3:2:0:0:
43,115,109132,2,0,L|-15:125,2,40,2|0|2,0:0|0:0|3:2,0:0:0:0:
94,178,109493,1,0,0:0:0:0:
94,178,109674,2,0,P|81:233|76:265,1,80,10|2,3:1|0:1,0:0:0:0:
24,335,110035,6,0,P|111:343|177:401,1,160,2|10,3:2|3:2,0:0:0:0:
255,374,110578,1,2,0:0:0:0:
259,354,110668,1,2,0:0:0:0:
246,338,110758,1,2,3:2:0:0:
178,297,110939,2,0,P|188:245|194:192,1,80,0|8,0:0|3:2,0:0:0:0:
248,161,111300,6,0,B|315:173|315:173|329:197|329:197|420:213,1,160,2|2,0:0|0:0,0:0:0:0:
459,156,111843,2,0,P|472:102|484:67,2,80,10|2|2,3:2|0:0|3:2,0:0:0:0:
510,219,112385,5,2,0:1:0:0:
490,290,112565,1,10,3:1:0:0:
416,302,112746,1,2,0:1:0:0:
374,366,112927,6,0,P|310:352|201:342,1,160,2|10,3:1|3:2,0:0:0:0:
139,380,113469,1,2,0:0:0:0:
139,380,113559,1,2,0:0:0:0:
139,380,113650,2,0,P|126:330|114:295,1,80,2|0,3:2|0:0,0:0:0:0:
145,227,114011,1,8,3:2:0:0:
79,180,114192,6,0,P|28:161|40:60,1,160,2|2,0:0|0:0,0:0:0:0:
97,21,114734,1,10,3:2:0:0:
163,83,114915,1,2,0:0:0:0:
163,83,115005,1,2,0:0:0:0:
163,83,115096,2,0,P|218:90|262:98,1,80,2|0,3:2|0:0,0:0:0:0:
278,25,115457,2,0,P|317:18|357:13,1,80,10|0,3:2|0:0,0:0:0:0:
421,64,115818,5,6,3:2:0:0:
247,170,116180,1,10,3:2:0:0:
432,248,116541,1,6,3:2:0:0:
260,329,116903,2,0,P|292:361|381:351,1,120,10|2,3:2|0:0,0:0:0:0:
431,325,117264,5,6,3:2:0:0:
364,283,117445,1,2,0:0:0:0:
432,248,117626,1,10,3:2:0:0:
368,209,117806,1,2,0:0:0:0:
435,169,117987,2,0,P|483:160|514:150,1,80,2|8,3:2|3:0,0:0:0:0:
370,133,118349,1,8,3:2:0:0:
257,13,118710,6,0,P|183:8|152:69,1,128,6|0,3:2|0:0,0:0:0:0:
152,122,119252,1,0,3:2:0:0:
100,251,119614,1,0,3:2:0:0:
100,251,119794,2,0,P|46:234|22:229,1,64,8|0,0:2|0:0,0:0:0:0:
0,309,120156,2,0,P|69:329|114:339,2,96,0|0|0,3:2|3:2|3:2,0:0:0:0:
100,251,120879,6,0,L|86:175,1,64,2|2,0:1|0:1,0:0:0:0:
172,194,121240,2,0,L|177:225,3,32,10|2|2|2,0:1|0:1|0:1|0:1,0:0:0:0:
182,238,121602,6,0,L|279:256,1,80,6|0,3:2|0:0,0:0:0:0:
270,270,121873,1,0,0:0:0:0:
279,287,121963,2,0,L|301:376,1,80,10|0,0:2|0:0,0:0:0:0:
385,381,122325,2,0,L|420:212,1,160,2|8,0:0|0:2,0:0:0:0:
495,193,122867,5,2,3:2:0:0:
444,132,123047,2,0,P|404:142|359:153,1,80,2|0,3:2|0:0,0:0:0:0:
348,142,123318,1,0,0:0:0:0:
332,129,123409,2,0,P|341:57|343:25,1,80,10|0,0:2|0:0,0:0:0:0:
269,6,123770,1,2,0:0:0:0:
269,6,123861,1,0,0:0:0:0:
269,6,123951,1,0,3:2:0:0:
199,54,124132,2,0,P|158:40|113:31,1,80,10|2,0:1|0:1,0:0:0:0:
3,140,124493,6,0,P|77:118|145:120,1,128,6|0,3:2|0:0,0:0:0:0:
195,161,125035,1,0,3:2:0:0:
328,81,125397,1,0,3:2:0:0:
328,81,125578,2,0,P|375:87|401:90,1,64,8|0,0:2|0:0,0:0:0:0:
462,144,125939,2,0,L|487:29,2,96,0|0|0,3:2|3:2|3:2,0:0:0:0:
415,209,126662,6,0,L|427:282,1,64,2|2,0:1|3:1,0:0:0:0:
496,217,127023,2,0,L|503:264,3,32,10|2|2|2,0:1|0:1|0:1|0:1,0:0:0:0:
504,264,127385,5,8,3:2:0:0:
409,200,127565,1,8,3:2:0:0:
296,80,128108,5,8,3:2:0:0:
201,144,128288,1,8,3:2:0:0:
201,144,128650,6,0,P|192:90|91:91,1,160,2|2,3:2|3:2,0:0:0:0:
41,133,129192,1,10,3:2:0:0:
87,212,129373,1,2,0:0:0:0:
87,212,129463,1,0,0:0:0:0:
87,212,129553,2,0,P|79:270|77:308,1,80,2|0,3:2|0:0,0:0:0:0:
162,303,129915,2,0,P|170:361|172:399,1,80,8|0,3:2|0:0,0:0:0:0:
229,257,130276,6,0,L|273:267,3,40,4|4|4|4,3:0|3:0|3:0|3:0,0:0:0:0:
284,274,130638,1,4,3:0:0:0:
319,342,130818,5,4,3:0:0:0:
339,339,130909,1,4,3:0:0:0:
358,336,130999,2,0,L|372:280,2,40,4|4|4,3:0|3:0|3:0,0:0:0:0:
434,374,131361,1,6,0:0:0:0:
434,374,131722,6,0,B|491:341|491:341|459:188,1,191.999994140625,6|10,3:2|3:1,0:0:0:0:
498,147,132264,1,2,0:0:0:0:
447,87,132445,1,2,3:2:0:0:
371,114,132626,2,0,P|321:107|253:95,1,95.9999970703126,2|8,0:0|3:2,0:0:0:0:
233,31,132987,6,0,P|177:40|169:174,1,191.999994140625,2|2,0:0|0:0,0:0:0:0:
227,188,133529,1,10,3:2:0:0:
170,250,133710,1,2,0:0:0:0:
170,250,133800,1,0,0:0:0:0:
170,250,133891,2,0,P|117:236|56:229,1,95.9999970703126,2|2,3:1|0:1,0:0:0:0:
21,291,134252,1,10,3:1:0:0:
21,291,134433,1,2,0:1:0:0:
57,367,134614,6,0,P|110:353|171:346,1,95.9999970703126,2|0,3:1|0:0,0:0:0:0:
172,358,134885,1,0,0:0:0:0:
192,369,134975,1,10,3:1:0:0:
250,316,135156,1,2,0:1:0:0:
325,363,135337,6,0,P|378:377|430:271,1,191.999994140625,2|10,3:1|3:1,0:0:0:0:
364,231,135879,1,2,0:1:0:0:
415,169,136059,2,0,P|428:120|445:70,1,95.9999970703126,2|0,3:1|0:0,0:0:0:0:
454,56,136331,1,0,0:0:0:0:
467,36,136421,1,10,3:1:0:0:
370,49,136602,1,2,0:0:0:0:
303,3,136782,1,2,3:1:0:0:
239,57,136963,1,2,0:1:0:0:
239,57,137053,1,2,0:1:0:0:
239,57,137144,2,0,L|247:117,3,47.9999985351563,10|2|2|2,3:1|0:1|0:1|0:1,0:0:0:0:
268,116,137505,6,0,P|260:192|255:314,1,191.999994140625,6|10,3:2|3:1,0:0:0:0:
212,371,138047,1,2,0:0:0:0:
144,333,138228,1,2,3:2:0:0:
72,370,138409,2,0,P|69:309|63:249,1,95.9999970703126,2|8,0:0|3:2,0:0:0:0:
0,199,138770,6,0,P|59:187|116:60,1,191.999994140625,2|2,0:0|0:0,0:0:0:0:
108,58,139222,1,2,0:0:0:0:
92,39,139312,1,10,3:2:0:0:
165,5,139493,1,2,0:0:0:0:
203,74,139674,2,0,P|249:88|305:101,1,95.9999970703126,2|2,3:2|0:1,0:0:0:0:
365,147,140035,5,10,3:1:0:0:
422,88,140216,1,2,0:1:0:0:
493,137,140397,2,0,P|507:81|456:13,2,143.999995605469,2|2|2,3:1|0:1|0:1,0:0:0:0:
437,203,141120,2,0,P|421:271|462:327,2,143.999995605469,2|2|2,3:1|0:1|0:1,0:0:0:0:
502,253,141843,6,0,P|380:274|325:338,1,191.999994140625,2|8,3:2|3:2,0:0:0:0:
270,363,142385,1,2,3:2:0:0:
257,342,142475,1,2,0:0:0:0:
257,318,142565,2,0,L|267:263,3,47.9999985351563,2|0|0|0,1:2|1:0|1:2|1:0,0:0:0:0:
248,252,142927,1,4,0:1:0:0:
248,252,143288,6,0,P|240:152|224:47,1,191.999994140625,6|10,3:2|3:1,0:0:0:0:
170,8,143831,1,2,0:0:0:0:
101,47,144011,1,2,3:2:0:0:
22,17,144192,2,0,P|27:64|34:112,1,95.9999970703126,2|8,0:0|3:2,0:0:0:0:
0,193,144553,6,0,B|107:194|47:269|179:265,1,191.999994140625,2|2,0:0|0:0,0:0:0:0:
182,285,145005,1,2,0:0:0:0:
174,308,145096,1,10,3:2:0:0:
118,354,145276,1,2,0:0:0:0:
188,382,145457,2,0,P|244:369|301:361,1,95.9999970703126,2|2,3:1|0:1,0:0:0:0:
360,371,145818,1,10,3:1:0:0:
360,371,145999,1,2,0:1:0:0:
326,293,146180,6,0,P|334:237|342:179,1,95.9999970703126,2|0,3:1|0:0,0:0:0:0:
320,187,146451,1,0,0:0:0:0:
304,178,146541,1,10,3:1:0:0:
317,104,146722,1,2,0:1:0:0:
264,27,146903,5,2,3:1:0:0:
338,15,147084,1,2,0:0:0:0:
412,3,147264,1,10,3:1:0:0:
466,58,147445,1,2,0:1:0:0:
512,123,147626,6,0,P|500:185|494:241,1,95.9999970703126,2|0,3:1|0:0,0:0:0:0:
494,241,147897,1,0,0:0:0:0:
495,264,147987,1,10,3:1:0:0:
493,343,148168,1,2,0:1:0:0:
420,373,148349,1,2,3:1:0:0:
351,332,148529,1,2,0:1:0:0:
351,332,148620,1,2,0:1:0:0:
351,332,148710,2,0,L|360:279,3,47.9999985351563,10|2|2|2,3:1|0:1|0:1|0:1,0:0:0:0:
366,266,149072,6,0,P|315:258|211:345,1,191.999994140625,6|10,3:2|3:1,0:0:0:0:
136,367,149614,1,2,0:0:0:0:
145,290,149794,1,2,3:2:0:0:
97,228,149975,2,0,P|44:232|23:169,1,95.9999970703126,2|8,0:0|3:2,0:0:0:0:
16,120,150337,6,0,P|97:104|160:197,1,191.999994140625,2|2,0:0|0:0,0:0:0:0:
218,234,150879,1,10,3:2:0:0:
267,172,151059,1,2,0:0:0:0:
338,208,151240,2,0,P|407:222|443:232,1,95.9999970703126,2|0,3:2|0:0,0:0:0:0:
498,180,151602,5,10,3:1:0:0:
452,117,151782,1,2,0:1:0:0:
505,50,151963,2,0,P|444:30|355:5,2,143.999995605469,2|2|2,3:1|0:1|0:1,0:0:0:0:
379,88,152686,2,0,P|309:107|241:129,2,143.999995605469,2|2|2,3:1|0:1|0:1,0:0:0:0:
280,38,153409,6,0,P|306:116|338:242,1,191.999994140625,0|8,3:2|3:2,0:0:0:0:
305,292,153951,1,0,3:2:0:0:
368,344,154132,2,0,L|422:359,3,47.9999985351563,0|0|0|0,1:0|1:0|1:2|1:0,0:0:0:0:
431,376,154493,1,8,3:2:0:0:
254,229,154855,5,2,3:1:0:0:
196,282,155035,1,2,0:0:0:0:
196,282,155126,1,2,0:0:0:0:
196,282,155216,1,10,3:2:0:0:
133,225,155397,1,2,0:0:0:0:
71,274,155578,1,2,3:2:0:0:
13,220,155758,2,0,P|25:165|31:113,1,95.9999970703126,2|8,0:0|3:2,0:0:0:0:
32,42,156120,6,0,P|104:58|231:79,1,191.999994140625,2|2,0:0|0:0,0:0:0:0:
288,118,156662,1,10,3:2:0:0:
238,177,156843,1,2,0:0:0:0:
299,229,157023,2,0,P|313:288|323:333,1,95.9999970703126,2|0,3:2|0:0,0:0:0:0:
330,339,157294,2,0,P|385:350|423:365,1,95.9999970703126,2|0,0:0|0:0,0:0:0:0:
441,374,157565,1,2,0:0:0:0:
497,323,157746,5,2,3:2:0:0:
436,276,157927,2,0,P|441:195|453:84,1,191.999994140625,2|2,0:0|0:0,0:0:0:0:
403,23,158469,5,2,3:2:0:0:
352,91,158650,2,0,P|288:88|250:28,1,95.9999970703126,2|8,0:0|3:2,0:0:0:0:
257,46,158921,1,0,0:0:0:0:
271,26,159011,6,0,P|255:87|133:87,1,191.999994140625,2|2,0:0|0:0,0:0:0:0:
125,24,159553,1,10,3:2:0:0:
65,76,159734,1,2,0:2:0:0:
84,149,159915,2,0,P|107:226|111:260,1,95.9999970703126,2|0,3:2|0:0,0:0:0:0:
191,291,160276,2,0,P|201:244|217:199,1,95.9999970703126,8|0,3:2|0:1,0:0:0:0:
295,175,160638,5,6,3:2:0:0:
368,194,160818,1,2,0:0:0:0:
425,258,160999,5,10,3:1:0:0:
352,277,161179,1,2,0:0:0:0:
311,347,161361,5,2,3:2:0:0:
384,366,161541,2,0,P|445:352|490:349,1,95.9999970703126,2|8,0:0|3:2,0:0:0:0:
438,271,161903,6,0,P|453:209|478:74,1,191.999994140625,2|0,0:0|0:0,0:0:0:0:
422,28,162445,1,10,3:2:0:0:
357,61,162626,1,2,0:0:0:0:
276,48,162806,2,0,P|286:122|287:173,1,95.9999970703126,2|0,3:2|0:0,0:0:0:0:
289,159,163078,2,0,P|238:185|182:128,1,143.999995605469,2|0,0:0|0:0,0:0:0:0:
186,56,163529,5,14,3:2:0:0:
186,56,163710,1,14,3:2:0:0:
59,153,164252,5,14,3:2:0:0:
59,153,164432,1,14,3:2:0:0:
167,241,164975,5,14,3:2:0:0:
60,292,165246,5,14,3:2:0:0:
158,360,165517,5,14,3:2:0:0:
158,360,165698,2,0,B|219:342|237:376|304:358,1,143.999995605469,14|0,3:2|0:0,0:0:0:0:
313,346,166059,2,0,P|370:320|326:354,1,191.999994140625,4|4,0:0|3:2,0:0:0:0:
410,309,177987,6,0,L|417:219,1,71.9999978027344,2|0,3:2|0:0,0:0:0:0:
423,162,178349,2,0,L|430:72,1,71.9999978027344,2|0,3:2|0:0,0:0:0:0:
349,83,178710,1,2,3:2:0:0:
349,83,178891,2,0,L|343:154,1,71.9999978027344,2|0,0:0|3:2,0:0:0:0:
338,235,179252,1,2,0:0:0:0:
338,235,179433,2,0,L|332:306,1,71.9999978027344,2|0,3:2|0:0,0:0:0:0:
410,309,179794,1,2,3:2:0:0:
410,309,179975,1,2,0:0:0:0:
410,309,180156,2,0,L|415:237,2,71.9999978027344,2|2|0,3:2|0:1|0:0,0:0:0:0:
102,309,180879,6,0,L|95:219,1,71.9999978027344,2|0,3:2|0:0,0:0:0:0:
89,162,181241,2,0,L|82:72,1,71.9999978027344,2|0,3:2|0:0,0:0:0:0:
163,83,181602,1,2,3:2:0:0:
163,83,181783,2,0,L|169:154,1,71.9999978027344,2|0,0:0|3:2,0:0:0:0:
174,235,182144,1,2,0:0:0:0:
174,235,182325,2,0,L|180:306,1,71.9999978027344,2|0,3:2|0:0,0:0:0:0:
102,309,182686,1,2,3:2:0:0:
102,309,182867,1,2,0:0:0:0:
102,309,183048,2,0,L|97:237,2,71.9999978027344,2|2|0,3:2|0:1|0:0,0:0:0:0:
410,309,183770,6,0,L|417:219,1,71.9999978027344,2|0,3:2|0:0,0:0:0:0:
423,162,184132,2,0,L|430:72,1,71.9999978027344,2|0,3:2|0:0,0:0:0:0:
349,83,184493,1,2,3:2:0:0:
349,83,184674,2,0,L|343:154,1,71.9999978027344,2|0,0:0|3:2,0:0:0:0:
338,235,185035,1,2,0:0:0:0:
338,235,185216,2,0,L|332:306,1,71.9999978027344,2|0,3:2|0:0,0:0:0:0:
410,309,185577,1,2,3:2:0:0:
410,309,185758,1,2,0:0:0:0:
410,309,185939,2,0,L|415:237,2,71.9999978027344,2|2|0,3:2|0:1|0:0,0:0:0:0:
102,309,186662,6,0,L|95:219,1,71.9999978027344,2|0,3:2|0:0,0:0:0:0:
89,162,187024,2,0,L|82:72,1,71.9999978027344,2|0,3:2|0:0,0:0:0:0:
163,83,187385,1,2,3:2:0:0:
163,83,187566,2,0,L|169:154,1,71.9999978027344,2|0,0:0|3:2,0:0:0:0:
174,235,187927,1,2,0:0:0:0:
174,235,188108,2,0,L|180:306,1,71.9999978027344,2|0,3:2|0:0,0:0:0:0:
102,309,188469,1,2,3:2:0:0:
102,309,188650,1,2,0:0:0:0:
102,309,188831,2,0,L|97:237,1,71.9999978027344,2|2,3:2|0:1,0:0:0:0:
174,235,189192,2,0,L|180:307,1,71.9999978027344,8|0,3:2|0:0,0:0:0:0:
268,309,189553,6,0,B|338:325|338:325|342:341|342:341|440:364,1,160,6|10,3:2|3:1,0:0:0:0:
489,259,190096,1,0,0:0:0:0:
496,367,190276,2,0,P|498:344|386:278,1,160,2|10,3:2|3:2,0:0:0:0:
350,208,190818,2,0,P|348:185|460:119,1,160,2|2,0:0|0:0,0:0:0:0:
501,181,191361,1,10,3:2:0:0:
501,181,191541,2,0,P|492:226|489:278,1,80,2|2,0:0|3:1,0:0:0:0:
401,272,191903,5,2,0:1:0:0:
350,208,192084,1,10,3:1:0:0:
284,255,192264,1,2,0:1:0:0:
231,187,192445,2,0,P|190:166|157:153,1,80,2|0,3:1|0:0,0:0:0:0:
142,154,192716,2,0,P|104:168|69:187,1,80,2|0,0:1|0:0,0:0:0:0:
53,202,192987,1,2,0:1:0:0:
16,300,193168,5,2,3:1:0:0:
88,329,193349,1,2,0:1:0:0:
130,270,193529,2,0,B|153:238|153:238|191:291,1,80,10|2,3:1|0:1,0:0:0:0:
218,334,193891,2,0,B|220:368|250:379|250:379|273:346|322:342,2,120,2|2|2,3:1|0:0|0:1,0:0:0:0:
176,270,194614,1,2,3:1:0:0:
251,223,194794,5,2,0:1:0:0:
255,203,194885,1,2,0:1:0:0:
260,183,194975,2,0,L|250:130,3,40,10|2|2|2,3:1|0:1|0:1|0:1,0:0:0:0:
264,110,195337,6,0,P|329:97|371:96,1,80,6|2,3:2|0:1,0:0:0:0:
356,86,195608,2,0,P|394:76|434:72,1,80,2|2,0:1|0:1,0:0:0:0:
453,74,195879,2,0,P|466:139|467:181,1,80,2|2,0:1|3:1,0:0:0:0:
477,166,196150,2,0,P|486:204|490:244,1,80,2|2,0:1|0:1,0:0:0:0:
486,266,196421,1,10,3:1:0:0:
406,278,196602,1,2,0:1:0:0:
300,299,196782,6,0,P|287:234|286:192,1,80,2|2,3:1|0:1,0:0:0:0:
276,207,197053,2,0,P|266:168|262:128,1,80,2|2,0:1|0:1,0:0:0:0:
264,110,197324,2,0,P|329:97|371:96,1,80,2|2,0:1|3:1,0:0:0:0:
356,86,197595,2,0,P|394:76|434:72,1,80,2|2,0:1|0:1,0:0:0:0:
453,74,197867,1,8,3:2:0:0:
477,166,198047,1,2,0:1:0:0:
395,188,198228,6,0,L|352:180,3,40,2|2|2|2,3:2|0:2|0:2|0:2,0:0:0:0:
326,208,198590,2,0,L|283:216,3,40,10|2|2|2,3:2|0:2|0:2|0:2,0:0:0:0:
256,196,198951,2,0,L|213:188,3,40,2|2|2|2,3:2|0:2|0:2|0:2,0:0:0:0:
187,216,199313,2,0,L|144:224,3,40,10|2|2|2,3:2|0:2|0:2|0:2,0:0:0:0:
117,200,199674,2,0,L|74:192,3,40,2|2|2|2,3:1|0:1|0:1|0:1,0:0:0:0:
39,223,200035,5,10,3:1:0:0:
35,242,200126,1,2,0:1:0:0:
31,261,200216,1,2,0:1:0:0:
27,281,200306,1,2,0:1:0:0:
25,301,200397,2,2,P|67:363|141:323,1,160,2|8,3:2|3:2,0:0:0:0:
182,270,200939,5,2,0:1:0:0:
182,270,201029,1,2,0:1:0:0:
182,270,201120,2,0,L|278:299,1,80,6|0,3:2|0:0,0:0:0:0:
291,362,201481,2,0,L|367:338,1,80,10|0,3:1|0:0,0:0:0:0:
453,383,201843,2,0,P|468:329|495:223,1,160,2|8,3:2|3:2,0:0:0:0:
441,167,202385,1,2,0:0:0:0:
400,241,202565,6,0,P|352:249|305:260,1,80,2|0,3:2|0:0,0:0:0:0:
202,171,202927,2,0,P|250:179|297:190,1,80,10|0,3:2|0:0,0:0:0:0:
347,132,203288,2,0,L|322:6,1,120,2|0,3:2|0:0,0:0:0:0:
337,1,203650,1,8,3:2:0:0:
174,47,204011,6,0,P|134:38|70:24,1,80,2|0,3:2|0:0,0:0:0:0:
15,139,204373,2,0,P|54:130|119:116,1,80,10|0,3:2|0:0,0:0:0:0:
179,148,204734,2,0,P|163:209|162:244,1,80,2|0,3:2|0:0,0:0:0:0:
64,216,205096,2,0,P|80:277|81:312,1,80,10|0,3:2|0:0,0:0:0:0:
80,375,205457,1,2,3:2:0:0:
160,374,205638,6,0,P|175:334|227:320,1,80,6|8,0:2|3:2,0:0:0:0:
167,247,205999,2,0,P|205:229|252:256,1,80,6|0,0:2|3:2,0:0:0:0:
261,162,206361,2,0,P|301:176|315:229,1,80,6|8,0:2|3:2,0:0:0:0:
309,284,206722,1,6,0:2:0:0:
309,284,206903,6,0,P|284:341|281:373,1,80,6|0,3:2|0:0,0:0:0:0:
367,382,207264,2,0,P|375:343|394:307,1,80,10|0,3:1|0:0,0:0:0:0:
400,226,207626,2,0,P|464:225|504:125,1,160,2|8,3:2|3:2,0:0:0:0:
478,78,208168,1,2,0:0:0:0:
427,16,208349,6,0,P|381:10|335:1,1,80,2|0,3:2|0:0,0:0:0:0:
313,74,208710,2,0,P|267:80|221:89,1,80,10|0,3:2|0:0,0:0:0:0:
155,36,209072,2,0,P|150:85|143:130,1,80,2|0,3:2|0:0,0:0:0:0:
217,164,209433,2,0,P|222:213|229:258,1,80,10|0,3:2|0:0,0:0:0:0:
348,245,209794,6,0,P|393:267|392:326,1,80,6|0,3:2|0:0,0:0:0:0:
486,296,210156,2,0,P|472:348|468:393,1,80,10|0,3:2|0:0,0:0:0:0:
457,220,210517,2,0,P|498:195|433:107,1,160,2|10,3:2|3:2,0:0:0:0:
393,157,211059,2,0,P|324:159|235:222,1,160,2|0,0:0|0:0,0:0:0:0:
225,281,211602,1,10,3:2:0:0:
225,281,211782,1,2,0:0:0:0:
248,354,211963,5,2,3:2:0:0:
169,340,212144,1,2,0:0:0:0:
145,266,212325,1,10,3:2:0:0:
71,253,212505,1,2,0:0:0:0:
484,166,214132,5,12,3:2:0:0:
364,147,214312,1,12,3:2:0:0:
364,147,216120,1,12,3:2:0:0:
225,210,216481,1,0,3:2:0:0:
155,167,216662,6,0,P|160:114|170:0,1,160,12|0,3:2|0:0,0:0:0:0:
86,287,217385,2,0,P|81:234|71:120,1,160,12|0,3:2|0:0,0:0:0:0:
210,369,218108,2,0,P|215:316|225:202,1,160,12|2,3:2|0:1,0:0:0:0:
286,162,218650,2,0,L|331:150,2,40,2|2|2,0:1|0:1|0:1,0:0:0:0:
231,107,219011,1,2,0:1:0:0:
231,107,219192,1,2,0:1:0:0:
231,107,219373,1,0,3:2:0:0:
307,238,219553,2,0,B|364:247|347:292|437:298,1,120,12|0,3:2|0:0,0:0:0:0:
427,287,219915,6,0,P|443:218|483:76,1,191.999994140625,6|10,3:2|3:1,0:0:0:0:
450,27,220457,1,2,0:0:0:0:
374,44,220638,1,2,3:2:0:0:
306,11,220818,2,0,P|240:0|195:-4,1,95.9999970703126,2|8,0:0|3:2,0:0:0:0:
200,71,221180,6,0,P|217:126|247:273,1,191.999994140625,2|2,0:0|0:0,0:0:0:0:
254,337,221722,1,10,3:2:0:0:
254,337,221903,1,2,0:0:0:0:
180,374,222084,2,0,P|132:360|67:348,1,95.9999970703126,2|0,3:2|0:0,0:0:0:0:
15,333,222445,5,10,3:1:0:0:
7,254,222626,1,2,0:1:0:0:
58,189,222806,2,0,P|116:206|143:303,2,143.999995605469,2|2|2,3:1|0:1|0:1,0:0:0:0:
0,120,223529,2,0,P|58:103|85:6,2,143.999995605469,2|2|2,3:1|0:1|0:1,0:0:0:0:
0,41,224252,6,0,P|77:58|208:84,1,191.999994140625,2|8,3:2|3:2,0:0:0:0:
154,161,224794,1,0,3:2:0:0:
154,161,224885,1,0,0:0:0:0:
154,161,224975,2,0,L|99:172,3,47.9999985351563,0|0|0|0,0:0|0:0|3:2|0:0,0:0:0:0:
85,215,225337,1,6,0:0:0:0:
85,215,225698,6,0,P|151:226|286:287,1,191.999994140625,6|10,3:2|3:1,0:0:0:0:
300,343,226240,1,2,0:0:0:0:
354,286,226421,1,2,3:2:0:0:
319,213,226602,2,0,P|324:167|335:111,1,95.9999970703126,2|8,0:0|3:2,0:0:0:0:
258,62,226963,6,0,P|311:18|419:101,1,191.999994140625,2|2,0:0|0:0,0:0:0:0:
418,88,227415,1,2,0:0:0:0:
419,111,227505,1,10,3:2:0:0:
486,169,227686,1,2,0:0:0:0:
486,169,227776,1,0,0:0:0:0:
486,169,227867,2,0,P|476:230|474:268,1,95.9999970703126,2|2,3:1|0:1,0:0:0:0:
499,342,228228,1,10,3:1:0:0:
428,371,228409,1,2,0:1:0:0:
378,313,228590,6,0,L|272:291,1,95.9999970703126,2|0,3:1|0:0,0:0:0:0:
225,353,228951,2,0,L|131:372,1,95.9999970703126,10|2,3:1|0:1,0:0:0:0:
64,323,229312,1,2,3:1:0:0:
116,267,229493,1,2,0:0:0:0:
58,217,229674,1,10,3:1:0:0:
99,152,229855,1,2,0:1:0:0:
37,113,230035,6,0,P|43:55|42:5,1,95.9999970703126,2|0,3:1|0:0,0:0:0:0:
145,0,230397,2,0,P|145:47|150:95,1,95.9999970703126,10|0,3:1|0:0,0:0:0:0:
252,95,230758,2,0,P|252:47|257:0,1,95.9999970703126,2|2,3:1|0:1,0:0:0:0:
340,51,231120,2,0,L|395:66,3,47.9999985351563,10|2|2|2,3:1|0:1|0:1|0:1,0:0:0:0:
408,80,231481,6,0,P|396:150|379:280,1,191.999994140625,6|10,3:2|3:1,0:0:0:0:
312,298,232023,1,2,0:0:0:0:
345,369,232204,1,2,3:2:0:0:
418,342,232385,2,0,P|501:325|524:325,1,95.9999970703126,2|8,0:0|3:2,0:0:0:0:
486,241,232746,6,0,P|427:231|271:195,1,191.999994140625,2|2,0:0|0:0,0:0:0:0:
281,184,233198,1,2,0:0:0:0:
264,166,233288,1,10,3:2:0:0:
290,94,233469,1,2,0:0:0:0:
229,37,233650,2,0,P|174:45|114:54,1,95.9999970703126,2|0,3:2|0:0,0:0:0:0:
63,20,234011,1,10,3:1:0:0:
26,88,234192,1,2,0:1:0:0:
101,119,234373,6,0,P|118:173|135:269,2,143.999995605469,2|2|2,3:1|0:1|0:1,0:0:0:0:
42,204,235096,2,0,P|25:258|8:354,2,143.999995605469,2|2|2,3:1|0:1|0:1,0:0:0:0:
133,258,235818,2,0,B|214:271|168:315|253:335,1,143.999995605469,2|0,3:2|0:0,0:0:0:0:
257,352,236180,1,8,3:2:0:0:
344,333,236361,1,0,3:2:0:0:
344,333,236451,1,0,1:0:0:0:
344,333,236541,2,0,L|356:269,3,47.9999985351563,0|0|0|0,1:0|1:0|1:2|1:0,1:0:0:0:
332,263,236903,1,8,3:2:0:0:
332,263,237264,6,0,P|324:204|316:152,1,95.9999970703126,2|2,3:1|0:0,0:0:0:0:
302,150,237535,1,2,0:0:0:0:
285,132,237626,1,10,3:2:0:0:
309,55,237806,1,2,0:0:0:0:
389,65,237987,1,2,3:2:0:0:
409,143,238168,2,0,L|519:172,1,95.9999970703126,2|8,0:0|3:2,0:0:0:0:
512,249,238529,6,0,P|454:255|337:350,1,191.999994140625,2|2,0:0|0:0,0:0:0:0:
291,382,239072,1,10,3:2:0:0:
232,329,239252,1,2,0:0:0:0:
266,258,239433,2,0,L|280:152,1,95.9999970703126,2|0,3:2|0:0,0:0:0:0:
261,146,239704,2,0,L|240:-13,1,143.999995605469,2|2,0:0|0:0,0:0:0:0:
171,44,240156,5,2,3:2:0:0:
98,15,240337,2,0,P|36:30|16:157,1,191.999994140625,2|2,0:0|0:0,0:0:0:0:
0,230,240879,5,2,3:2:0:0:
73,201,241060,2,0,P|135:216|160:272,1,95.9999970703126,2|8,0:0|3:2,0:0:0:0:
176,245,241331,1,0,0:0:0:0:
198,249,241421,2,0,P|180:361|97:333,1,191.999994140625,2|2,0:0|0:0,0:0:0:0:
86,287,241963,1,10,3:2:0:0:
86,287,242144,1,2,0:1:0:0:
73,201,242325,2,0,P|65:130|59:82,1,95.9999970703126,2|2,3:2|0:1,0:0:0:0:
161,0,242686,2,0,P|156:47|151:95,1,95.9999970703126,10|2,3:1|0:1,0:0:0:0:
216,147,243047,5,6,3:2:0:0:
287,113,243228,1,2,0:0:0:0:
307,21,243409,5,10,3:1:0:0:
378,55,243590,1,2,0:0:0:0:
409,149,243770,5,2,3:2:0:0:
480,115,243951,2,0,P|483:186|453:212,1,95.9999970703126,2|8,0:0|3:2,0:0:0:0:
512,286,244312,6,0,P|447:246|326:236,1,191.999994140625,2|0,0:0|0:0,0:0:0:0:
257,258,244855,1,10,3:2:0:0:
296,328,245035,1,2,0:0:0:0:
227,374,245216,2,0,P|174:354|122:341,1,95.9999970703126,2|0,3:2|0:0,0:0:0:0:
120,359,245487,2,0,P|36:352|35:283,1,143.999995605469,2|0,0:0|0:0,0:0:0:0:
71,227,245939,5,8,3:2:0:0:
71,227,246120,1,8,3:2:0:0:
286,166,246662,5,8,3:2:0:0:
286,166,246843,1,8,3:2:0:0:
60,28,247385,5,8,3:2:0:0:
172,89,247656,5,8,3:2:0:0:
271,12,247927,5,8,3:2:0:0:
271,12,248108,2,0,P|321:24|366:37,1,95.9999970703126,8|0,3:2|0:0,0:0:0:0:
449,74,248469,2,0,P|475:57|442:68,1,95.9999970703126,4|0,0:1|0:0,0:0:0:0:
377,118,248831,5,6,3:2:0:0:
377,118,249011,1,2,0:0:0:0:
452,157,249192,2,0,P|440:214|431:260,1,80,10|0,3:1|0:0,0:0:0:0:
490,297,249553,2,0,P|502:354|511:400,1,80,2|0,3:2|0:0,0:0:0:0:
408,341,249915,5,10,3:2:0:0:
408,341,250096,2,0,P|353:327|241:313,1,160,2|2,0:0|0:0,0:0:0:0:
200,375,250638,2,0,P|155:354|141:318,1,80,10|2,3:2|0:0,0:0:0:0:
190,259,250999,5,2,3:1:0:0:
112,222,251180,1,2,0:1:0:0:
164,163,251361,1,10,3:1:0:0:
105,117,251541,1,2,0:1:0:0:
46,169,251722,6,0,P|33:211|23:258,1,80,2|2,3:2|0:0,0:0:0:0:
87,302,252084,2,0,P|100:344|110:391,1,80,10|0,3:2|0:0,0:0:0:0:
178,274,252445,2,0,B|255:305|216:348|304:372,1,160,2|10,3:2|3:2,0:0:0:0:
384,364,252987,2,0,P|437:332|398:240,1,160,2|2,0:0|0:0,0:0:0:0:
355,203,253529,2,0,P|366:149|375:103,1,80,10|2,3:2|0:0,0:0:0:0:
449,85,253891,5,6,3:2:0:0:
449,85,254072,1,6,0:2:0:0:
449,85,254252,1,14,3:2:0:0:
449,85,254433,1,6,0:2:0:0:
376,37,254614,6,0,P|318:45|267:52,1,80,6|2,3:2|0:0,0:0:0:0:
209,117,254975,2,0,P|267:125|318:132,1,80,10|0,3:1|0:0,0:0:0:0:
254,202,255337,2,0,P|266:258|274:364,1,160,2|10,3:2|3:2,0:0:0:0:
192,376,255879,2,0,P|180:320|172:214,1,160,2|2,0:0|0:0,0:0:0:0:
103,164,256421,1,10,3:2:0:0:
28,193,256602,2,0,P|16:249|8:355,1,160,2|2,0:0|0:0,0:0:0:0:
91,383,257144,2,0,P|94:334|101:289,1,80,10|2,3:2|0:0,0:0:0:0:
186,265,257505,5,14,3:2:0:0:
186,265,257686,1,14,3:2:0:0:
320,118,258228,5,14,3:2:0:0:
320,118,258409,1,14,3:2:0:0:
204,32,258951,5,14,3:2:0:0:
320,118,259222,1,14,3:2:0:0:
187,175,259493,1,14,3:2:0:0:
133,108,259674,5,14,3:2:0:0:
17,194,259945,1,14,3:2:0:0:
150,251,260216,1,14,3:2:0:0:
191,185,260397,5,14,3:2:0:0:
307,271,260668,1,14,3:2:0:0:
174,328,260939,1,14,3:2:0:0:
150,251,261120,6,0,B|61:252|102:317|0:312,1,160,8|4,3:2|0:1,0:0:0:0:
