osu file format v14

[General]
AudioFilename: audio.mp3
AudioLeadIn: 0
PreviewTime: 52383
Countdown: 0
SampleSet: Soft
StackLeniency: 0.7
Mode: 0
LetterboxInBreaks: 0
WidescreenStoryboard: 0

[Editor]
Bookmarks: 15248,26815,41272
DistanceSpacing: 1.5
BeatDivisor: 4
GridSize: 32
TimelineZoom: 1.699999

[Metadata]
Title:KING
TitleUnicode:KING
Artist:Nakiri Ayame
ArtistUnicode:百鬼あやめ
Creator:Petal
Version:Garden's Hard
Source:
Tags:Kanaria キング japanese jpop pop j-pop hololive ボカロ vocaloid ホロライブ vtuber virtual youtuber gumi cover full too matha garden ojou pachiru
BeatmapID:2918765
BeatmapSetID:1415465

[Difficulty]
HPDrainRate:5
CircleSize:4
OverallDifficulty:6
ApproachRate:7.7
SliderMultiplier:1.4
SliderTickRate:1

[Events]
//Background and Video events
0,0,"BG.jpg",0,0
//Break Periods
2,67132,77703
//Storyboard Layer 0 (Background)
//Storyboard Layer 1 (Fail)
//Storyboard Layer 2 (Pass)
//Storyboard Layer 3 (Foreground)
//Storyboard Layer 4 (Overlay)
//Storyboard Sound Samples

[TimingPoints]
426,361.44578313253,4,2,3,30,1,0
3317,-100,4,2,1,60,0,0
5486,-133.333333333333,4,2,1,60,0,0
6209,-100,4,2,1,60,0,0
8377,-133.333333333333,4,2,1,60,0,0
9100,-100,4,2,1,60,0,0
11269,-133.333333333333,4,2,1,60,0,0
11992,-100,4,2,1,60,0,0
14160,-133.333333333333,4,2,1,60,0,0
14883,-111.111111111111,4,2,1,50,0,0
15967,-111.111111111111,4,2,3,50,0,0
16329,-111.111111111111,4,2,1,50,0,0
17413,-111.111111111111,4,2,3,50,0,0
17775,-111.111111111111,4,2,1,50,0,0
21388,-111.111111111111,4,2,3,50,0,0
21931,-111.111111111111,4,2,1,50,0,0
23196,-111.111111111111,4,2,3,50,0,0
23558,-111.111111111111,4,2,1,50,0,0
26450,-111.111111111111,4,2,1,60,0,0
26630,-100,4,2,1,60,0,0
38016,-100,4,2,1,40,0,0
39462,-100,4,2,1,60,0,0
40185,-133.333333333333,4,2,1,60,0,0
40727,-133.333333333333,4,2,1,20,0,0
40907,-133.333333333333,4,2,1,60,0,0
41269,-83.3333333333333,4,2,1,60,0,0
52474,-83.3333333333333,4,2,3,70,0,1
52564,-83.3333333333333,4,2,1,70,0,1
53197,-83.3333333333333,4,2,3,70,0,1
53287,-83.3333333333333,4,2,1,70,0,1
58257,-83.3333333333333,4,2,3,70,0,1
58347,-83.3333333333333,4,2,1,70,0,1
58980,-83.3333333333333,4,2,3,70,0,1
59070,-83.3333333333333,4,2,1,70,0,1
64040,-83.3333333333333,4,2,1,70,0,0
65486,-83.3333333333333,4,2,1,60,0,0
66209,-133.333333333333,4,2,1,40,0,0
66932,-133.333333333333,4,2,3,60,0,0
78498,-100,4,2,1,50,0,0
90064,-100,4,2,1,60,0,0
90425,-83.3333333333333,4,2,1,60,0,0
101630,-83.3333333333333,4,2,3,70,0,1
101721,-83.3333333333333,4,2,1,70,0,1
102353,-83.3333333333333,4,2,3,70,0,1
102444,-83.3333333333333,4,2,1,70,0,1
107413,-83.3333333333333,4,2,3,70,0,1
107504,-83.3333333333333,4,2,1,70,0,1
108136,-83.3333333333333,4,2,3,70,0,1
108227,-83.3333333333333,4,2,1,70,0,1
113197,-83.3333333333333,4,2,1,60,0,0
115365,-100,4,2,1,60,0,0
116088,-90.9090909090909,4,2,1,65,0,0
118257,-125,4,2,1,65,0,0
118980,-90.9090909090909,4,2,1,65,0,0
124040,-125,4,2,1,65,0,0
124763,-90.9090909090909,4,2,1,65,0,0
127654,-90.9090909090909,4,2,1,35,0,0
128197,-133.333333333333,4,2,1,35,0,0

[Colours]
Combo1 : 255,228,126
Combo2 : 246,0,87
Combo3 : 177,168,196
Combo4 : 170,0,51

[HitObjects]
5,199,3317,6,0,L|122:178,1,105,6|0,3:2|2:0,2:0:0:0:
124,184,3679,2,0,P|157:220|153:247,1,70,10|2,2:0|2:0,2:0:0:0:
109,318,4040,1,2,3:2:0:0:
109,318,4221,1,2,2:0:0:0:
191,355,4401,2,0,L|284:339,1,70,10|2,2:0|2:0,2:0:0:0:
348,380,4763,5,2,3:2:0:0:
348,380,4944,1,2,2:0:0:0:
416,320,5124,1,10,2:0:0:0:
416,320,5305,1,2,2:0:0:0:
331,277,5486,2,0,L|349:172,1,105.000004005432,2|10,3:2|2:0,2:0:0:0:
337,165,6209,6,0,L|319:268,1,105,2|0,3:2|2:0,2:0:0:0:
331,277,6570,2,0,P|365:279|395:259,1,70,10|2,2:0|2:0,2:0:0:0:
465,202,6932,1,2,3:2:0:0:
465,202,7112,1,2,2:0:0:0:
417,124,7293,2,0,L|432:35,1,70,10|2,2:0|2:0,2:0:0:0:
351,6,7654,5,2,3:2:0:0:
351,6,7835,1,2,2:0:0:0:
307,87,8016,1,10,2:0:0:0:
307,87,8197,1,2,2:0:0:0:
226,45,8377,2,0,B|183:39|183:39|169:46|169:46|123:39,1,105.000004005432,2|8,3:2|2:0,2:0:0:0:
123,39,9100,6,0,P|158:73|146:141,1,105,6|0,3:2|2:0,2:0:0:0:
145,144,9462,2,0,L|68:135,1,70,10|2,2:0|2:0,2:0:0:0:
7,196,9823,1,2,3:2:0:0:
7,196,10004,1,2,2:0:0:0:
69,262,10185,2,0,L|138:270,1,70,10|2,2:0|2:0,2:0:0:0:
210,214,10546,5,2,3:2:0:0:
210,214,10727,1,2,2:0:0:0:
145,144,10907,1,10,2:0:0:0:
145,144,11088,1,2,2:0:0:0:
212,84,11269,2,0,P|281:86|312:118,1,105.000004005432,2|10,3:2|2:0,2:0:0:0:
312,94,11992,6,0,P|269:65|218:71,1,105.000004005432,2|0,3:2|2:0,2:0:0:0:
212,84,12353,2,0,L|227:162,1,70,10|2,2:0|2:0,2:0:0:0:
303,209,12715,1,2,3:2:0:0:
303,209,12895,1,2,2:0:0:0:
379,157,13076,1,10,2:0:0:0:
379,157,13257,1,2,2:0:0:0:
457,203,13438,6,0,L|472:281,1,70,2|2,3:2|2:0,2:0:0:0:
403,383,13799,2,0,L|390:315,1,70,10|2,2:0|2:0,2:0:0:0:
298,301,14160,2,0,B|253:298|253:298|241:307|241:307|196:304,1,105.000004005432,2|8,3:2|2:0,2:0:0:0:
196,304,14883,6,0,P|175:342|83:340,1,125.999996154785,2|0,3:2|3:0,2:0:0:0:
31,313,15425,1,2,2:0:0:0:
31,313,15606,2,0,L|47:181,1,125.999996154785,2|2,3:2|3:2,2:0:0:0:
4,29,16329,6,0,P|39:79|122:71,1,125.999996154785,2|2,3:2|3:2,2:0:0:0:
166,35,16871,1,2,2:0:0:0:
166,35,17052,2,0,L|307:45,1,125.999996154785,2|2,3:2|3:2,2:0:0:0:
454,20,17775,6,0,P|407:40|398:125,1,125.999996154785,2|2,3:2|3:2,2:0:0:0:
463,155,18317,1,2,2:0:0:0:
463,155,18498,2,0,L|449:235,1,62.9999980773926,2|0,3:2|2:0,2:0:0:0:
498,290,18859,1,2,3:2:0:0:
498,290,19040,2,0,L|365:304,1,125.999996154785,2|2,2:0|2:0,2:0:0:0:
309,355,19582,5,2,3:2:0:0:
179,254,19944,1,2,3:2:0:0:
327,184,20305,1,2,3:2:0:0:
197,83,20666,6,0,L|64:97,2,125.999996154785,2|0|2,3:2|3:0|3:2,2:0:0:0:
197,83,21751,2,0,L|208:159,1,62.9999980773926,0|2,3:0|2:0,2:0:0:0:
285,164,22112,6,0,P|330:121|398:124,1,125.999996154785,0|2,3:0|3:2,2:0:0:0:
465,166,22654,1,2,2:0:0:0:
465,166,22835,2,0,L|441:295,1,125.999996154785,2|2,3:2|3:2,2:0:0:0:
307,380,23558,6,0,P|260:336|188:344,1,125.999996154785,2|2,3:2|3:2,2:0:0:0:
122,359,24100,1,2,2:0:0:0:
122,359,24281,2,0,L|111:286,1,62.9999980773926,2|0,3:2|2:0,2:0:0:0:
44,261,24642,1,2,3:2:0:0:
44,261,24823,2,0,L|179:238,1,125.999996154785,2|0,2:0|2:0,2:0:0:0:
249,227,25365,5,2,3:2:0:0:
107,143,25727,1,2,3:2:0:0:
226,31,26088,2,0,L|297:19,1,62.9999980773926,2|0,3:2|2:0,2:0:0:0:
384,6,26450,5,6,3:2:0:0:
388,10,26630,2,0,L|372:90,1,70,2|2,2:0|3:2,2:0:0:0:
442,139,26992,1,2,2:0:0:0:
359,176,27172,2,0,L|269:189,1,70,2|2,3:2|2:0,2:0:0:0:
264,190,27444,1,0,2:0:0:0:
268,194,27534,2,0,P|253:228|263:261,1,70,2|0,3:2|2:0,2:0:0:0:
337,307,27895,5,2,3:2:0:0:
341,311,28076,1,2,2:0:0:0:
281,380,28257,1,2,3:2:0:0:
281,380,28438,1,2,2:0:0:0:
203,333,28618,2,0,L|120:322,1,70,2|0,3:2|2:0,2:0:0:0:
112,333,28889,1,2,2:0:0:0:
112,333,28980,2,0,P|83:305|90:261,1,70,0|2,3:0|2:0,2:0:0:0:
143,209,29341,5,0,3:0:0:0:
147,213,29522,2,0,L|132:135,1,70,2|2,2:0|3:2,2:0:0:0:
51,105,29883,1,2,2:0:0:0:
123,49,30064,2,0,L|214:60,1,70,2|2,3:2|2:0,2:0:0:0:
209,72,30335,1,0,2:0:0:0:
213,76,30425,2,0,P|252:82|289:55,1,70,2|2,3:2|2:0,2:0:0:0:
339,0,30787,5,2,3:2:0:0:
343,4,30968,1,2,2:0:0:0:
408,65,31148,1,2,3:2:0:0:
412,69,31329,1,2,2:0:0:0:
478,131,31510,5,6,3:2:0:0:
377,223,31781,1,6,3:2:0:0:
476,316,32052,1,6,3:2:0:0:
400,367,32233,5,6,3:2:0:0:
404,371,32413,2,0,L|333:363,1,70,2|2,2:0|3:2,2:0:0:0:
243,353,32775,1,2,2:0:0:0:
297,280,32956,2,0,L|290:211,1,70,2|2,3:2|2:0,2:0:0:0:
314,198,33227,1,0,2:0:0:0:
314,198,33317,2,0,P|338:166|331:124,1,70,2|2,3:2|2:0,2:0:0:0:
286,66,33679,5,2,3:2:0:0:
286,66,33859,1,2,2:0:0:0:
220,128,34040,1,2,3:2:0:0:
220,128,34221,1,2,2:0:0:0:
160,59,34401,2,0,L|75:51,1,70,2|0,3:2|2:0,2:0:0:0:
69,55,34672,1,2,2:0:0:0:
69,55,34763,2,0,P|41:92|49:131,1,70,0|2,3:0|2:0,2:0:0:0:
119,170,35124,5,0,3:0:0:0:
119,170,35305,2,0,L|134:255,1,70,2|2,2:0|3:2,2:0:0:0:
69,306,35666,1,2,2:0:0:0:
149,349,35847,2,0,L|236:331,1,70,2|2,3:2|2:0,2:0:0:0:
241,345,36118,1,0,2:0:0:0:
241,345,36209,2,0,P|272:365|316:353,1,70,2|2,3:2|2:0,2:0:0:0:
391,316,36570,5,2,3:2:0:0:
256,192,36932,1,2,3:2:0:0:
391,316,37293,6,0,L|374:245,1,70,2|0,3:2|2:0,2:0:0:0:
256,192,37654,2,0,L|239:121,1,70,2|0,3:2|2:0,2:0:0:0:
321,20,38016,1,2,2:0:0:0:
414,136,39462,5,10,3:2:0:0:
256,192,39823,1,10,3:2:0:0:
98,248,40185,2,0,B|112:183|112:183|125:171|125:171|140:99,1,157.500006008148,10|0,3:2|2:0,2:0:0:0:
84,11,40907,5,10,3:2:0:0:
84,11,41269,2,0,L|187:-4,1,83.9999974365235,10|0,3:2|2:0,2:0:0:0:
248,72,41630,2,0,L|351:57,1,83.9999974365235,10|0,3:2|2:0,2:0:0:0:
354,40,41901,2,0,P|418:72|424:122,1,125.999996154785,10|10,3:2|3:2,2:0:0:0:
328,168,42353,5,10,3:2:0:0:
328,168,42715,2,0,L|338:253,1,83.9999974365235,10|0,3:2|2:0,2:0:0:0:
228,262,43076,2,0,L|237:345,1,83.9999974365235,10|0,3:2|2:0,2:0:0:0:
207,366,43347,2,0,P|145:365|103:320,1,125.999996154785,10|10,3:2|3:2,2:0:0:0:
138,219,43799,5,10,3:2:0:0:
138,219,44160,2,0,L|40:208,1,83.9999974365235,10|0,3:2|2:0,2:0:0:0:
18,105,44522,2,0,L|101:114,1,83.9999974365235,10|0,3:2|2:0,2:0:0:0:
131,125,44793,2,0,P|176:79|242:85,1,125.999996154785,10|10,3:2|3:2,2:0:0:0:
314,6,45245,6,0,B|338:70|338:70|367:87|367:87|390:152,1,167.999994873047,10|10,3:2|3:2,2:0:0:0:
484,202,45787,2,0,L|490:174,3,27.9999991455078,0|0|0|10,2:0|3:0|3:0|3:2,2:0:0:0:
387,367,46329,1,10,3:2:0:0:
292,312,46510,1,10,3:2:0:0:
387,259,46691,5,10,3:2:0:0:
387,259,47052,2,0,L|356:162,1,83.9999974365235,10|0,3:2|2:0,2:0:0:0:
452,118,47413,2,0,L|421:21,1,83.9999974365235,10|0,3:2|2:0,2:0:0:0:
395,23,47685,2,0,P|360:72|293:74,1,125.999996154785,10|10,3:2|3:2,2:0:0:0:
207,15,48136,5,10,3:2:0:0:
207,15,48498,2,0,L|113:31,1,83.9999974365235,10|0,3:2|2:0,2:0:0:0:
97,135,48859,2,0,L|179:120,1,83.9999974365235,10|0,3:2|2:0,2:0:0:0:
213,129,49130,2,0,P|254:190|234:245,1,125.999996154785,10|10,3:2|3:2,2:0:0:0:
158,307,49582,5,10,3:2:0:0:
158,307,49944,2,0,P|131:272|138:217,1,83.9999974365235,10|0,3:2|2:0,2:0:0:0:
240,236,50305,2,0,P|265:268|267:309,1,83.9999974365235,10|0,3:2|2:0,2:0:0:0:
249,340,50576,2,0,L|387:308,1,125.999996154785,10|10,3:2|3:2,2:0:0:0:
405,301,50938,1,2,2:0:0:0:
409,305,51028,5,10,3:2:0:0:
360,92,51389,1,10,3:2:0:0:
200,241,51751,1,10,3:2:0:0:
151,28,52112,2,0,L|199:37,3,41.9999987182618,10|0|0|0,3:2|3:0|3:0|3:0,2:0:0:0:
210,65,52474,6,0,L|69:89,1,125.999996154785,6|0,3:2|2:0,2:0:0:0:
58,93,52835,2,0,L|44:194,1,83.9999974365235,10|0,2:0|2:0,2:0:0:0:
115,262,53197,2,0,L|256:238,1,125.999996154785,2|0,3:2|2:0,2:0:0:0:
267,234,53558,2,0,L|281:133,1,83.9999974365235,10|0,2:0|2:0,2:0:0:0:
327,55,53919,5,0,3:0:0:0:
327,55,54100,2,0,P|432:66|446:142,1,167.999994873047,2|2,2:0|2:0,2:0:0:0:
502,209,54642,2,0,L|398:222,1,83.9999974365235,2|2,3:2|2:0,2:0:0:0:
313,237,55004,1,10,2:0:0:0:
313,237,55185,1,2,2:0:0:0:
418,219,55365,2,0,P|409:304|327:340,1,167.999994873047,2|8,3:2|2:0,2:0:0:0:
313,237,55907,6,0,P|305:196|278:165,1,83.9999974365235,2|0,2:0|3:0,2:0:0:0:
157,308,56269,2,0,P|188:281|201:242,1,83.9999974365235,2|8,2:0|2:0,2:0:0:0:
15,221,56630,2,0,P|53:235|94:226,1,83.9999974365235,2|0,2:0|3:0,2:0:0:0:
166,144,56992,5,2,2:0:0:0:
166,144,57172,2,0,L|138:43,1,83.9999974365235,10|2,2:0|2:0,2:0:0:0:
35,40,57534,2,0,L|57:120,1,83.9999974365235,2|2,3:2|2:0,2:0:0:0:
252,87,57895,1,10,2:0:0:0:
252,87,58257,6,0,L|290:221,1,125.999996154785,6|0,3:2|2:0,2:0:0:0:
297,241,58618,2,0,L|200:234,1,83.9999974365235,10|0,2:0|2:0,2:0:0:0:
406,286,58980,2,0,L|368:152,1,125.999996154785,2|0,3:2|2:0,2:0:0:0:
361,132,59341,2,0,L|458:139,1,83.9999974365235,10|0,2:0|2:0,2:0:0:0:
340,39,59703,5,0,3:0:0:0:
340,39,59883,2,0,P|290:-8|171:29,1,167.999994873047,2|2,2:0|2:0,2:0:0:0:
111,71,60425,2,0,L|135:162,1,83.9999974365235,2|2,3:2|2:0,2:0:0:0:
164,262,60787,1,10,2:0:0:0:
164,262,60968,1,2,2:0:0:0:
55,276,61148,2,0,P|63:195|132:152,1,167.999994873047,2|8,3:2|2:0,2:0:0:0:
208,328,61691,6,0,P|176:300|163:261,1,83.9999974365235,2|0,2:0|3:0,2:0:0:0:
347,228,62053,2,0,P|308:241|267:233,1,83.9999974365235,2|8,2:0|2:0,2:0:0:0:
343,62,62414,2,0,P|336:101|307:132,1,83.9999974365235,2|0,2:0|3:0,2:0:0:0:
200,36,62775,2,0,P|221:39|238:51,2,41.9999987182618,2|0|10,2:0|2:0|2:0,2:0:0:0:
421,162,63317,5,2,3:2:0:0:
466,34,63679,1,10,2:0:0:0:
421,162,64040,1,6,3:2:0:0:
449,304,65486,5,10,3:2:0:0:
453,308,65666,1,10,3:2:0:0:
491,227,65847,1,10,3:2:0:0:
491,227,66028,1,10,3:2:0:0:
421,162,66209,2,0,L|405:50,1,105.000004005432,2|2,2:0|2:0,2:0:0:0:
257,194,66932,5,6,3:2:0:0:
42,349,78498,6,0,L|56:271,1,70,6|2,3:2|2:0,2:0:0:0:
143,262,78859,2,0,L|157:184,1,70,10|2,2:0|2:0,2:0:0:0:
79,142,79221,1,2,3:2:0:0:
163,101,79401,1,2,2:0:0:0:
163,101,79492,1,2,2:0:0:0:
163,101,79582,2,0,L|252:88,1,70,10|0,2:0|2:0,2:0:0:0:
297,26,79944,5,2,3:2:0:0:
297,26,80034,2,0,P|336:29|367:68,1,70,2|2,2:0|2:0,2:0:0:0:
371,67,80305,2,0,L|357:142,1,70,10|2,2:0|2:0,2:0:0:0:
340,225,80666,2,0,L|267:235,1,70,2|2,3:2|2:0,2:0:0:0:
246,323,81028,2,0,L|315:313,1,70,10|2,2:0|2:0,2:0:0:0:
391,364,81389,5,2,3:2:0:0:
459,303,81570,1,2,2:0:0:0:
459,303,81660,1,2,2:0:0:0:
459,303,81751,2,0,L|472:223,1,70,10|2,2:0|2:0,2:0:0:0:
416,160,82112,1,2,3:2:0:0:
491,109,82293,1,2,2:0:0:0:
416,160,82474,2,0,L|340:171,1,70,10|0,2:0|2:0,2:0:0:0:
271,128,82835,5,2,3:2:0:0:
271,128,82925,2,0,P|253:97|269:55,1,70,2|2,2:0|2:0,2:0:0:0:
273,47,83197,2,0,L|181:60,1,70,10|2,2:0|2:0,2:0:0:0:
160,137,83558,2,0,L|68:150,1,70,2|2,3:2|2:0,2:0:0:0:
47,227,83919,1,10,2:0:0:0:
47,227,84281,6,0,P|32:262|50:308,1,70,6|2,3:2|2:0,2:0:0:0:
127,308,84642,2,0,P|146:336|179:348,1,70,10|2,2:0|2:0,2:0:0:0:
266,321,85004,1,2,3:2:0:0:
226,250,85185,1,2,2:0:0:0:
226,250,85275,1,2,2:0:0:0:
226,250,85365,2,0,L|239:161,1,70,10|0,2:0|2:0,2:0:0:0:
168,127,85727,5,2,3:2:0:0:
168,127,85817,2,0,P|150:90|165:53,1,70,2|2,2:0|2:0,2:0:0:0:
175,51,86088,2,0,L|262:40,1,70,10|2,2:0|2:0,2:0:0:0:
326,93,86450,1,2,3:2:0:0:
326,93,86630,1,2,2:0:0:0:
390,28,86811,1,10,2:0:0:0:
390,28,86992,1,2,2:0:0:0:
458,87,87172,6,0,L|477:171,2,70,2|2|10,3:2|2:0|2:0,2:0:0:0:
390,28,87715,1,2,2:0:0:0:
326,93,87895,2,0,L|345:177,1,70,2|2,3:2|2:0,2:0:0:0:
362,179,88166,1,2,2:0:0:0:
362,179,88257,2,0,P|365:219|323:246,1,70,10|0,2:0|2:0,2:0:0:0:
267,282,88618,5,2,3:2:0:0:
267,282,88709,2,0,L|178:274,1,70,2|0,2:0|2:0,2:0:0:0:
180,293,88980,2,0,L|91:285,1,70,10|2,2:0|2:0,2:0:0:0:
39,229,89341,5,10,3:2:0:0:
55,139,89522,1,10,3:2:0:0:
135,96,89703,1,10,3:2:0:0:
218,130,89883,1,10,3:2:0:0:
292,30,90064,5,14,3:2:0:0:
292,30,90425,2,0,L|320:137,1,83.9999974365235,10|0,3:2|2:0,2:0:0:0:
421,92,90787,2,0,L|449:199,1,83.9999974365235,10|0,3:2|2:0,2:0:0:0:
471,195,91058,2,0,P|404:209|374:277,1,125.999996154785,10|10,3:2|3:2,2:0:0:0:
360,366,91510,5,10,3:2:0:0:
360,366,91871,2,0,L|454:345,1,83.9999974365235,10|0,3:2|2:0,2:0:0:0:
277,297,92233,2,0,L|195:315,1,83.9999974365235,10|0,3:2|2:0,2:0:0:0:
171,343,92504,2,0,P|110:338|75:286,1,125.999996154785,10|10,3:2|3:2,2:0:0:0:
167,227,92956,5,10,3:2:0:0:
167,227,93317,2,0,L|185:136,1,83.9999974365235,10|0,3:2|2:0,2:0:0:0:
79,109,93679,2,0,L|97:18,1,83.9999974365235,10|0,3:2|2:0,2:0:0:0:
120,9,93950,2,0,P|181:8|222:53,1,125.999996154785,10|10,3:2|3:2,2:0:0:0:
277,147,94401,6,0,B|347:133|347:133|371:144|371:144|439:130,1,167.999994873047,10|10,3:2|3:2,2:0:0:0:
480,28,94944,2,0,L|442:21,3,27.9999991455078,0|0|0|10,2:0|3:0|3:0|3:2,2:0:0:0:
398,232,95486,1,10,3:2:0:0:
439,130,95666,1,10,3:2:0:0:
338,87,95847,5,10,3:2:0:0:
338,87,96209,2,0,L|240:105,1,83.9999974365235,10|0,3:2|2:0,2:0:0:0:
163,42,96570,2,0,L|65:60,1,83.9999974365235,10|0,3:2|2:0,2:0:0:0:
49,44,96841,2,0,P|3:84|12:143,1,125.999996154785,10|10,3:2|3:2,2:0:0:0:
101,215,97293,5,10,3:2:0:0:
101,215,97654,2,0,L|86:310,1,83.9999974365235,10|0,3:2|2:0,2:0:0:0:
183,383,98016,2,0,L|197:301,1,83.9999974365235,10|0,3:2|2:0,2:0:0:0:
218,275,98287,2,0,P|287:280|333:223,1,125.999996154785,10|10,3:2|3:2,2:0:0:0:
348,139,98739,5,10,3:2:0:0:
348,139,99100,2,0,L|449:119,1,83.9999974365235,10|0,3:2|2:0,2:0:0:0:
455,15,99462,2,0,L|372:31,1,83.9999974365235,10|0,3:2|2:0,2:0:0:0:
343,53,99733,2,0,P|302:14|230:20,1,125.999996154785,10|10,3:2|3:2,2:0:0:0:
205,38,100094,1,0,3:0:0:0:
205,38,100185,5,10,3:2:0:0:
252,250,100546,1,10,3:2:0:0:
47,172,100907,1,10,3:2:0:0:
94,384,101269,2,0,L|108:334,3,41.9999987182618,10|0|0|0,3:2|3:0|3:0|3:0,2:0:0:0:
137,336,101630,6,0,B|194:343|194:343|202:354|202:354|256:361,1,125.999996154785,6|0,3:2|2:0,2:0:0:0:
286,364,101992,2,0,L|275:281,1,83.9999974365235,10|0,2:0|2:0,2:0:0:0:
259,172,102353,2,0,B|201:164|201:164|194:154|194:154|139:146,1,125.999996154785,2|0,3:2|2:0,2:0:0:0:
110,144,102715,2,0,L|121:227,1,83.9999974365235,10|0,2:0|2:0,2:0:0:0:
23,101,103076,5,0,3:0:0:0:
23,100,103257,2,0,P|92:47|174:75,1,167.999994873047,2|2,2:0|2:0,2:0:0:0:
256,134,103799,1,2,3:2:0:0:
256,134,103980,1,2,2:0:0:0:
277,30,104160,1,10,2:0:0:0:
277,30,104341,1,2,2:0:0:0:
363,97,104522,2,0,B|379:161|379:161|367:192|367:192|386:257,1,167.999994873047,2|8,3:2|2:0,2:0:0:0:
458,340,105064,6,0,P|421:366|379:366,1,83.9999974365235,2|0,2:0|3:0,2:0:0:0:
417,159,105425,2,0,P|458:178|479:214,1,83.9999974365235,2|8,2:0|2:0,2:0:0:0:
282,286,105787,2,0,P|277:240|298:204,1,83.9999974365235,2|0,2:0|3:0,2:0:0:0:
327,105,106148,5,2,2:0:0:0:
327,105,106329,2,0,L|298:23,1,83.9999974365235,10|2,2:0|2:0,2:0:0:0:
105,0,106691,2,0,L|133:79,1,83.9999974365235,2|2,3:2|2:0,2:0:0:0:
227,134,107052,1,10,2:0:0:0:
227,134,107413,6,0,B|176:149|176:149|163:163|163:163|111:179,1,125.999996154785,6|0,3:2|2:0,2:0:0:0:
78,175,107775,2,0,L|57:281,1,83.9999974365235,10|0,2:0|2:0,2:0:0:0:
44,365,108136,2,0,B|95:350|95:350|108:336|108:336|160:320,1,125.999996154785,2|0,3:2|2:0,2:0:0:0:
193,324,108498,2,0,L|214:218,1,83.9999974365235,10|0,2:0|2:0,2:0:0:0:
313,201,108859,5,0,3:0:0:0:
313,201,109040,2,0,P|380:208|434:129,1,167.999994873047,2|2,2:0|2:0,2:0:0:0:
411,30,109582,1,2,3:2:0:0:
411,30,109763,1,2,2:0:0:0:
512,65,109944,1,8,2:0:0:0:
512,65,110124,1,2,2:0:0:0:
336,105,110305,2,0,B|273:99|273:99|243:82|243:82|173:74,1,167.999994873047,2|8,3:2|2:0,2:0:0:0:
63,74,110847,6,0,P|74:130|116:154,1,83.9999974365235,2|0,2:0|3:0,2:0:0:0:
71,254,111209,2,0,P|29:256|-1:283,1,83.9999974365235,2|8,2:0|2:0,2:0:0:0:
206,302,111570,2,0,P|179:271|177:230,1,83.9999974365235,2|0,2:0|3:0,2:0:0:0:
201,122,111932,2,0,L|248:128,2,41.9999987182618,2|0|10,2:0|2:0|2:0,2:0:0:0:
403,2,112474,5,2,3:2:0:0:
375,139,112835,1,10,2:0:0:0:
403,2,113197,1,6,3:2:0:0:
488,174,114642,5,10,2:0:0:0:
488,174,114823,1,10,2:0:0:0:
403,154,115004,1,10,2:0:0:0:
403,154,115185,1,10,2:0:0:0:
314,136,115365,2,0,B|328:197|328:197|341:205|341:205|362:282,1,140,2|2,2:0|2:0,2:0:0:0:
357,264,116088,6,0,L|221:252,1,115.50000352478,6|0,3:2|2:0,2:0:0:0:
224,267,116450,2,0,P|223:306|190:333,1,77.0000023498536,10|2,2:0|2:0,2:0:0:0:
106,370,116811,1,2,3:2:0:0:
106,370,116992,1,2,2:0:0:0:
59,281,117172,2,0,P|59:243|86:217,1,77.0000023498536,10|2,2:0|2:0,2:0:0:0:
181,178,117534,5,2,3:2:0:0:
181,178,117715,1,2,2:0:0:0:
103,115,117895,1,10,2:0:0:0:
103,115,118076,1,2,2:0:0:0:
197,71,118257,2,0,L|311:83,1,112,2|10,3:2|2:0,2:0:0:0:
322,71,118980,6,0,L|206:58,1,115.50000352478,2|0,3:2|2:0,2:0:0:0:
197,71,119341,2,0,P|202:130|237:154,1,77.0000023498536,10|2,2:0|2:0,2:0:0:0:
312,171,119703,1,2,3:2:0:0:
312,171,119883,1,2,2:0:0:0:
237,238,120064,2,0,L|224:324,1,77.0000023498536,10|2,2:0|2:0,2:0:0:0:
309,377,120425,5,2,3:2:0:0:
309,377,120606,1,2,2:0:0:0:
334,282,120787,1,10,2:0:0:0:
334,282,120968,1,2,2:0:0:0:
421,330,121148,2,0,P|458:327|487:302,1,77.0000023498536,2|0,3:2|2:0,2:0:0:0:
430,154,121510,2,0,P|437:191|421:226,1,77.0000023498536,10|0,2:0|2:0,2:0:0:0:
334,282,121871,6,0,B|285:294|285:294|279:303|279:303|222:318,1,115.50000352478,6|0,3:2|2:0,2:0:0:0:
211,334,122233,2,0,P|164:340|128:309,1,77.0000023498536,10|2,2:0|2:0,2:0:0:0:
82,250,122594,1,2,3:2:0:0:
82,250,122775,1,2,2:0:0:0:
160,187,122956,2,0,L|143:96,1,77.0000023498536,10|2,2:0|2:0,2:0:0:0:
56,77,123317,5,2,3:2:0:0:
56,77,123498,1,2,2:0:0:0:
127,6,123679,1,10,2:0:0:0:
127,6,123859,1,2,2:0:0:0:
219,48,124040,2,0,B|281:39|254:18|322:9,1,112,2|10,3:2|2:0,2:0:0:0:
339,14,124763,6,0,B|270:22|297:43|230:55,1,115.50000352478,2|0,3:2|2:0,2:0:0:0:
219,48,125124,2,0,L|235:134,1,77.0000023498536,10|2,2:0|2:0,2:0:0:0:
333,154,125486,1,2,3:2:0:0:
333,154,125666,1,2,2:0:0:0:
418,102,125847,2,0,L|434:188,1,77.0000023498536,10|2,2:0|2:0,2:0:0:0:
364,253,126209,5,2,3:2:0:0:
364,253,126389,1,2,2:0:0:0:
463,285,126570,1,10,2:0:0:0:
463,285,126751,1,2,2:0:0:0:
385,348,126932,2,0,P|350:351|305:327,1,77.0000023498536,2|2,3:2|2:0,2:0:0:0:
266,245,127293,2,0,P|231:228|193:231,1,77.0000023498536,10|10,2:0|2:0,2:0:0:0:
108,289,127654,5,6,3:2:0:0:
10,200,128016,1,0,3:0:0:0:
10,200,128197,2,0,L|18:141,1,52.5000020027161,0|0,2:0|3:0,2:0:0:0:
94,132,128558,2,0,L|102:73,1,52.5000020027161,0|0,2:0|3:0,2:0:0:0:
181,66,128919,1,0,2:0:0:0:
181,66,129100,6,0,L|302:47,1,105.000004005432,0|0,3:0|3:0,2:0:0:0:
342,103,129642,2,0,L|413:91,1,52.5000020027161,0|0,2:0|3:0,2:0:0:0:
451,148,130004,2,0,L|522:136,1,52.5000020027161,0|0,2:0|3:0,2:0:0:0:
391,205,130365,1,0,2:0:0:0:
391,205,130546,6,0,L|372:328,1,105.000004005432,0|0,3:0|3:0,2:0:0:0:
297,323,131088,2,0,L|289:374,1,52.5000020027161,0|0,2:0|3:0,2:0:0:0:
233,233,131450,2,0,L|226:285,1,52.5000020027161,0|0,2:0|3:0,2:0:0:0:
170,341,131811,1,0,2:0:0:0:
170,341,131992,6,0,L|51:354,1,105.000004005432,0|0,3:0|3:0,2:0:0:0:
1,306,132534,2,0,L|11:248,1,52.5000020027161,0|0,2:0|3:0,2:0:0:0:
84,229,132895,2,0,L|94:171,1,52.5000020027161,0|0,2:0|3:0,2:0:0:0:
31,127,133257,1,0,2:0:0:0:
