osu file format v14

[General]
AudioFilename: audio.ogg
AudioLeadIn: 0
PreviewTime: 52432
Countdown: 0
SampleSet: Normal
StackLeniency: 0.7
Mode: 1
LetterboxInBreaks: 0
WidescreenStoryboard: 0

[Editor]
DistanceSpacing: 0.8
BeatDivisor: 8
GridSize: 32
TimelineZoom: 2.1

[Metadata]
Title:KING
TitleUnicode:KING
Artist:Nakiri Ayame
ArtistUnicode:百鬼あやめ
Creator:[Zeth]
Version:OJOU
Source:
Tags:ごず gozu vocaloid バーチャル ユーチューバー cover カバー hololive ホロライブ 2nd second generation 2期生 Nikisei vtuber kanaria gumi グミ virtual youtuber japanese pop j-pop jpop x_a_v_y xavy cdh cdhsausageboy TLQ_Yoshii _yosh BlackBq BlackBN
BeatmapID:2975809
BeatmapSetID:1446994

[Difficulty]
HPDrainRate:6
CircleSize:2
OverallDifficulty:6
ApproachRate:10
SliderMultiplier:1.4
SliderTickRate:1

[Events]
//Background and Video events
0,0,"E0I6vHvVUAYIM3h.jpg",0,80
//Break Periods
//Storyboard Layer 0 (Background)
//Storyboard Layer 1 (Fail)
//Storyboard Layer 2 (Pass)
//Storyboard Layer 3 (Foreground)
//Storyboard Layer 4 (Overlay)
//Storyboard Sound Samples

[TimingPoints]
374,361.44578313253,4,1,0,75,1,0
374,-125,4,1,0,40,0,0
1819,-123.456790123457,4,1,0,40,0,0
2000,-120.481927710843,4,1,0,40,0,0
2181,-116.279069767442,4,1,0,40,0,0
2361,-111.111111111111,4,1,0,40,0,0
2542,-105.263157894737,4,1,0,40,0,0
3265,-90.9090909090909,4,1,0,90,0,1
3536,-100,4,1,0,90,0,1
9048,-90.9090909090909,4,1,0,90,0,1
9229,-100,4,1,0,90,0,1
14470,-102.040816326531,4,1,0,90,0,0
14515,-104.166666666667,4,1,0,86,0,0
14606,-106.382978723404,4,1,0,82,0,0
14696,-108.695652173913,4,1,0,78,0,0
14786,-111.111111111111,4,1,0,75,0,0
15012,-125,4,1,0,75,0,0
19892,-113.636363636364,4,1,0,75,0,0
19982,-114.942528735632,4,1,0,75,0,0
20072,-116.279069767442,4,1,0,75,0,0
20163,-117.64705882353,4,1,0,75,0,0
20253,-119.047619047619,4,1,0,75,0,0
20343,-120.481927710843,4,1,0,75,0,0
20434,-121.951219512195,4,1,0,75,0,0
20524,-123.456790123457,4,1,0,75,0,0
20614,-125,4,1,0,75,0,0
25133,-121.212121212121,4,1,0,75,0,0
25313,-117.647058823529,4,1,0,75,0,0
25675,-111.111111111111,4,1,0,75,0,0
26036,-105.263157894737,4,1,0,75,0,0
26217,-105.263157894737,4,1,0,85,0,0
26398,-90.9090909090909,4,1,0,85,0,0
26488,-100,4,1,0,85,0,0
32181,-90.9090909090909,4,1,0,85,0,0
32361,-100,4,1,0,85,0,0
36608,-99.3820424599838,4,1,0,85,0,0
36699,-98.7717730027113,4,1,0,85,0,0
36879,-97.5733507664387,4,1,0,85,0,0
36970,-96.9849324208991,4,1,0,85,0,0
37060,-96.4035684744906,4,1,0,85,0,0
37241,-95.261593097726,4,1,0,85,0,0
37331,-94.7006465213138,4,1,0,85,0,0
37422,-94.1463561594312,4,1,0,85,0,0
37602,-93.0569294377221,4,1,0,85,0,0
37693,-92.5215737179517,4,1,0,85,0,0
37783,-91.9923425574055,4,1,0,85,0,0
37964,-90.9519209955233,4,1,0,85,0,0
38145,-90.9519209955233,4,1,0,40,0,0
38325,-94.3396226415094,4,1,0,40,0,0
38506,-96.1538461538461,4,1,0,40,0,0
38687,-98.0392156862745,4,1,0,40,0,0
38867,-100,4,1,0,40,0,0
39048,-102.040816326531,4,1,0,40,0,0
39229,-104.166666666667,4,1,0,40,0,0
39319,-104.166666666667,4,1,0,90,0,0
39410,-76.9230769230769,4,1,0,90,0,0
39771,-83.3333333333333,4,1,0,90,0,0
40133,-90.9090909090909,4,1,0,90,0,0
40675,-90.9090909090909,4,1,0,85,0,0
40855,-125,4,1,0,85,0,0
41217,-123.553039466547,4,1,0,85,0,0
41398,-122.842124529975,4,1,0,85,0,0
41488,-122.489576137071,4,1,0,85,0,0
41578,-122.139194711861,4,1,0,85,0,0
41759,-121.444411249639,4,1,0,85,0,0
41849,-121.099975295605,4,1,0,85,0,0
41940,-120.757341744485,4,1,0,85,0,0
42120,-120.078146857975,4,1,0,85,0,0
42301,-119.406406870167,4,1,0,85,0,0
42392,-119.073418288248,4,1,0,85,0,0
42482,-118.742281751686,4,1,0,85,0,0
42663,-118.08536390957,4,1,0,85,0,0
42843,-117.435812520771,4,1,0,85,0,0
43024,-116.793368005391,4,1,0,85,0,0
43205,-116.157779434962,4,1,0,85,0,0
43295,-115.842639358695,4,1,0,85,0,0
43476,-115.217328686234,4,1,0,85,0,0
43566,-114.907264092514,4,1,0,85,0,0
43657,-114.598863866864,4,1,0,85,0,0
43747,-114.292114644134,4,1,0,85,0,0
44108,-113.081237561064,4,1,0,85,0,0
44289,-112.485306606824,4,1,0,85,0,0
44380,-112.189753261076,4,1,0,85,0,0
44470,-111.895748968601,4,1,0,85,0,0
44651,-111.3123390841,4,1,0,85,0,0
44741,-111.022786316664,4,1,0,85,0,0
44831,-110.7348586691,4,1,0,85,0,0
44922,-110.448420587586,4,1,0,85,0,0
45012,-110.163460542753,4,1,0,85,0,0
45193,-109.597808920604,4,1,0,85,0,0
45373,-109.038055371705,4,1,0,85,0,0
45464,-108.760317275598,4,1,0,85,0,0
45554,-108.483872787471,4,1,0,85,0,0
45735,-107.935411449788,4,1,0,85,0,0
45795,-107.753743903832,4,1,0,85,0,0
45855,-107.572802583468,4,1,0,85,0,0
45916,-107.392352590572,4,1,0,85,0,0
46096,-106.854845172672,4,1,0,85,0,0
46277,-106.322578450115,4,1,0,85,0,0
46458,-105.795700039568,4,1,0,85,0,0
46639,-105.274017740777,4,1,0,85,0,0
47000,-104.245828342564,4,1,0,85,0,0
47181,-103.739174817108,4,1,0,85,0,0
47271,-103.487743946484,4,1,0,85,0,0
47361,-103.237528906508,4,1,0,85,0,0
47542,-102.74060565587,4,1,0,85,0,0
47633,-102.493986165362,4,1,0,85,0,0
47723,-102.248547815,4,1,0,85,0,0
47904,-101.761077202059,4,1,0,85,0,0
48084,-101.278335146216,4,1,0,85,0,0
48175,-101.038677605787,4,1,0,85,0,0
48265,-100.800151603428,4,1,0,85,0,0
48446,-100.326361654462,4,1,0,85,0,0
48627,-99.8571044834841,4,1,0,85,0,0
48807,-99.3921178074894,4,1,0,85,0,0
48988,-98.9315393747527,4,1,0,85,0,0
49078,-98.7028471823298,4,1,0,85,0,0
49259,-98.248523570312,4,1,0,85,0,0
49349,-98.0229746247926,4,1,0,85,0,0
49440,-97.7984588918848,4,1,0,85,0,0
49530,-97.574874079625,4,1,0,85,0,0
49892,-96.6909457631478,4,1,0,85,0,0
49982,-96.472483635855,4,1,0,85,0,0
50072,-96.2550064635237,4,1,0,85,0,0
50253,-95.8229804588196,4,1,0,85,0,0
50434,-95.3947242901679,4,1,0,85,0,0
50524,-95.1820737889509,4,1,0,85,0,0
50614,-94.9703692447956,4,1,0,85,0,0
50795,-94.5496834949345,4,1,0,85,0,0
50855,-94.410341331148,4,1,0,85,0,0
50916,-94.2713204018221,4,1,0,85,0,0
50976,-94.1327969019014,4,1,0,85,0,0
51157,-93.7194825934805,4,1,0,85,0,0
51247,-93.5142272545345,4,1,0,85,0,0
51337,-93.3098690116059,4,1,0,85,0,0
51518,-92.9037340797839,4,1,0,85,0,0
51608,-92.7020324920624,4,1,0,85,0,0
51699,-92.5012048281929,4,1,0,85,0,0
51880,-92.1021486510259,4,1,0,85,0,0
51970,-91.9038244857522,4,1,0,85,0,0
52060,-91.7064366913785,4,1,0,85,0,0
52151,-91.5098949649426,4,1,0,85,0,0
52241,-91.3141938782964,4,1,0,90,0,0
52301,-91.1841354193832,4,1,0,90,0,0
52361,-91.0545298262771,4,1,0,90,0,0
52422,-90.9252094689513,4,1,0,90,0,1
55855,-89.2857142857143,4,1,0,90,0,1
56036,-90.9090909090909,4,1,0,90,0,1
56217,-86.9565217391304,4,1,0,90,0,1
56398,-90.9090909090909,4,1,0,90,0,1
56578,-84.0336134453781,4,1,0,90,0,1
56759,-90.9090909090909,4,1,0,90,0,1
58205,-83.3333333333333,4,1,0,90,0,1
58386,-90.9090909090909,4,1,0,90,0,1
61639,-89.2857142857143,4,1,0,90,0,1
61819,-90.9090909090909,4,1,0,90,0,1
62000,-86.9565217391304,4,1,0,90,0,1
62181,-90.9090909090909,4,1,0,90,0,1
62361,-84.0336134453781,4,1,0,90,0,1
62542,-90.9090909090909,4,1,0,90,0,1
63265,-76.9230769230769,4,1,0,90,0,1
63627,-83.3333333333333,4,1,0,90,0,1
63988,-90.9090909090909,4,1,0,90,0,0
64346,-94.3396226415094,4,1,0,40,0,0
64527,-96.1538461538461,4,1,0,40,0,0
64708,-98.0392156862745,4,1,0,40,0,0
64888,-100,4,1,0,40,0,0
65069,-102.040816326531,4,1,0,40,0,0
65250,-104.166666666667,4,1,0,90,0,0
65434,-74.0740740740741,4,1,0,90,0,0
65614,-78.125,4,1,0,90,0,0
65795,-82.6446280991736,4,1,0,90,0,0
65976,-87.719298245614,4,1,0,90,0,0
66880,-90.9090909090909,4,1,0,90,0,1
67060,-100,4,1,0,90,0,1
72663,-90.9090909090909,4,1,0,90,0,1
72843,-100,4,1,0,90,0,1
78084,-102.040816326531,4,1,0,90,0,1
78175,-104.166666666667,4,1,0,90,0,1
78265,-106.382978723404,4,1,0,90,0,1
78355,-108.695652173913,4,1,0,90,0,1
78446,-111.111111111111,4,1,0,85,0,0
84952,-105.263157894737,4,1,0,85,0,0
85133,-111.111111111111,4,1,0,85,0,0
89289,-108.695652173913,4,1,0,85,0,0
89380,-107.52688172043,4,1,0,85,0,0
89470,-106.382978723404,4,1,0,85,0,0
89560,-105.263157894737,4,1,0,85,0,0
89651,-104.166666666667,4,1,0,85,0,0
89831,-102.040816326531,4,1,0,85,0,0
90012,-100,4,1,0,85,0,0
90373,-123.552123552124,4,1,0,85,0,0
90554,-122.84076642811,4,1,0,85,0,0
90645,-122.488075785822,4,1,0,85,0,0
90735,-122.137404580153,4,1,0,85,0,0
90916,-121.442051496288,4,1,0,85,0,0
91006,-121.097482262246,4,1,0,85,0,0
91096,-120.754716981132,4,1,0,85,0,0
91277,-120.074974814274,4,1,0,85,0,0
91458,-119.402985074627,4,1,0,85,0,0
91548,-119.069731997847,4,1,0,85,0,0
91639,-118.738333958689,4,1,0,85,0,0
91819,-118.081180811808,4,1,0,85,0,0
92000,-117.431123710166,4,1,0,85,0,0
92181,-116.788321167883,4,1,0,85,0,0
92361,-116.152382633825,4,1,0,85,0,0
92452,-115.837137617995,4,1,0,85,0,0
92633,-115.211487967888,4,1,0,85,0,0
92723,-114.901322744027,4,1,0,85,0,0
92813,-114.592691736492,4,1,0,85,0,0
92904,-114.285714285714,4,1,0,85,0,0
93265,-113.074204946996,4,1,0,85,0,0
93446,-112.477968377944,4,1,0,85,0,0
93536,-112.182327693554,4,1,0,85,0,0
93627,-111.888111888112,4,1,0,85,0,0
93807,-111.304285882832,4,1,0,85,0,0
93898,-111.014774956399,4,1,0,85,0,0
93988,-110.726643598616,4,1,0,85,0,0
94078,-110.440004020016,4,1,0,85,0,0
94169,-110.154844665146,4,1,0,85,0,0
94349,-109.58904109589,4,1,0,85,0,0
94530,-109.028901381178,4,1,0,85,0,0
94620,-108.751091589082,4,1,0,85,0,0
94711,-108.474576271186,4,1,0,85,0,0
94892,-107.925742771943,4,1,0,85,0,0
94952,-107.744107744108,4,1,0,85,0,0
95012,-107.562967361093,4,1,0,85,0,0
95072,-107.38255033557,4,1,0,85,0,0
95253,-106.844684156429,4,1,0,85,0,0
95434,-106.312292358804,4,1,0,85,0,0
95614,-105.785068014509,4,1,0,85,0,0
95795,-105.263157894737,4,1,0,85,0,0
96157,-104.234527687296,4,1,0,85,0,0
96337,-103.727660951618,4,1,0,85,0,0
96428,-103.47617874889,4,1,0,85,0,0
96518,-103.225806451613,4,1,0,85,0,0
96699,-102.72867917628,4,1,0,85,0,0
96789,-102.482011844871,4,1,0,85,0,0
96880,-102.23642172524,4,1,0,85,0,0
97060,-101.748755867088,4,1,0,85,0,0
97241,-101.26582278481,4,1,0,85,0,0
97331,-101.026020261779,4,1,0,85,0,0
97422,-100.787350784327,4,1,0,85,0,0
97602,-100.313479623824,4,1,0,85,0,0
97783,-99.8439439156598,4,1,0,85,0,0
97964,-99.3788819875776,4,1,0,85,0,0
98145,-98.918034538221,4,1,0,85,0,0
98235,-98.6893073096209,4,1,0,85,0,0
98416,-98.2348185455549,4,1,0,85,0,0
98506,-98.0091403324274,4,1,0,85,0,0
98596,-97.784592277364,4,1,0,85,0,0
98687,-97.5609756097561,4,1,0,85,0,0
99048,-96.6767371601208,4,1,0,85,0,0
99139,-96.4581530771598,4,1,0,85,0,0
99229,-96.2405551925148,4,1,0,85,0,0
99410,-95.8083832335329,4,1,0,85,0,0
99590,-95.3799843195306,4,1,0,85,0,0
99681,-95.1673088873895,4,1,0,85,0,0
99771,-94.9554896142433,4,1,0,85,0,0
99952,-94.5346672805118,4,1,0,85,0,0
100012,-94.3952802359882,4,1,0,85,0,0
100072,-94.2562147835218,4,1,0,85,0,0
100133,-94.1176470588235,4,1,0,85,0,0
100313,-93.7042020712377,4,1,0,85,0,0
100404,-93.498926164833,4,1,0,85,0,0
100494,-93.2944606413994,4,1,0,85,0,0
100675,-92.8882869727893,4,1,0,85,0,0
100765,-92.6864805645719,4,1,0,85,0,0
100855,-92.485549132948,4,1,0,85,0,0
101036,-92.0862885358096,4,1,0,85,0,0
101127,-91.8880325945229,4,1,0,85,0,0
101217,-91.6905444126075,4,1,0,85,0,0
101307,-91.4939033037533,4,1,0,85,0,0
101398,-91.2981038296816,4,1,0,90,0,0
101458,-91.1680911680912,4,1,0,90,0,0
101518,-91.0383653879418,4,1,0,90,0,0
101578,-90.9090909090909,4,1,0,90,0,1
105012,-89.2857142857143,4,1,0,90,0,1
105193,-90.9090909090909,4,1,0,90,0,1
105373,-86.9565217391304,4,1,0,90,0,1
105554,-90.9090909090909,4,1,0,90,0,1
105735,-84.0336134453781,4,1,0,90,0,1
105916,-90.9090909090909,4,1,0,90,0,1
107361,-83.3333333333333,4,1,0,90,0,1
107452,-90.9090909090909,4,1,0,90,0,1
110795,-89.2857142857143,4,1,0,90,0,1
110976,-90.9090909090909,4,1,0,90,0,1
111157,-86.9565217391304,4,1,0,90,0,1
111337,-90.9090909090909,4,1,0,90,0,1
111518,-84.0336134453781,4,1,0,90,0,1
111699,-90.9090909090909,4,1,0,90,0,1
112418,-76.9230769230769,4,1,0,90,0,1
112780,-83.3333333333333,4,1,0,90,0,1
113145,-90.9090909090909,4,1,0,100,0,0
113499,-94.3396226415094,4,1,0,40,0,0
113680,-96.1538461538461,4,1,0,40,0,0
113861,-98.0392156862745,4,1,0,40,0,0
114041,-100,4,1,0,40,0,0
114222,-102.040816326531,4,1,0,40,0,0
114403,-104.166666666667,4,1,0,40,0,0
114545,-74.0740740740741,4,1,0,90,0,0
114726,-78.125,4,1,0,90,0,0
114907,-82.6446280991736,4,1,0,90,0,0
115087,-87.719298245614,4,1,0,90,0,0
116036,-83.3333333333333,4,1,0,90,0,1
116217,-90.9090909090909,4,1,0,90,0,1
121096,-88.4955752212389,4,1,0,90,0,1
121277,-90.9090909090909,4,1,0,90,0,1
121458,-86.2068965517241,4,1,0,90,0,1
121639,-90.9090909090909,4,1,0,90,0,1
121819,-83.3333333333333,4,1,0,90,0,1
122000,-90.9090909090909,4,1,0,90,0,1
127602,-90.9090909090909,4,1,0,80,0,0
127828,-90.9090909090909,4,1,0,65,0,0
127964,-93.6518119284313,4,1,0,65,0,0
128145,-95.086138532897,4,1,0,65,0,0
128325,-96.5651766659907,4,1,0,65,0,0
128506,-98.0908576377956,4,1,0,65,0,0
128687,-99.6655225064683,4,1,0,65,0,0
128867,-101.291671393611,4,1,0,65,0,0
129048,-102.971659110263,4,1,0,65,0,0
129410,-106.504665969416,4,1,0,65,0,0
129590,-108.363611932567,4,1,0,65,0,0
129771,-110.288724852792,4,1,0,65,0,0
129952,-112.283349277569,4,1,0,65,0,0
130133,-114.351450033562,4,1,0,65,0,0
130313,-116.497299010122,4,1,0,65,0,0
130494,-118.725082573295,4,1,0,65,0,0
130855,-123.446579110123,4,1,0,65,0,0
131036,-125.95092951786,4,1,0,65,0,0
131217,-128.559160354412,4,1,0,65,0,0
131398,-131.277527256497,4,1,0,65,0,0
131578,-134.113336498408,4,1,0,65,0,0
131759,-137.074554850383,4,1,0,65,0,0
131940,-140.169296476284,4,1,0,65,0,0
132301,-146.798041126939,4,1,0,65,0,0
132482,-150.353104265367,4,1,0,65,0,0
132663,-154.084866862971,4,1,0,65,0,0
132843,-158.006339214329,4,1,0,65,0,0
133024,-162.132627732137,4,1,0,65,0,0
133205,-166.480485989835,4,1,0,65,0,0

[HitObjects]
256,192,374,5,0,0:0:0:0:
256,192,735,1,2,0:0:0:0:
256,192,916,1,2,0:0:0:0:
256,192,1096,1,0,0:0:0:0:
256,192,1277,1,2,0:0:0:0:
256,192,1458,1,0,0:0:0:0:
256,192,1639,1,2,0:0:0:0:
256,192,1819,1,0,0:0:0:0:
256,192,2000,1,0,0:0:0:0:
256,192,2181,1,2,0:0:0:0:
256,192,2361,1,2,0:0:0:0:
256,192,2542,1,0,0:0:0:0:
256,192,3265,1,4,0:0:0:0:
256,192,3536,1,0,0:0:0:0:
256,192,3627,1,2,0:0:0:0:
256,192,3807,1,0,0:0:0:0:
256,192,3988,1,2,0:0:0:0:
256,192,4078,1,2,0:0:0:0:
256,192,4169,1,0,0:0:0:0:
256,192,4259,1,0,0:0:0:0:
256,192,4349,1,2,0:0:0:0:
256,192,4530,1,2,0:0:0:0:
256,192,4711,1,0,0:0:0:0:
256,192,4801,1,0,0:0:0:0:
256,192,4892,1,2,0:0:0:0:
256,192,4982,1,0,0:0:0:0:
256,192,5072,1,2,0:0:0:0:
256,192,5253,1,0,0:0:0:0:
256,192,5434,1,2,0:0:0:0:
256,192,5614,1,0,0:0:0:0:
256,192,5705,1,0,0:0:0:0:
256,192,5795,1,2,0:0:0:0:
256,192,6157,1,0,0:0:0:0:
256,192,6428,1,0,0:0:0:0:
256,192,6518,1,2,0:0:0:0:
256,192,6699,1,0,0:0:0:0:
256,192,6880,1,2,0:0:0:0:
256,192,6970,1,2,0:0:0:0:
256,192,7060,1,0,0:0:0:0:
256,192,7151,1,2,0:0:0:0:
256,192,7241,1,0,0:0:0:0:
256,192,7422,1,2,0:0:0:0:
256,192,7602,1,0,0:0:0:0:
256,192,7783,1,2,0:0:0:0:
256,192,7873,1,2,0:0:0:0:
256,192,7964,1,0,0:0:0:0:
256,192,8054,1,0,0:0:0:0:
256,192,8145,1,2,0:0:0:0:
256,192,8325,1,0,0:0:0:0:
256,192,8506,1,2,0:0:0:0:
256,192,8596,1,0,0:0:0:0:
256,192,8687,1,2,0:0:0:0:
256,192,9048,1,4,0:0:0:0:
256,192,9319,1,0,0:0:0:0:
256,192,9410,1,2,0:0:0:0:
256,192,9590,1,0,0:0:0:0:
256,192,9771,1,2,0:0:0:0:
256,192,9861,1,2,0:0:0:0:
256,192,9952,1,0,0:0:0:0:
256,192,10042,1,0,0:0:0:0:
256,192,10133,1,2,0:0:0:0:
256,192,10313,1,2,0:0:0:0:
256,192,10494,1,0,0:0:0:0:
256,192,10584,1,0,0:0:0:0:
256,192,10675,1,2,0:0:0:0:
256,192,10765,1,0,0:0:0:0:
256,192,10855,1,2,0:0:0:0:
256,192,11036,1,0,0:0:0:0:
256,192,11217,1,2,0:0:0:0:
256,192,11307,1,2,0:0:0:0:
256,192,11398,1,0,0:0:0:0:
256,192,11578,1,2,0:0:0:0:
256,192,11940,1,0,0:0:0:0:
256,192,12211,1,0,0:0:0:0:
256,192,12301,1,2,0:0:0:0:
256,192,12482,1,0,0:0:0:0:
256,192,12663,1,2,0:0:0:0:
256,192,12753,1,2,0:0:0:0:
256,192,12843,1,0,0:0:0:0:
256,192,12934,1,2,0:0:0:0:
256,192,13024,1,0,0:0:0:0:
256,192,13205,1,2,0:0:0:0:
256,192,13386,1,0,0:0:0:0:
256,192,13566,1,2,0:0:0:0:
256,192,13657,1,2,0:0:0:0:
256,192,13747,1,0,0:0:0:0:
256,192,13837,1,0,0:0:0:0:
256,192,13928,1,2,0:0:0:0:
256,192,14108,1,0,0:0:0:0:
256,192,14470,1,2,0:0:0:0:
256,192,14560,1,2,0:0:0:0:
256,192,14651,1,2,0:0:0:0:
256,192,14741,1,2,0:0:0:0:
256,192,14831,1,0,0:0:0:0:
256,192,15193,1,0,0:0:0:0:
256,192,15373,1,2,0:0:0:0:
256,192,15554,1,0,0:0:0:0:
256,192,15916,1,2,0:0:0:0:
256,192,16096,1,2,0:0:0:0:
256,192,16277,1,0,0:0:0:0:
256,192,16458,1,0,0:0:0:0:
256,192,16639,1,2,0:0:0:0:
256,192,17000,1,0,0:0:0:0:
256,192,17361,1,2,0:0:0:0:
256,192,17542,1,0,0:0:0:0:
256,192,17723,1,2,0:0:0:0:
256,192,18084,1,0,0:0:0:0:
256,192,18265,1,0,0:0:0:0:
256,192,18446,1,2,0:0:0:0:
256,192,18807,1,0,0:0:0:0:
256,192,18988,1,2,0:0:0:0:
256,192,19169,1,0,0:0:0:0:
256,192,19349,1,0,0:0:0:0:
256,192,19530,1,2,0:0:0:0:
256,192,19711,1,0,0:0:0:0:
256,192,19892,1,2,0:0:0:0:
256,192,19982,1,2,0:0:0:0:
256,192,20072,1,0,0:0:0:0:
256,192,20163,1,0,0:0:0:0:
256,192,20253,1,2,0:0:0:0:
256,192,20343,1,0,0:0:0:0:
256,192,20434,1,2,0:0:0:0:
256,192,20524,1,2,0:0:0:0:
256,192,20614,1,0,0:0:0:0:
256,192,20976,1,2,0:0:0:0:
256,192,21157,1,0,0:0:0:0:
256,192,21337,1,2,0:0:0:0:
256,192,21699,1,0,0:0:0:0:
256,192,21880,1,2,0:0:0:0:
256,192,22060,1,0,0:0:0:0:
256,192,22241,1,0,0:0:0:0:
256,192,22422,1,2,0:0:0:0:
256,192,22783,1,0,0:0:0:0:
256,192,23145,1,2,0:0:0:0:
256,192,23325,1,0,0:0:0:0:
256,192,23506,1,2,0:0:0:0:
256,192,23867,1,0,0:0:0:0:
256,192,24048,1,0,0:0:0:0:
256,192,24229,1,2,0:0:0:0:
256,192,24590,1,2,0:0:0:0:
256,192,24771,1,2,0:0:0:0:
256,192,24952,1,0,0:0:0:0:
256,192,25133,1,2,0:0:0:0:
256,192,25313,1,0,0:0:0:0:
256,192,25675,1,2,0:0:0:0:
256,192,26036,1,2,0:0:0:0:
256,192,26398,1,4,0:0:0:0:
256,192,26578,1,2,0:0:0:0:
256,192,26669,1,2,0:0:0:0:
256,192,26759,1,0,0:0:0:0:
256,192,26940,1,2,0:0:0:0:
256,192,27120,1,0,0:0:0:0:
256,192,27211,1,0,0:0:0:0:
256,192,27301,1,2,0:0:0:0:
256,192,27392,1,2,0:0:0:0:
256,192,27482,1,0,0:0:0:0:
256,192,27663,1,2,0:0:0:0:
256,192,27843,1,0,0:0:0:0:
256,192,28024,1,2,0:0:0:0:
256,192,28114,1,0,0:0:0:0:
256,192,28205,1,2,0:0:0:0:
256,192,28386,1,0,0:0:0:0:
256,192,28566,1,2,0:0:0:0:
256,192,28747,1,0,0:0:0:0:
256,192,28837,1,2,0:0:0:0:
256,192,29018,1,2,0:0:0:0:
256,192,29108,1,0,0:0:0:0:
256,192,29289,1,0,0:0:0:0:
256,192,29470,1,2,0:0:0:0:
256,192,29560,1,0,0:0:0:0:
256,192,29651,1,2,0:0:0:0:
256,192,29831,1,0,0:0:0:0:
256,192,30012,1,2,0:0:0:0:
256,192,30102,1,2,0:0:0:0:
256,192,30193,1,0,0:0:0:0:
256,192,30283,1,0,0:0:0:0:
256,192,30373,1,2,0:0:0:0:
256,192,30554,1,0,0:0:0:0:
256,192,30735,1,2,0:0:0:0:
256,192,30825,1,2,0:0:0:0:
256,192,30916,1,2,0:0:0:0:
256,192,31096,1,0,0:0:0:0:
256,192,31277,1,0,0:0:0:0:
256,192,31367,1,0,0:0:0:0:
256,192,31458,1,2,0:0:0:0:
256,192,31639,1,2,0:0:0:0:
256,192,31729,1,0,0:0:0:0:
256,192,31910,1,0,0:0:0:0:
256,192,32000,1,2,0:0:0:0:
256,192,32181,1,4,0:0:0:0:
256,192,32361,1,2,0:0:0:0:
256,192,32452,1,2,0:0:0:0:
256,192,32542,1,0,0:0:0:0:
256,192,32723,1,2,0:0:0:0:
256,192,32904,1,0,0:0:0:0:
256,192,32994,1,0,0:0:0:0:
256,192,33084,1,2,0:0:0:0:
256,192,33175,1,0,0:0:0:0:
256,192,33265,1,2,0:0:0:0:
256,192,33446,1,2,0:0:0:0:
256,192,33627,1,0,0:0:0:0:
256,192,33807,1,2,0:0:0:0:
256,192,33898,1,0,0:0:0:0:
256,192,33988,1,2,0:0:0:0:
256,192,34078,1,2,0:0:0:0:
256,192,34169,1,0,0:0:0:0:
256,192,34349,1,2,0:0:0:0:
256,192,34440,1,0,0:0:0:0:
256,192,34530,1,0,0:0:0:0:
256,192,34620,1,2,0:0:0:0:
256,192,34801,1,0,0:0:0:0:
256,192,34892,1,2,0:0:0:0:
256,192,35072,1,0,0:0:0:0:
256,192,35253,1,2,0:0:0:0:
256,192,35343,1,0,0:0:0:0:
256,192,35434,1,2,0:0:0:0:
256,192,35614,1,0,0:0:0:0:
256,192,35795,1,2,0:0:0:0:
256,192,35886,1,2,0:0:0:0:
256,192,35976,1,0,0:0:0:0:
256,192,36066,1,2,0:0:0:0:
256,192,36157,1,0,0:0:0:0:
256,192,36337,1,0,0:0:0:0:
256,192,36518,1,2,0:0:0:0:
256,192,36608,1,2,0:0:0:0:
256,192,36699,1,2,0:0:0:0:
256,192,36880,1,0,0:0:0:0:
256,192,36970,1,0,0:0:0:0:
256,192,37060,1,0,0:0:0:0:
256,192,37241,1,2,0:0:0:0:
256,192,37331,1,2,0:0:0:0:
256,192,37422,1,0,0:0:0:0:
256,192,37602,1,2,0:0:0:0:
256,192,37693,1,0,0:0:0:0:
256,192,37783,1,2,0:0:0:0:
256,192,37964,1,0,0:0:0:0:
256,192,38325,1,2,0:0:0:0:
256,192,38506,1,2,0:0:0:0:
256,192,38687,1,0,0:0:0:0:
256,192,38867,1,2,0:0:0:0:
256,192,39048,1,0,0:0:0:0:
256,192,39229,1,2,0:0:0:0:
256,192,39410,1,4,0:0:0:0:
256,192,39771,1,4,0:0:0:0:
256,192,40133,1,4,0:0:0:0:
256,192,40855,5,2,0:0:0:0:
256,192,41217,1,2,0:0:0:0:
256,192,41398,1,0,0:0:0:0:
256,192,41488,1,0,0:0:0:0:
256,192,41578,1,2,0:0:0:0:
256,192,41759,1,0,0:0:0:0:
256,192,41849,1,2,0:0:0:0:
256,192,41940,1,0,0:0:0:0:
256,192,42120,1,2,0:0:0:0:
256,192,42301,1,2,0:0:0:0:
256,192,42392,1,2,0:0:0:0:
256,192,42482,1,0,0:0:0:0:
256,192,42663,1,2,0:0:0:0:
256,192,42843,1,0,0:0:0:0:
256,192,43024,1,2,0:0:0:0:
256,192,43205,1,0,0:0:0:0:
256,192,43295,1,2,0:0:0:0:
256,192,43476,1,0,0:0:0:0:
256,192,43566,1,2,0:0:0:0:
256,192,43657,1,2,0:0:0:0:
256,192,43747,1,0,0:0:0:0:
256,192,44108,1,2,0:0:0:0:
256,192,44289,1,0,0:0:0:0:
256,192,44380,1,0,0:0:0:0:
256,192,44470,1,2,0:0:0:0:
256,192,44651,1,0,0:0:0:0:
256,192,44741,1,2,0:0:0:0:
256,192,44831,1,0,0:0:0:0:
256,192,44922,1,0,0:0:0:0:
256,192,45012,1,2,0:0:0:0:
256,192,45193,1,2,0:0:0:0:
256,192,45373,1,2,0:0:0:0:
256,192,45464,1,0,0:0:0:0:
256,192,45554,1,2,0:0:0:0:
256,192,45735,1,0,0:0:0:0:
256,192,45795,1,0,0:0:0:0:
256,192,45855,1,0,0:0:0:0:
256,192,45916,1,2,0:0:0:0:
256,192,46096,1,0,0:0:0:0:
256,192,46277,1,2,0:0:0:0:
256,192,46458,1,2,0:0:0:0:
256,192,46639,1,2,0:0:0:0:
256,192,47000,1,2,0:0:0:0:
256,192,47181,1,0,0:0:0:0:
256,192,47271,1,0,0:0:0:0:
256,192,47361,1,2,0:0:0:0:
256,192,47542,1,0,0:0:0:0:
256,192,47633,1,2,0:0:0:0:
256,192,47723,1,0,0:0:0:0:
256,192,47904,1,2,0:0:0:0:
256,192,48084,1,2,0:0:0:0:
256,192,48175,1,2,0:0:0:0:
256,192,48265,1,0,0:0:0:0:
256,192,48446,1,2,0:0:0:0:
256,192,48627,1,0,0:0:0:0:
256,192,48807,1,2,0:0:0:0:
256,192,48988,1,0,0:0:0:0:
256,192,49078,1,2,0:0:0:0:
256,192,49259,1,0,0:0:0:0:
256,192,49349,1,2,0:0:0:0:
256,192,49440,1,0,0:0:0:0:
256,192,49530,1,0,0:0:0:0:
256,192,49892,1,2,0:0:0:0:
256,192,49982,1,2,0:0:0:0:
256,192,50072,1,0,0:0:0:0:
256,192,50253,1,2,0:0:0:0:
256,192,50434,1,0,0:0:0:0:
256,192,50524,1,2,0:0:0:0:
256,192,50614,1,0,0:0:0:0:
256,192,50795,1,2,0:0:0:0:
256,192,50855,1,0,0:0:0:0:
256,192,50916,1,0,0:0:0:0:
256,192,50976,1,2,0:0:0:0:
256,192,51157,1,2,0:0:0:0:
256,192,51247,1,2,0:0:0:0:
256,192,51337,1,0,0:0:0:0:
256,192,51518,1,0,0:0:0:0:
256,192,51608,1,0,0:0:0:0:
256,192,51699,1,2,0:0:0:0:
256,192,51880,1,2,0:0:0:0:
256,192,51970,1,0,0:0:0:0:
256,192,52060,1,2,0:0:0:0:
256,192,52151,1,2,0:0:0:0:
256,192,52241,1,0,0:0:0:0:
256,192,52301,1,0,0:0:0:0:
256,192,52361,1,0,0:0:0:0:
256,192,52422,1,2,0:0:0:0:
256,192,52602,1,2,0:0:0:0:
256,192,52693,1,2,0:0:0:0:
256,192,52783,1,0,0:0:0:0:
256,192,52964,1,0,0:0:0:0:
256,192,53054,1,0,0:0:0:0:
256,192,53145,1,2,0:0:0:0:
256,192,53325,1,2,0:0:0:0:
256,192,53416,1,2,0:0:0:0:
256,192,53506,1,0,0:0:0:0:
256,192,53687,1,2,0:0:0:0:
256,192,53867,1,0,0:0:0:0:
256,192,54048,1,2,0:0:0:0:
256,192,54139,1,2,0:0:0:0:
256,192,54229,1,0,0:0:0:0:
256,192,54410,1,2,0:0:0:0:
256,192,54590,1,0,0:0:0:0:
256,192,54681,1,0,0:0:0:0:
256,192,54771,1,2,0:0:0:0:
256,192,54861,1,2,0:0:0:0:
256,192,54952,1,0,0:0:0:0:
256,192,55133,1,2,0:0:0:0:
256,192,55313,1,0,0:0:0:0:
256,192,55494,1,2,0:0:0:0:
256,192,55584,1,2,0:0:0:0:
256,192,55675,1,0,0:0:0:0:
256,192,55855,1,6,0:0:0:0:
256,192,56036,1,0,0:0:0:0:
256,192,56217,1,6,0:0:0:0:
256,192,56398,1,0,0:0:0:0:
256,192,56578,1,6,0:0:0:0:
256,192,56759,1,0,0:0:0:0:
256,192,56940,1,2,0:0:0:0:
256,192,57030,1,2,0:0:0:0:
256,192,57120,1,0,0:0:0:0:
256,192,57211,1,2,0:0:0:0:
256,192,57301,1,0,0:0:0:0:
256,192,57482,1,2,0:0:0:0:
256,192,57572,1,2,0:0:0:0:
256,192,57663,1,0,0:0:0:0:
256,192,57753,1,0,0:0:0:0:
256,192,57843,1,2,0:0:0:0:
256,192,58205,1,4,0:0:0:0:
256,192,58386,1,2,0:0:0:0:
256,192,58476,1,0,0:0:0:0:
256,192,58566,1,0,0:0:0:0:
256,192,58747,1,0,0:0:0:0:
256,192,58837,1,2,0:0:0:0:
256,192,58928,1,2,0:0:0:0:
256,192,59108,1,2,0:0:0:0:
256,192,59199,1,0,0:0:0:0:
256,192,59289,1,0,0:0:0:0:
256,192,59470,1,2,0:0:0:0:
256,192,59651,1,0,0:0:0:0:
256,192,59831,1,2,0:0:0:0:
256,192,59922,1,0,0:0:0:0:
256,192,60012,1,0,0:0:0:0:
256,192,60193,1,2,0:0:0:0:
256,192,60373,1,0,0:0:0:0:
256,192,60464,1,0,0:0:0:0:
256,192,60554,1,2,0:0:0:0:
256,192,60645,1,0,0:0:0:0:
256,192,60735,1,2,0:0:0:0:
256,192,60916,1,2,0:0:0:0:
256,192,61096,1,0,0:0:0:0:
256,192,61277,1,2,0:0:0:0:
256,192,61367,1,2,0:0:0:0:
256,192,61458,1,0,0:0:0:0:
256,192,61639,1,6,0:0:0:0:
256,192,61819,1,0,0:0:0:0:
256,192,62000,1,6,0:0:0:0:
256,192,62181,1,0,0:0:0:0:
256,192,62361,1,6,0:0:0:0:
256,192,62542,1,0,0:0:0:0:
256,192,62633,1,0,0:0:0:0:
256,192,62723,1,2,0:0:0:0:
256,192,62813,1,2,0:0:0:0:
256,192,62904,1,0,0:0:0:0:
256,192,63084,1,0,0:0:0:0:
256,192,63265,1,6,0:0:0:0:
256,192,63627,1,6,0:0:0:0:
256,192,63988,1,4,0:0:0:0:
256,192,64349,1,2,0:0:0:0:
256,192,64530,1,0,0:0:0:0:
256,192,64711,1,2,0:0:0:0:
256,192,64892,1,0,0:0:0:0:
256,192,65072,1,2,0:0:0:0:
256,192,65253,1,2,0:0:0:0:
256,192,65434,1,4,0:0:0:0:
256,192,65614,1,4,0:0:0:0:
256,192,65795,1,4,0:0:0:0:
256,192,65976,1,4,0:0:0:0:
256,192,66880,1,4,0:0:0:0:
256,192,67151,1,0,0:0:0:0:
256,192,67241,1,2,0:0:0:0:
256,192,67331,1,2,0:0:0:0:
256,192,67422,1,0,0:0:0:0:
256,192,67602,1,2,0:0:0:0:
256,192,67693,1,2,0:0:0:0:
256,192,67783,1,0,0:0:0:0:
256,192,67873,1,0,0:0:0:0:
256,192,67964,1,2,0:0:0:0:
256,192,68145,1,2,0:0:0:0:
256,192,68325,1,0,0:0:0:0:
256,192,68416,1,0,0:0:0:0:
256,192,68506,1,2,0:0:0:0:
256,192,68596,1,0,0:0:0:0:
256,192,68687,1,2,0:0:0:0:
256,192,68867,1,0,0:0:0:0:
256,192,69048,1,2,0:0:0:0:
256,192,69139,1,2,0:0:0:0:
256,192,69229,1,0,0:0:0:0:
256,192,69319,1,0,0:0:0:0:
256,192,69410,1,2,0:0:0:0:
256,192,69590,1,2,0:0:0:0:
256,192,69681,1,2,0:0:0:0:
256,192,69771,1,0,0:0:0:0:
256,192,70042,1,0,0:0:0:0:
256,192,70133,1,2,0:0:0:0:
256,192,70223,1,0,0:0:0:0:
256,192,70313,1,0,0:0:0:0:
256,192,70494,1,2,0:0:0:0:
256,192,70584,1,2,0:0:0:0:
256,192,70675,1,0,0:0:0:0:
256,192,70765,1,2,0:0:0:0:
256,192,70855,1,0,0:0:0:0:
256,192,71036,1,2,0:0:0:0:
256,192,71217,1,0,0:0:0:0:
256,192,71398,1,2,0:0:0:0:
256,192,71488,1,2,0:0:0:0:
256,192,71578,1,0,0:0:0:0:
256,192,71669,1,0,0:0:0:0:
256,192,71759,1,2,0:0:0:0:
256,192,71940,1,0,0:0:0:0:
256,192,72030,1,2,0:0:0:0:
256,192,72120,1,2,0:0:0:0:
256,192,72211,1,0,0:0:0:0:
256,192,72301,1,2,0:0:0:0:
256,192,72482,1,2,0:0:0:0:
256,192,72663,1,4,0:0:0:0:
256,192,72934,1,0,0:0:0:0:
256,192,73024,1,2,0:0:0:0:
256,192,73114,1,2,0:0:0:0:
256,192,73205,1,0,0:0:0:0:
256,192,73386,1,2,0:0:0:0:
256,192,73476,1,2,0:0:0:0:
256,192,73566,1,0,0:0:0:0:
256,192,73657,1,0,0:0:0:0:
256,192,73747,1,2,0:0:0:0:
256,192,73928,1,2,0:0:0:0:
256,192,74108,1,0,0:0:0:0:
256,192,74199,1,2,0:0:0:0:
256,192,74289,1,0,0:0:0:0:
256,192,74380,1,0,0:0:0:0:
256,192,74470,1,2,0:0:0:0:
256,192,74651,1,0,0:0:0:0:
256,192,74831,1,2,0:0:0:0:
256,192,74922,1,2,0:0:0:0:
256,192,75012,1,0,0:0:0:0:
256,192,75193,1,2,0:0:0:0:
256,192,75283,1,0,0:0:0:0:
256,192,75373,1,2,0:0:0:0:
256,192,75464,1,2,0:0:0:0:
256,192,75554,1,0,0:0:0:0:
256,192,75825,1,0,0:0:0:0:
256,192,75916,1,2,0:0:0:0:
256,192,76006,1,0,0:0:0:0:
256,192,76096,1,0,0:0:0:0:
256,192,76277,1,2,0:0:0:0:
256,192,76367,1,2,0:0:0:0:
256,192,76458,1,0,0:0:0:0:
256,192,76548,1,2,0:0:0:0:
256,192,76639,1,0,0:0:0:0:
256,192,76819,1,2,0:0:0:0:
256,192,77000,1,0,0:0:0:0:
256,192,77181,1,2,0:0:0:0:
256,192,77271,1,2,0:0:0:0:
256,192,77361,1,0,0:0:0:0:
256,192,77452,1,0,0:0:0:0:
256,192,77542,1,2,0:0:0:0:
256,192,77723,1,0,0:0:0:0:
256,192,77813,1,0,0:0:0:0:
256,192,77904,1,0,0:0:0:0:
256,192,78084,1,2,0:0:0:0:
256,192,78175,1,2,0:0:0:0:
256,192,78265,1,0,0:0:0:0:
256,192,78355,1,2,0:0:0:0:
256,192,78446,1,0,0:0:0:0:
256,192,78627,1,2,0:0:0:0:
256,192,78717,1,0,0:0:0:0:
256,192,78807,1,2,0:0:0:0:
256,192,78988,1,0,0:0:0:0:
256,192,79169,1,2,0:0:0:0:
256,192,79259,1,2,0:0:0:0:
256,192,79349,1,0,0:0:0:0:
256,192,79530,1,2,0:0:0:0:
256,192,79892,1,2,0:0:0:0:
256,192,79982,1,0,0:0:0:0:
256,192,80163,1,0,0:0:0:0:
256,192,80253,1,2,0:0:0:0:
256,192,80434,1,0,0:0:0:0:
256,192,80614,1,2,0:0:0:0:
256,192,80795,1,0,0:0:0:0:
256,192,80886,1,2,0:0:0:0:
256,192,80976,1,0,0:0:0:0:
256,192,81157,1,2,0:0:0:0:
256,192,81337,1,0,0:0:0:0:
256,192,81518,1,2,0:0:0:0:
256,192,81608,1,0,0:0:0:0:
256,192,81699,1,2,0:0:0:0:
256,192,81880,1,0,0:0:0:0:
256,192,82060,1,2,0:0:0:0:
256,192,82151,1,2,0:0:0:0:
256,192,82241,1,0,0:0:0:0:
256,192,82422,1,2,0:0:0:0:
256,192,82783,1,0,0:0:0:0:
256,192,82873,1,2,0:0:0:0:
256,192,83054,1,2,0:0:0:0:
256,192,83145,1,0,0:0:0:0:
256,192,83325,1,2,0:0:0:0:
256,192,83506,1,0,0:0:0:0:
256,192,83596,1,0,0:0:0:0:
256,192,83687,1,2,0:0:0:0:
256,192,83777,1,2,0:0:0:0:
256,192,83867,1,0,0:0:0:0:
256,192,84229,1,4,0:0:0:0:
256,192,84410,1,2,0:0:0:0:
256,192,84500,1,2,0:0:0:0:
256,192,84590,1,0,0:0:0:0:
256,192,84771,1,0,0:0:0:0:
256,192,84952,1,6,0:0:0:0:
256,192,85133,1,0,0:0:0:0:
256,192,85313,1,2,0:0:0:0:
256,192,85494,1,0,0:0:0:0:
256,192,85584,1,0,0:0:0:0:
256,192,85675,1,2,0:0:0:0:
256,192,85765,1,0,0:0:0:0:
256,192,85946,1,0,0:0:0:0:
256,192,86036,1,2,0:0:0:0:
256,192,86217,1,0,0:0:0:0:
256,192,86398,1,2,0:0:0:0:
256,192,86578,1,0,0:0:0:0:
256,192,86669,1,2,0:0:0:0:
256,192,86759,1,0,0:0:0:0:
256,192,86940,1,2,0:0:0:0:
256,192,87120,1,0,0:0:0:0:
256,192,87301,1,2,0:0:0:0:
256,192,87392,1,2,0:0:0:0:
256,192,87482,1,0,0:0:0:0:
256,192,87663,1,0,0:0:0:0:
256,192,87843,1,2,0:0:0:0:
256,192,87934,1,0,0:0:0:0:
256,192,88024,1,2,0:0:0:0:
256,192,88114,1,0,0:0:0:0:
256,192,88205,1,2,0:0:0:0:
256,192,88386,1,2,0:0:0:0:
256,192,88566,1,0,0:0:0:0:
256,192,88657,1,2,0:0:0:0:
256,192,88837,1,2,0:0:0:0:
256,192,88928,1,0,0:0:0:0:
256,192,89108,1,2,0:0:0:0:
256,192,89289,1,0,0:0:0:0:
256,192,89380,1,2,0:0:0:0:
256,192,89470,1,0,0:0:0:0:
256,192,89560,1,2,0:0:0:0:
256,192,89651,1,0,0:0:0:0:
256,192,89831,1,2,0:0:0:0:
256,192,90012,5,4,0:0:0:0:
256,192,90373,1,2,0:0:0:0:
256,192,90554,1,0,0:0:0:0:
256,192,90645,1,0,0:0:0:0:
256,192,90735,1,2,0:0:0:0:
256,192,90916,1,0,0:0:0:0:
256,192,91006,1,2,0:0:0:0:
256,192,91096,1,0,0:0:0:0:
256,192,91277,1,2,0:0:0:0:
256,192,91458,1,2,0:0:0:0:
256,192,91548,1,2,0:0:0:0:
256,192,91639,1,0,0:0:0:0:
256,192,91819,1,2,0:0:0:0:
256,192,92000,1,0,0:0:0:0:
256,192,92181,1,2,0:0:0:0:
256,192,92361,1,0,0:0:0:0:
256,192,92452,1,2,0:0:0:0:
256,192,92633,1,0,0:0:0:0:
256,192,92723,1,2,0:0:0:0:
256,192,92813,1,2,0:0:0:0:
256,192,92904,1,0,0:0:0:0:
256,192,93265,1,2,0:0:0:0:
256,192,93446,1,0,0:0:0:0:
256,192,93536,1,0,0:0:0:0:
256,192,93627,1,2,0:0:0:0:
256,192,93807,1,0,0:0:0:0:
256,192,93898,1,2,0:0:0:0:
256,192,93988,1,2,0:0:0:0:
256,192,94078,1,0,0:0:0:0:
256,192,94169,1,2,0:0:0:0:
256,192,94349,1,2,0:0:0:0:
256,192,94530,1,2,0:0:0:0:
256,192,94620,1,0,0:0:0:0:
256,192,94711,1,2,0:0:0:0:
256,192,94892,1,0,0:0:0:0:
256,192,94952,1,0,0:0:0:0:
256,192,95012,1,0,0:0:0:0:
256,192,95072,1,2,0:0:0:0:
256,192,95253,1,0,0:0:0:0:
256,192,95434,1,2,0:0:0:0:
256,192,95614,1,2,0:0:0:0:
256,192,95795,1,2,0:0:0:0:
256,192,96157,1,2,0:0:0:0:
256,192,96337,1,0,0:0:0:0:
256,192,96428,1,0,0:0:0:0:
256,192,96518,1,2,0:0:0:0:
256,192,96699,1,0,0:0:0:0:
256,192,96789,1,2,0:0:0:0:
256,192,96880,1,0,0:0:0:0:
256,192,97060,1,2,0:0:0:0:
256,192,97241,1,2,0:0:0:0:
256,192,97331,1,2,0:0:0:0:
256,192,97422,1,0,0:0:0:0:
256,192,97602,1,2,0:0:0:0:
256,192,97783,1,0,0:0:0:0:
256,192,97964,1,2,0:0:0:0:
256,192,98145,1,0,0:0:0:0:
256,192,98235,1,2,0:0:0:0:
256,192,98416,1,0,0:0:0:0:
256,192,98506,1,2,0:0:0:0:
256,192,98596,1,0,0:0:0:0:
256,192,98687,1,0,0:0:0:0:
256,192,99048,1,2,0:0:0:0:
256,192,99139,1,0,0:0:0:0:
256,192,99229,1,0,0:0:0:0:
256,192,99410,1,2,0:0:0:0:
256,192,99590,1,0,0:0:0:0:
256,192,99681,1,2,0:0:0:0:
256,192,99771,1,0,0:0:0:0:
256,192,99952,1,2,0:0:0:0:
256,192,100012,1,0,0:0:0:0:
256,192,100072,1,0,0:1:0:0:
256,192,100133,1,2,0:0:0:0:
256,192,100313,1,2,0:0:0:0:
256,192,100404,1,0,0:0:0:0:
256,192,100494,1,0,0:0:0:0:
256,192,100675,1,0,0:0:0:0:
256,192,100765,1,2,0:0:0:0:
256,192,100855,1,2,0:0:0:0:
256,192,101036,1,0,0:0:0:0:
256,192,101127,1,0,0:0:0:0:
256,192,101217,1,2,0:0:0:0:
256,192,101307,1,0,0:0:0:0:
256,192,101398,1,2,0:0:0:0:
256,192,101458,1,2,0:0:0:0:
256,192,101518,1,2,0:0:0:0:
256,192,101578,1,0,0:0:0:0:
256,192,101759,1,2,0:0:0:0:
256,192,101849,1,2,0:0:0:0:
256,192,101940,1,0,0:0:0:0:
256,192,102120,1,0,0:0:0:0:
256,192,102211,1,0,0:0:0:0:
256,192,102301,1,2,0:0:0:0:
256,192,102482,1,2,0:0:0:0:
256,192,102572,1,2,0:0:0:0:
256,192,102663,1,0,0:0:0:0:
256,192,102843,1,2,0:0:0:0:
256,192,103024,1,0,0:0:0:0:
256,192,103205,1,2,0:0:0:0:
256,192,103295,1,2,0:0:0:0:
256,192,103386,1,0,0:0:0:0:
256,192,103566,1,2,0:0:0:0:
256,192,103747,1,0,0:0:0:0:
256,192,103837,1,0,0:0:0:0:
256,192,103928,1,2,0:0:0:0:
256,192,104018,1,2,0:0:0:0:
256,192,104108,1,0,0:0:0:0:
256,192,104289,1,2,0:0:0:0:
256,192,104470,1,0,0:0:0:0:
256,192,104651,1,2,0:0:0:0:
256,192,104741,1,2,0:0:0:0:
256,192,104831,1,0,0:0:0:0:
256,192,105012,1,6,0:0:0:0:
256,192,105193,1,0,0:0:0:0:
256,192,105373,1,6,0:0:0:0:
256,192,105554,1,0,0:0:0:0:
256,192,105735,1,6,0:0:0:0:
256,192,105916,1,0,0:0:0:0:
256,192,106096,1,2,0:0:0:0:
256,192,106187,1,2,0:0:0:0:
256,192,106277,1,0,0:0:0:0:
256,192,106367,1,2,0:0:0:0:
256,192,106458,1,0,0:0:0:0:
256,192,106639,1,2,0:0:0:0:
256,192,106729,1,2,0:0:0:0:
256,192,106819,1,0,0:0:0:0:
256,192,106910,1,0,0:0:0:0:
256,192,107000,1,2,0:0:0:0:
256,192,107361,1,4,0:0:0:0:
256,192,107542,1,2,0:0:0:0:
256,192,107633,1,0,0:0:0:0:
256,192,107723,1,0,0:0:0:0:
256,192,107904,1,0,0:0:0:0:
256,192,107994,1,2,0:0:0:0:
256,192,108084,1,2,0:0:0:0:
256,192,108265,1,2,0:0:0:0:
256,192,108355,1,0,0:0:0:0:
256,192,108446,1,0,0:0:0:0:
256,192,108627,1,2,0:0:0:0:
256,192,108807,1,0,0:0:0:0:
256,192,108988,1,2,0:0:0:0:
256,192,109078,1,0,0:0:0:0:
256,192,109169,1,0,0:0:0:0:
256,192,109349,1,2,0:0:0:0:
256,192,109530,1,0,0:0:0:0:
256,192,109620,1,0,0:0:0:0:
256,192,109711,1,2,0:0:0:0:
256,192,109801,1,0,0:0:0:0:
256,192,109892,1,2,0:0:0:0:
256,192,110072,1,2,0:0:0:0:
256,192,110253,1,0,0:0:0:0:
256,192,110434,1,2,0:0:0:0:
256,192,110524,1,2,0:0:0:0:
256,192,110614,1,0,0:0:0:0:
256,192,110795,1,6,0:0:0:0:
256,192,110976,1,0,0:0:0:0:
256,192,111157,1,6,0:0:0:0:
256,192,111337,1,0,0:0:0:0:
256,192,111518,1,6,0:0:0:0:
256,192,111699,1,0,0:0:0:0:
256,192,111789,1,0,0:0:0:0:
256,192,111880,1,2,0:0:0:0:
256,192,111970,1,2,0:0:0:0:
256,192,112060,1,0,0:0:0:0:
256,192,112241,1,0,0:0:0:0:
256,192,112422,1,6,0:0:0:0:
256,192,112783,1,6,0:0:0:0:
256,192,113145,1,4,0:0:0:0:
256,192,113506,1,2,0:0:0:0:
256,192,113687,1,0,0:0:0:0:
256,192,113867,1,2,0:0:0:0:
256,192,114048,1,0,0:0:0:0:
256,192,114229,1,2,0:0:0:0:
256,192,114410,1,2,0:0:0:0:
256,192,114590,1,4,0:0:0:0:
256,192,114771,1,4,0:0:0:0:
256,192,114952,1,6,0:0:0:0:
256,192,115133,1,6,0:0:0:0:
256,192,116036,1,4,0:0:0:0:
256,192,116307,1,0,0:0:0:0:
256,192,116398,1,2,0:0:0:0:
256,192,116578,1,0,0:0:0:0:
256,192,116669,1,0,0:0:0:0:
256,192,116759,1,2,0:0:0:0:
256,192,116849,1,2,0:0:0:0:
256,192,116940,1,0,0:0:0:0:
256,192,117030,1,0,0:0:0:0:
256,192,117120,1,2,0:0:0:0:
256,192,117301,1,2,0:0:0:0:
256,192,117392,1,2,0:0:0:0:
256,192,117482,1,0,0:0:0:0:
256,192,117663,1,2,0:0:0:0:
256,192,117753,1,0,0:0:0:0:
256,192,117843,1,2,0:0:0:0:
256,192,117934,1,2,0:0:0:0:
256,192,118024,1,0,0:0:0:0:
256,192,118114,1,0,0:0:0:0:
256,192,118205,1,2,0:0:0:0:
256,192,118386,1,0,0:0:0:0:
256,192,118476,1,0,0:0:0:0:
256,192,118566,1,2,0:0:0:0:
256,192,118747,1,2,0:0:0:0:
256,192,118837,1,2,0:0:0:0:
256,192,118928,1,0,0:0:0:0:
256,192,119108,1,2,0:0:0:0:
256,192,119199,1,0,0:0:0:0:
256,192,119289,1,2,0:0:0:0:
256,192,119470,1,0,0:0:0:0:
256,192,119560,1,2,0:0:0:0:
256,192,119651,1,0,0:0:0:0:
256,192,119741,1,2,0:0:0:0:
256,192,119831,1,0,0:0:0:0:
256,192,119922,1,0,0:0:0:0:
256,192,120012,1,2,0:0:0:0:
256,192,120193,1,2,0:0:0:0:
256,192,120283,1,2,0:0:0:0:
256,192,120373,1,0,0:0:0:0:
256,192,120554,1,2,0:0:0:0:
256,192,120645,1,2,0:0:0:0:
256,192,120735,1,0,0:0:0:0:
256,192,120825,1,0,0:0:0:0:
256,192,120916,1,2,0:0:0:0:
256,192,121096,1,4,0:0:0:0:
256,192,121277,1,0,0:0:0:0:
256,192,121458,1,6,0:0:0:0:
256,192,121639,1,2,0:0:0:0:
256,192,121819,1,4,0:0:0:0:
256,192,122090,1,0,0:0:0:0:
256,192,122181,1,2,0:0:0:0:
256,192,122361,1,0,0:0:0:0:
256,192,122452,1,2,0:0:0:0:
256,192,122542,1,2,0:0:0:0:
256,192,122633,1,2,0:0:0:0:
256,192,122723,1,0,0:0:0:0:
256,192,122813,1,0,0:0:0:0:
256,192,122904,1,2,0:0:0:0:
256,192,123084,1,2,0:0:0:0:
256,192,123175,1,0,0:0:0:0:
256,192,123265,1,0,0:0:0:0:
256,192,123446,1,2,0:0:0:0:
256,192,123536,1,0,0:0:0:0:
256,192,123627,1,2,0:0:0:0:
256,192,123717,1,2,0:0:0:0:
256,192,123807,1,0,0:0:0:0:
256,192,123898,1,0,0:0:0:0:
256,192,123988,1,2,0:0:0:0:
256,192,124169,1,0,0:0:0:0:
256,192,124259,1,0,0:0:0:0:
256,192,124349,1,2,0:0:0:0:
256,192,124530,1,2,0:0:0:0:
256,192,124620,1,2,0:0:0:0:
256,192,124711,1,0,0:0:0:0:
256,192,124892,1,2,0:0:0:0:
256,192,124982,1,0,0:0:0:0:
256,192,125072,1,2,0:0:0:0:
256,192,125253,1,0,0:0:0:0:
256,192,125343,1,2,0:0:0:0:
256,192,125434,1,0,0:0:0:0:
256,192,125524,1,0,0:0:0:0:
256,192,125614,1,2,0:0:0:0:
256,192,125705,1,0,0:0:0:0:
256,192,125795,1,2,0:0:0:0:
256,192,125976,1,2,0:0:0:0:
256,192,126066,1,2,0:0:0:0:
256,192,126157,1,0,0:0:0:0:
256,192,126337,1,2,0:0:0:0:
256,192,126428,1,2,0:0:0:0:
256,192,126518,1,0,0:0:0:0:
256,192,126608,1,0,0:0:0:0:
256,192,126699,1,2,0:0:0:0:
256,192,126789,1,0,0:0:0:0:
256,192,126880,1,2,0:0:0:0:
224,192,127060,1,2,0:0:0:0:
224,192,127151,1,2,0:0:0:0:
256,192,127241,1,0,0:0:0:0:
256,192,127422,1,0,0:0:0:0:
256,192,127602,5,6,0:0:0:0:
256,192,127964,1,0,0:0:0:0:
256,192,128145,1,2,0:0:0:0:
256,192,128325,1,0,0:0:0:0:
256,192,128506,1,2,0:0:0:0:
256,192,128687,1,0,0:0:0:0:
256,192,128867,1,2,0:0:0:0:
256,192,129048,1,0,0:0:0:0:
256,192,129410,1,0,0:0:0:0:
256,192,129590,1,0,0:0:0:0:
256,192,129771,1,2,0:0:0:0:
256,192,129952,1,0,0:0:0:0:
256,192,130133,1,2,0:0:0:0:
256,192,130313,1,0,0:0:0:0:
256,192,130494,1,2,0:0:0:0:
256,192,130855,1,2,0:0:0:0:
256,192,131036,1,2,0:0:0:0:
256,192,131217,1,0,0:0:0:0:
256,192,131398,1,2,0:0:0:0:
256,192,131578,1,0,0:0:0:0:
256,192,131759,1,2,0:0:0:0:
256,192,131940,1,0,0:0:0:0:
256,192,132301,1,2,0:0:0:0:
256,192,132482,1,0,0:0:0:0:
256,192,132663,1,2,0:0:0:0:
256,192,132843,1,0,0:0:0:0:
256,192,133024,1,2,0:0:0:0:
256,192,133205,1,2,0:0:0:0:
