osu file format v14

[General]
AudioFilename: audio.mp3
AudioLeadIn: 0
PreviewTime: 35569
Countdown: 0
SampleSet: Soft
StackLeniency: 0.4
Mode: 0
LetterboxInBreaks: 0
WidescreenStoryboard: 1

[Editor]
Bookmarks: 2128,13422,24716,36010,58598,69892,81186,92480,103775,126363,137657,160245,170127
DistanceSpacing: 1
BeatDivisor: 4
GridSize: 32
TimelineZoom: 3.379999

[Metadata]
Title:Good-bye sengen
TitleUnicode:グッバイ宣言
Artist:Nakiri Ayame
ArtistUnicode:百鬼あやめ
Creator:Mir
Version:Normal
Source:
Tags:ホロライブ hololive vtuber virtual youtuber chinozo japanese pop jpop j-pop さんかくずわり sankaku zuwari cover flower goodbye declaration 引き籠り hikikomori matha -_matha_- petal wanpachi dada deppy deppyforce
BeatmapID:3074252
BeatmapSetID:1471082

[Difficulty]
HPDrainRate:2
CircleSize:3
OverallDifficulty:3
ApproachRate:5
SliderMultiplier:1.2
SliderTickRate:1

[Events]
//Background and Video events
0,0,"ruuruuruu.png",0,0
//Break Periods
2,69892,79986
//Storyboard Layer 0 (Background)
//Storyboard Layer 1 (Fail)
//Storyboard Layer 2 (Pass)
//Storyboard Layer 3 (Foreground)
//Storyboard Layer 4 (Overlay)
//Storyboard Sound Samples

[TimingPoints]
-3519,352.941176470588,4,2,7,60,1,0
2128,-100,4,2,7,70,0,0
12715,-100,4,2,7,40,0,0
13068,-100,4,2,7,50,0,0
13422,-111.111111111111,4,2,7,60,0,0
33010,-111.111111111111,4,2,7,70,0,0
34465,-111.111111111111,4,2,7,5,0,0
34774,-111.111111111111,4,2,7,70,0,0
34818,-111.111111111111,4,2,7,5,0,0
35127,-111.111111111111,4,2,7,70,0,0
35171,-111.111111111111,4,2,7,5,0,0
35304,-111.111111111111,4,2,7,70,0,0
36010,-90.9090909090908,4,2,7,85,0,1
58598,-90.9090909090908,4,2,27,75,0,0
67068,-90.9090909090908,4,2,27,55,0,0
69186,-90.9090909090908,4,2,7,40,0,0
69892,-90.9090909090908,4,2,7,70,0,0
80480,-90.9090909090908,4,2,7,40,0,0
80657,-90.9090909090908,4,2,7,50,0,0
80833,-90.9090909090908,4,2,7,60,0,0
81010,-90.9090909090908,4,2,7,70,0,0
81186,-111.111111111111,4,2,7,60,0,0
98127,-111.111111111111,4,2,7,70,0,0
103774,-111.111111111111,4,2,7,55,0,0
124951,-111.111111111111,4,2,7,65,0,0
126363,-111.111111111111,4,2,7,70,0,0
134657,-111.111111111111,4,2,7,40,0,0
135892,-111.111111111111,4,2,7,20,0,0
137127,-111.111111111111,4,2,7,60,0,0
137657,-90.9090909090908,4,2,7,85,0,1
160245,-90.9090909090908,4,2,27,80,0,0
165892,-90.9090909090908,4,2,27,85,0,0
168716,-90.9090909090908,4,2,7,70,0,0
169068,-90.9090909090908,4,2,7,40,0,0
169421,-90.9090909090908,4,2,7,70,0,0
169774,-90.9090909090908,4,2,7,40,0,0
170157,-90.9090909090908,4,2,7,5,0,0

[Colours]
Combo1 : 185,185,185
Combo2 : 255,45,45
Combo3 : 239,220,88

[HitObjects]
50,355,716,5,2,0:3:0:0:
167,328,1069,1,2,0:3:0:0:
285,311,1422,2,0,L|353:328,1,59.9999999999999,2|2,0:3|0:3,0:0:0:0:
390,362,1775,2,0,L|458:345,1,59.9999999999999,2|2,0:3|0:3,0:0:0:0:
485,300,2128,6,0,P|500:205|511:156,1,120,6|8,3:2|0:2,0:0:0:0:
482,132,2657,1,2,0:3:0:0:
482,132,2833,1,0,3:0:0:0:
494,12,3186,2,0,B|422:14|458:63|366:57,1,120,10|0,0:0|3:0,0:0:0:0:
341,97,3716,2,0,P|303:77|272:64,2,59.9999999999999,2|8|2,0:3|0:0|0:3,0:0:0:0:
359,154,4245,1,2,3:2:0:0:
266,230,4598,1,10,0:0:0:0:
175,150,4951,6,0,P|118:135|43:117,1,120,2|8,3:2|0:0,0:0:0:0:
13,160,5480,1,2,0:3:0:0:
13,160,5657,1,2,3:2:0:0:
27,279,6010,5,10,0:0:0:0:
144,302,6363,1,2,3:2:0:0:
262,323,6716,1,8,0:0:0:0:
379,346,7069,2,0,P|425:332|451:323,1,59.9999999999999,6|8,3:2|0:0,0:0:0:0:
455,271,7422,2,0,P|501:257|527:248,1,59.9999999999999,12|4,0:0|3:0,0:0:0:0:
510,193,7775,6,0,P|450:191|368:179,1,120,6|8,3:2|0:0,0:0:0:0:
342,147,8304,1,2,0:3:0:0:
342,147,8480,1,0,3:0:0:0:
265,239,8833,2,0,P|253:177|228:96,1,120,10|0,0:0|3:0,0:0:0:0:
211,67,9363,1,2,0:3:0:0:
211,67,9539,1,8,0:0:0:0:
312,3,9892,1,2,3:2:0:0:
427,35,10245,1,10,0:0:0:0:
484,140,10598,6,0,P|470:200|461:283,1,120,2|8,3:2|0:0,0:0:0:0:
482,315,11128,1,2,0:3:0:0:
482,315,11304,1,2,3:2:0:0:
374,367,11657,1,10,0:0:0:0:
272,302,12010,2,0,P|211:291|149:280,1,120,2|8,3:2|0:0,0:0:0:0:
48,339,12716,1,2,0:0:0:0:
4,227,13069,1,2,0:3:0:0:
48,128,13422,6,0,P|132:117|178:110,1,107.999996704102,6|0,3:2|3:0,0:0:0:0:
235,40,14128,1,0,3:0:0:0:
341,21,14480,2,0,P|357:82|375:132,1,107.999996704102,2|0,3:2|3:0,0:0:0:0:
294,200,15186,1,0,3:0:0:0:
308,307,15539,2,0,L|372:322,1,53.9999983520508,2|2,3:2|0:0,0:0:0:0:
376,371,15892,2,0,L|440:356,1,53.9999983520508,2|2,3:2|0:0,0:0:0:0:
482,363,16245,6,0,L|506:239,1,107.999996704102,2|0,3:2|3:0,0:0:0:0:
448,162,16951,1,0,3:0:0:0:
489,62,17304,2,0,P|442:58|357:42,1,107.999996704102,2|0,3:2|3:0,0:0:0:0:
280,10,18010,1,2,3:2:0:0:
207,90,18363,1,2,3:2:0:0:
270,177,18716,1,2,3:2:0:0:
205,263,19069,6,0,L|117:248,2,80.9999975280762,6|2|2,3:2|0:0|0:0,0:0:0:0:
240,303,19775,2,0,L|328:288,2,80.9999975280762,2|2|2,3:2|0:0|0:0,0:0:0:0:
215,350,20480,1,2,3:2:0:0:
34,232,21186,5,2,3:2:0:0:
3,128,21539,1,2,3:2:0:0:
74,47,21892,2,0,P|140:67|190:81,1,107.999996704102,2|2,3:2|3:2,0:0:0:0:
272,129,22598,2,0,P|323:114|375:98,1,107.999996704102,2|2,3:2|3:2,0:0:0:0:
464,37,23304,2,0,P|474:74|481:93,1,53.9999983520508,2|2,3:2|0:0,0:0:0:0:
500,139,23657,2,0,P|490:175|483:194,1,53.9999983520508,2|2,3:2|0:0,0:0:0:0:
457,237,24010,2,0,P|466:273|473:292,2,53.9999983520508,2|2|8,3:2|0:3|0:0,0:0:0:0:
352,265,24716,6,0,P|301:244|230:236,1,107.999996704102,6|8,3:2|0:0,0:0:0:0:
202,207,25245,2,0,P|152:242|148:297,1,107.999996704102,2|2,0:0|0:3,0:0:0:0:
110,327,25775,2,0,P|59:326|40:279,1,107.999996704102,10|0,0:0|3:0,0:0:0:0:
88,182,26480,1,10,0:0:0:0:
53,79,26833,2,0,P|-1:66|-12:65,2,53.9999983520508,2|2|10,3:2|0:0|0:0,0:0:0:0:
156,45,27539,6,0,P|226:33|282:25,1,107.999996704102,2|8,3:2|0:0,0:0:0:0:
311,2,28069,2,0,P|347:37|327:103,1,107.999996704102,2|2,0:0|0:3,0:0:0:0:
317,139,28598,2,0,P|370:147|423:156,1,107.999996704102,8|0,0:0|3:0,0:0:0:0:
463,257,29304,1,10,0:0:0:0:
408,353,29657,1,2,3:2:0:0:
408,353,29833,1,10,0:0:0:0:
408,353,30010,1,10,0:0:0:0:
305,318,30363,6,0,P|247:336|206:350,2,80.9999975280762,6|2|2,3:2|0:0|0:0,0:0:0:0:
291,265,31069,2,0,P|233:247|192:233,2,80.9999975280762,2|2|2,3:2|0:0|0:0,0:0:0:0:
320,219,31775,1,0,3:0:0:0:
276,120,32128,1,8,0:0:0:0:
334,29,32480,2,0,L|392:12,2,53.9999983520508,2|2|10,3:0|3:0|0:0,0:0:0:0:
280,17,33010,6,0,L|163:-4,1,107.999996704102,6|2,3:2|3:2,0:0:0:0:
122,14,33539,1,10,0:0:0:0:
32,74,33892,1,2,3:2:0:0:
105,153,34245,5,10,0:0:0:0:
105,153,34422,1,2,3:0:0:0:
83,258,34775,1,2,3:0:0:0:
68,368,35128,1,2,3:0:0:0:
68,368,35304,1,2,3:0:0:0:
164,122,36010,6,0,B|220:110|220:110|232:115|232:115|313:99,1,132.00000402832,6|10,3:2|0:0,0:0:0:0:
336,53,36539,1,2,0:0:0:0:
336,53,36716,2,0,L|474:69,1,132.00000402832,2|10,3:2|0:0,0:0:0:0:
488,131,37245,2,0,B|527:155|527:155|508:262,1,132.00000402832,2|2,0:0|0:0,0:0:0:0:
499,305,37775,1,10,0:0:0:0:
397,381,38128,6,0,L|322:365,1,66.0000020141602,2|2,3:2|0:0,0:0:0:0:
288,317,38480,2,0,L|213:333,1,66.0000020141602,10|2,0:0|0:0,0:0:0:0:
171,371,38833,1,2,3:2:0:0:
26,287,39363,5,2,0:0:0:0:
26,287,39539,2,0,P|83:278|163:263,1,132.00000402832,2|8,3:2|0:0,0:0:0:0:
184,206,40069,1,2,0:0:0:0:
184,206,40245,1,2,3:2:0:0:
311,240,40598,1,10,0:0:0:0:
435,197,40951,2,0,P|467:207|516:219,2,66.0000020141602,2|8|8,3:2|0:0|0:0,0:0:0:0:
442,64,41657,6,0,P|425:23|333:15,1,132.00000402832,2|10,3:2|0:0,0:0:0:0:
283,18,42186,1,2,0:0:0:0:
283,18,42363,2,0,P|278:69|261:167,1,132.00000402832,2|10,3:2|0:0,0:0:0:0:
210,182,42892,2,0,P|193:141|101:133,1,132.00000402832,2|2,0:0|0:0,0:0:0:0:
72,177,43422,1,10,0:0:0:0:
2,289,43775,6,0,L|73:306,1,66.0000020141602,2|2,3:2|0:0,0:0:0:0:
101,360,44128,2,0,L|172:343,1,66.0000020141602,10|2,0:0|0:0,0:0:0:0:
228,328,44480,1,2,3:2:0:0:
422,365,45010,5,2,0:0:0:0:
422,365,45186,2,0,P|442:295|476:222,1,132.00000402832,2|10,3:2|0:0,0:0:0:0:
500,94,45892,2,0,P|469:103|437:111,1,66.0000020141602,2|2,3:2|0:0,0:0:0:0:
376,84,46245,2,0,P|343:76|312:67,1,66.0000020141602,10|2,0:0|0:0,0:0:0:0:
249,89,46598,1,2,3:2:0:0:
296,212,46951,1,4,3:0:0:0:
252,336,47304,6,0,B|176:344|206:284|103:297,1,132.00000402832,6|10,3:2|0:0,0:0:0:0:
90,347,47833,1,2,0:0:0:0:
90,347,48010,2,0,P|88:288|63:202,1,132.00000402832,2|10,3:2|0:0,0:0:0:0:
60,152,48539,2,0,P|15:128|46:50,1,132.00000402832,2|2,0:0|0:0,0:0:0:0:
86,25,49069,1,10,0:0:0:0:
199,91,49422,6,0,L|271:75,1,66.0000020141602,2|2,3:2|0:0,0:0:0:0:
305,128,49775,2,0,L|369:142,1,66.0000020141602,10|2,0:0|0:0,0:0:0:0:
420,100,50128,1,2,3:2:0:0:
495,282,50657,5,2,0:0:0:0:
495,282,50833,2,0,P|439:238|360:227,1,132.00000402832,2|8,3:2|0:0,0:0:0:0:
327,265,51363,1,2,0:0:0:0:
327,265,51539,1,2,3:2:0:0:
227,352,51892,1,10,0:0:0:0:
108,293,52245,2,0,P|76:297|33:306,2,66.0000020141602,2|8|8,3:2|0:0|0:0,0:0:0:0:
201,199,52951,6,0,L|223:46,1,132.00000402832,2|10,3:2|0:0,0:0:0:0:
258,14,53480,1,2,0:0:0:0:
258,14,53657,2,0,P|171:33|106:51,1,132.00000402832,2|10,3:2|0:0,0:0:0:0:
71,12,54186,2,0,L|52:142,1,132.00000402832,2|2,0:0|0:0,0:0:0:0:
97,191,54716,1,10,0:0:0:0:
32,305,55069,6,0,L|111:323,1,66.0000020141602,2|2,3:2|0:0,0:0:0:0:
139,370,55422,2,0,L|203:355,1,66.0000020141602,10|2,0:0|0:0,0:0:0:0:
267,339,55775,1,2,3:2:0:0:
463,362,56304,5,2,0:0:0:0:
463,362,56480,1,2,3:2:0:0:
377,261,56833,1,10,0:0:0:0:
452,152,57186,2,0,P|465:111|474:80,1,66.0000020141602,6|2,3:2|0:0,0:0:0:0:
412,59,57539,2,0,P|392:20|376:-7,2,66.0000020141602,10|2|8,0:0|0:0|0:0,0:0:0:0:
295,121,58245,1,14,0:0:0:0:
295,121,58422,1,8,0:0:0:0:
295,121,58598,6,0,P|227:108|142:94,1,132.00000402832,6|10,3:2|0:0,0:0:0:0:
122,46,59128,2,0,P|76:54|47:144,1,132.00000402832,2|0,0:3|3:0,0:0:0:0:
84,175,59657,2,0,P|99:234|116:322,1,132.00000402832,10|2,0:0|3:2,0:0:0:0:
225,373,60363,5,10,0:0:0:0:
356,357,60716,1,2,3:2:0:0:
486,338,61069,1,10,0:0:0:0:
487,205,61422,6,0,P|430:199|344:187,1,132.00000402832,2|10,3:2|0:0,0:0:0:0:
309,141,61951,2,0,P|286:194|208:191,1,132.00000402832,2|0,0:3|3:0,0:0:0:0:
183,142,62480,1,10,0:0:0:0:
183,142,62657,2,0,P|170:94|130:9,1,132.00000402832,2|2,0:3|0:3,0:0:0:0:
71,6,63186,5,10,0:0:0:0:
48,136,63539,1,2,3:2:0:0:
48,136,63716,1,2,0:3:0:0:
48,136,63892,1,10,0:0:0:0:
37,267,64245,6,0,P|51:332|130:348,1,132.00000402832,2|10,3:2|0:0,0:0:0:0:
143,298,64775,2,0,P|207:281|288:260,1,132.00000402832,2|0,0:3|3:0,0:0:0:0:
300,205,65304,2,0,P|358:229|370:292,1,132.00000402832,10|2,0:0|3:2,0:0:0:0:
260,366,66010,5,10,0:0:0:0:
143,298,66363,1,2,3:2:0:0:
190,174,66716,1,10,0:0:0:0:
94,82,67069,5,2,3:2:0:0:
353,130,67775,5,2,3:2:0:0:
479,92,68128,1,2,3:2:0:0:
383,1,68480,1,2,3:0:0:0:
497,312,81186,6,0,L|380:294,1,107.999996704102,6|0,3:2|3:0,0:0:0:0:
298,352,81892,1,0,3:0:0:0:
190,360,82245,2,0,P|176:294|168:234,1,107.999996704102,2|0,3:2|3:0,0:0:0:0:
245,175,82951,1,0,3:0:0:0:
245,66,83304,2,0,L|175:54,1,53.9999983520508,2|2,3:2|0:0,0:0:0:0:
150,21,83657,2,0,L|80:33,1,53.9999983520508,2|2,3:2|0:0,0:0:0:0:
44,16,84010,6,0,L|25:133,1,107.999996704102,2|0,3:2|3:0,0:0:0:0:
91,209,84716,1,0,3:0:0:0:
195,181,85069,2,0,P|248:173|313:167,1,107.999996704102,2|0,3:2|3:0,0:0:0:0:
410,163,85775,1,2,3:2:0:0:
491,233,86128,1,2,3:2:0:0:
430,322,86480,1,2,3:2:0:0:
329,283,86833,6,0,P|312:341|302:378,2,80.9999975280763,6|2|2,3:2|0:0|0:0,0:0:0:0:
292,243,87539,2,0,P|275:185|265:148,2,80.9999975280763,2|2|2,3:2|0:0|0:0,0:0:0:0:
254,281,88245,1,2,3:2:0:0:
162,85,88951,5,2,3:2:0:0:
60,48,89304,1,2,3:2:0:0:
14,145,89657,2,0,L|40:274,1,107.999996704102,2|2,3:2|3:2,0:0:0:0:
142,266,90363,2,0,L|120:371,2,107.999996704102,2|2|2,3:2|3:2|3:2,0:0:0:0:
233,208,91422,1,2,3:2:0:0:
334,269,91775,1,2,3:0:0:0:
334,269,91951,1,2,3:0:0:0:
334,269,92128,1,2,3:0:0:0:
374,169,92480,6,0,P|379:66|382:38,1,107.999996704102,6|8,3:2|0:0,0:0:0:0:
348,16,93010,2,0,L|472:-3,1,107.999996704102,2|2,0:0|0:3,0:0:0:0:
500,28,93539,2,0,P|495:131|492:159,1,107.999996704102,10|0,0:0|3:0,0:0:0:0:
454,236,94245,1,10,0:0:0:0:
463,343,94598,2,0,L|529:363,2,53.9999983520508,2|2|10,3:2|0:0|0:0,0:0:0:0:
367,290,95304,6,0,P|284:307|247:313,1,107.999996704102,2|10,3:2|0:0,0:0:0:0:
233,357,95833,2,0,P|172:365|152:316,1,107.999996704102,2|2,0:0|0:3,0:0:0:0:
154,276,96363,2,0,P|100:266|48:255,1,107.999996704102,10|0,0:0|3:0,0:0:0:0:
6,155,97069,1,10,0:0:0:0:
57,59,97422,2,0,P|38:46|7:30,2,53.9999983520508,2|10|10,3:2|0:0|0:0,0:0:0:0:
145,121,98128,6,0,L|269:135,1,107.999996704102,6|10,3:2|0:0,0:0:0:0:
318,47,98833,1,2,3:2:0:0:
425,50,99186,1,10,0:0:0:0:
492,134,99539,2,0,P|481:186|467:248,1,107.999996704102,2|8,3:2|0:0,0:0:0:0:
478,347,100245,1,2,3:0:0:0:
378,305,100598,2,0,P|336:315|316:322,1,53.9999983520508,10|8,0:0|0:0,0:0:0:0:
292,360,100951,6,0,P|273:296|251:245,1,107.999996704102,6|10,3:2|0:0,0:0:0:0:
279,152,101657,1,2,3:2:0:0:
279,152,101833,1,0,3:0:0:0:
279,152,102010,1,10,0:0:0:0:
213,65,102363,2,0,L|147:47,1,53.9999983520508,10|10,3:0|3:0,0:0:0:0:
122,88,102716,2,0,L|5:117,1,107.999996704102,6|10,3:0|0:0,0:0:0:0:
17,172,103245,1,10,0:0:0:0:
17,172,103422,1,10,0:0:0:0:
17,172,103598,1,10,0:0:0:0:
3,333,104128,6,0,B|101:313|101:313|161:354|161:354|488:293,1,485.999985168458,0|0,3:0|0:0,0:0:0:0:
480,243,105892,2,0,L|508:127,1,107.999996704102,2|2,3:2|3:2,0:0:0:0:
483,94,106422,1,2,0:0:0:0:
483,94,106598,1,2,3:2:0:0:
324,127,107128,1,2,0:0:0:0:
192,32,107657,1,2,3:2:0:0:
55,118,108186,6,0,L|39:173,2,53.9999983520508,2|2|2,0:0|3:2|0:0,0:0:0:0:
94,155,108716,2,0,P|132:164|168:172,1,53.9999983520508,2|2,3:2|0:0,0:0:0:0:
175,213,109069,2,0,P|201:206|227:200,1,53.9999983520508,2|2,3:2|0:0,0:0:0:0:
264,161,109422,2,0,L|439:185,2,161.999995056153,2|2|2,3:2|0:0|3:2,0:0:0:0:
171,216,110833,6,0,P|161:279|159:321,2,80.9999975280763,2|2|2,3:2|0:0|0:0,0:0:0:0:
128,182,111539,2,0,P|76:219|45:247,2,80.9999975280763,2|2|2,3:2|0:0|0:0,0:0:0:0:
122,128,112245,1,2,3:2:0:0:
190,44,112598,1,2,3:2:0:0:
190,44,112775,2,0,P|236:51|318:64,1,107.999996704102,2|0,0:0|0:0,0:0:0:0:
340,28,113304,1,2,3:2:0:0:
423,96,113657,2,0,P|469:61|477:21,2,80.9999975280763,2|2|2,3:2|0:0|0:0,0:0:0:0:
378,127,114363,2,0,P|366:177|362:196,1,53.9999983520508,6|8,3:2|0:0,0:0:0:0:
378,232,114716,1,12,0:0:0:0:
480,267,115069,1,2,3:0:0:0:
402,342,115422,6,0,L|276:323,1,107.999996704102,2|2,3:2|3:2,0:0:0:0:
272,282,115951,1,2,0:0:0:0:
272,282,116128,1,2,3:2:0:0:
194,357,116480,2,0,L|172:285,1,53.9999983520508,2|2,3:2|0:0,0:0:0:0:
125,292,116833,2,0,L|147:220,1,53.9999983520508,2|2,3:0|0:3,0:0:0:0:
160,189,117186,1,2,3:0:0:0:
100,99,117539,1,2,3:3:0:0:
100,99,117716,1,2,0:3:0:0:
100,99,117892,6,0,L|-9:79,2,107.999996704102,2|2|2,3:2|3:2|3:2,0:0:0:0:
186,33,118951,1,2,3:2:0:0:
186,33,119128,2,0,P|247:45|256:103,1,107.999996704102,2|2,0:3|0:0,0:0:0:0:
244,134,119657,1,0,3:2:0:0:
244,134,119833,2,0,P|291:157|363:170,1,107.999996704102,2|2,0:0|0:0,0:0:0:0:
386,133,120363,1,2,3:2:0:0:
465,206,120716,5,2,3:2:0:0:
465,206,120892,2,0,L|479:276,1,53.9999983520508,2|2,0:0|3:2,0:0:0:0:
487,311,121245,1,2,0:0:0:0:
337,366,121775,5,2,3:2:0:0:
337,366,121951,2,0,L|351:296,1,53.9999983520508,2|2,0:0|3:2,0:0:0:0:
359,261,122304,1,2,0:0:0:0:
279,187,122657,2,0,P|224:195|200:260,1,107.999996704102,2|2,0:0|0:0,0:0:0:0:
196,291,123186,2,0,L|80:326,1,107.999996704102,2|0,3:2|3:0,0:0:0:0:
57,363,123716,6,0,L|73:235,1,107.999996704102,2|2,0:0|0:0,0:0:0:0:
44,208,124245,1,2,3:2:0:0:
116,127,124598,1,2,3:2:0:0:
58,35,124951,2,0,P|114:23|130:17,1,53.9999983520508,6|8,3:2|0:0,0:0:0:0:
159,0,125304,2,0,P|215:12|231:18,1,53.9999983520508,8|8,0:0|0:0,0:0:0:0:
232,60,125657,1,8,0:0:0:0:
329,105,126010,1,8,0:0:0:0:
329,105,126186,1,8,0:0:0:0:
329,105,126363,1,6,3:2:0:0:
268,194,126716,6,0,L|251:310,2,107.999996704102,10|2|10,0:0|3:2|0:0,0:0:0:0:
167,153,127775,2,0,P|116:145|90:139,1,53.9999983520508,2|2,3:2|0:0,0:0:0:0:
64,121,128128,1,10,0:0:0:0:
64,121,128304,2,0,P|6:152|-3:199,1,107.999996704102,2|2,0:0|0:0,0:0:0:0:
0,308,129010,2,0,P|58:323|113:351,1,107.999996704102,2|2,0:0|0:0,0:0:0:0:
151,323,129539,2,0,P|163:367|167:388,2,53.9999983520508,10|2|2,0:0|0:0|3:2,0:0:0:0:
230,249,130245,1,10,0:0:0:0:
230,249,130422,2,0,P|287:266|341:285,1,107.999996704102,2|2,0:0|0:0,0:0:0:0:
370,242,130951,2,0,P|382:198|386:177,2,53.9999983520508,10|2|2,0:0|0:0|3:2,0:0:0:0:
419,344,131657,5,10,0:0:0:0:
419,344,131833,2,0,P|471:334|472:227,1,161.999995056153,6|10,3:2|0:0,0:0:0:0:
478,185,132539,1,2,0:0:0:0:
416,96,132892,2,0,L|432:27,1,53.9999983520508,2|10,3:2|0:0,0:0:0:0:
379,19,133245,5,2,3:0:0:0:
272,38,133598,1,2,3:0:0:0:
166,62,133951,1,2,3:0:0:0:
166,62,134128,1,2,3:0:0:0:
21,353,137128,6,0,L|7:282,2,53.9999983520508,2|2|2,0:0|0:0|0:0,0:0:0:0:
75,315,137657,6,0,L|221:345,1,132.00000402832,6|10,3:2|0:0,0:0:0:0:
256,300,138186,1,2,0:0:0:0:
256,300,138363,2,0,P|264:248|281:158,1,132.00000402832,2|10,3:2|0:0,0:0:0:0:
293,105,138892,2,0,L|422:78,1,132.00000402832,2|2,0:0|0:0,0:0:0:0:
474,37,139422,1,10,0:0:0:0:
512,154,139775,6,0,L|499:236,1,66.0000020141602,2|2,3:2|0:0,0:0:0:0:
491,284,140128,2,0,L|478:366,1,66.0000020141602,10|2,0:0|0:0,0:0:0:0:
421,378,140480,1,2,3:2:0:0:
224,349,141010,5,2,0:0:0:0:
224,349,141186,2,0,P|156:328|74:310,1,132.00000402832,2|8,3:2|0:0,0:0:0:0:
56,269,141716,1,2,0:0:0:0:
56,269,141892,2,0,P|47:197|28:127,2,132.00000402832,2|10|2,3:2|0:0|3:2,0:0:0:0:
24,327,142775,1,8,0:0:0:0:
24,327,142951,1,8,0:0:0:0:
145,274,143304,6,0,P|217:255|301:239,1,132.00000402832,2|10,3:2|0:0,0:0:0:0:
335,265,143833,1,2,0:0:0:0:
335,265,144010,2,0,P|408:297|448:263,1,132.00000402832,2|10,3:2|0:0,0:0:0:0:
472,210,144539,2,0,L|501:67,1,132.00000402832,2|2,0:0|0:0,0:0:0:0:
455,29,145069,1,10,0:0:0:0:
336,86,145422,6,0,L|246:71,1,66.0000020141602,2|2,3:2|0:0,0:0:0:0:
226,25,145775,2,0,L|136:40,1,66.0000020141602,10|2,0:0|0:0,0:0:0:0:
96,49,146128,1,2,3:2:0:0:
244,187,146656,5,2,0:0:0:0:
244,187,146833,2,0,P|242:259|239:335,1,132.00000402832,2|10,3:2|0:0,0:0:0:0:
120,376,147539,2,0,P|65:356|62:324,1,66.0000020141602,2|2,3:2|0:0,0:0:0:0:
8,353,147892,2,0,P|-2:298|24:276,1,66.0000020141602,10|2,0:0|0:0,0:0:0:0:
35,236,148245,1,2,3:2:0:0:
169,282,148598,1,8,3:2:0:0:
169,282,148775,1,8,0:0:0:0:
169,282,148951,6,0,P|224:275|318:259,1,132.00000402832,6|10,3:2|0:0,0:0:0:0:
351,221,149480,1,2,0:0:0:0:
351,221,149657,2,0,P|366:152|386:80,1,132.00000402832,2|10,3:2|0:0,0:0:0:0:
404,30,150186,2,0,P|464:18|491:98,1,132.00000402832,2|2,0:0|0:0,0:0:0:0:
472,132,150716,1,10,0:0:0:0:
348,135,151069,5,2,3:2:0:0:
348,135,151245,1,2,0:0:0:0:
348,135,151422,2,0,L|272:119,2,66.0000020141602,10|2|2,0:0|0:0|3:2,0:0:0:0:
445,224,152128,5,10,0:0:0:0:
478,351,152480,2,0,P|389:355|368:313,1,132.00000402832,2|8,3:2|0:0,0:0:0:0:
348,264,153010,1,2,0:0:0:0:
348,264,153186,2,0,P|291:277|264:289,2,66.0000020141602,2|2|10,3:2|0:0|0:0,0:0:0:0:
360,198,153716,2,0,P|366:148|381:43,1,132.00000402832,2|8,0:0|0:0,0:0:0:0:
407,8,154245,1,8,0:0:0:0:
279,41,154598,6,0,P|214:50|141:58,1,132.00000402832,2|10,3:2|0:0,0:0:0:0:
88,27,155128,1,2,0:0:0:0:
88,27,155304,2,0,P|54:74|49:158,1,132.00000402832,2|10,3:2|0:0,0:0:0:0:
107,172,155833,2,0,P|173:179|238:188,1,132.00000402832,2|2,0:0|0:0,0:0:0:0:
271,245,156363,1,10,0:0:0:0:
339,131,156716,6,0,L|354:53,1,66.0000020141602,2|2,3:2|0:0,0:0:0:0:
396,17,157069,2,0,L|478:2,1,66.0000020141602,10|2,0:0|0:0,0:0:0:0:
509,37,157422,1,2,3:2:0:0:
497,234,157951,5,2,0:0:0:0:
497,234,158128,2,0,P|440:238|403:307,1,132.00000402832,2|10,3:2|0:0,0:0:0:0:
368,354,158657,1,0,0:0:0:0:
368,354,158833,2,0,P|322:346|290:341,1,66.0000020141602,6|2,3:2|0:0,0:0:0:0:
256,296,159186,2,0,P|223:301|191:307,2,66.0000020141602,10|2|8,0:0|3:0|0:0,0:0:0:0:
314,177,159892,1,14,0:0:0:0:
314,177,160069,1,8,0:0:0:0:
314,177,160245,6,0,P|323:104|336:24,1,132.00000402832,6|10,3:2|0:0,0:0:0:0:
281,2,160775,2,0,P|228:13|140:39,1,132.00000402832,2|0,0:3|3:0,0:0:0:0:
94,4,161304,2,0,P|85:77|72:157,1,132.00000402832,10|2,0:0|3:2,0:0:0:0:
0,244,162010,6,0,P|62:254|83:257,1,66.0000020141602,10|2,0:0|0:3,0:0:0:0:
87,316,162363,2,0,P|149:306|170:303,1,66.0000020141602,2|2,3:2|3:0,0:0:0:0:
197,257,162716,1,10,0:0:0:0:
267,368,163069,6,0,P|297:283|314:232,1,132.00000402832,2|10,3:2|0:0,0:0:0:0:
375,233,163598,2,0,P|345:148|328:97,1,132.00000402832,2|0,0:3|3:0,0:0:0:0:
355,46,164128,1,10,0:0:0:0:
355,46,164304,2,0,P|414:39|481:83,1,132.00000402832,2|2,0:3|0:3,0:0:0:0:
494,137,164833,1,10,0:0:0:0:
490,268,165186,2,0,P|498:311|513:357,2,66.0000020141602,6|8|10,3:2|0:0|0:0,0:0:0:0:
383,189,165892,6,0,P|306:169|242:156,1,132.00000402832,6|10,3:2|0:0,0:0:0:0:
171,55,166598,1,10,0:0:0:0:
56,97,166951,1,10,0:0:0:0:
48,228,167304,1,10,0:0:0:0:
174,267,167657,1,10,0:0:0:0:
254,158,168010,2,0,P|290:149|331:142,1,66.0000020141602,10|8,0:0|0:0,0:0:0:0:
383,156,168363,2,0,P|419:165|460:172,1,66.0000020141602,8|8,0:0|0:0,0:0:0:0:
501,131,168716,5,2,3:2:0:0:
286,285,169422,5,2,3:2:0:0:
56,153,170128,5,2,0:1:0:0:
