osu file format v14

[General]
AudioFilename: audio.mp3
AudioLeadIn: 0
PreviewTime: 35610
Countdown: 0
SampleSet: Soft
StackLeniency: 0.7
Mode: 0
LetterboxInBreaks: 0
WidescreenStoryboard: 0

[Editor]
DistanceSpacing: 0.6
BeatDivisor: 8
GridSize: 16
TimelineZoom: 1.5

[Metadata]
Title:Good-bye sengen
TitleUnicode:グッバイ宣言
Artist:Nakiri Ayame
ArtistUnicode:百鬼あやめ
Creator:AyameMyMommy
Version:Sayonara
Source:
Tags:pile amateurre rage quit ホロライブ hololive vtuber virtual youtuber chinozo japanese pop jpop j-pop さんかくずわり sankaku zuwari cover flower goodbye declaration 引き籠り hikikomori ojou
BeatmapID:3019637
BeatmapSetID:1470790

[Difficulty]
HPDrainRate:5.2
CircleSize:4.2
OverallDifficulty:8.7
ApproachRate:9.2
SliderMultiplier:1.72
SliderTickRate:1

[Events]
//Background and Video events
0,0,"ojou.jpg",0,0
//Break Periods
2,134328,136557
//Storyboard Layer 0 (Background)
//Storyboard Layer 1 (Fail)
//Storyboard Layer 2 (Pass)
//Storyboard Layer 3 (Foreground)
//Storyboard Layer 4 (Overlay)
//Storyboard Sound Samples

[TimingPoints]
-3519,352.941176470588,4,2,1,60,1,0
2128,-89.2857142857143,4,2,20,70,0,0
2216,-89.2857142857143,4,2,1,70,0,0
7069,-75.7575757575758,4,2,1,70,0,0
7775,-89.2857142857143,4,2,1,70,0,0
13422,-108.695652173913,4,2,1,60,0,0
24716,-89.2857142857143,4,2,1,65,0,0
33892,-81.9672131147541,4,2,1,65,0,0
34422,-89.2857142857143,4,2,1,65,0,0
36010,-75.7575757575758,4,2,20,75,0,1
36098,-75.7575757575758,4,2,1,75,0,0
41128,-65.7894736842105,4,2,1,75,0,0
41657,-75.7575757575758,4,2,1,75,0,0
47304,-75.7575757575758,4,2,1,75,0,1
47392,-75.7575757575758,4,2,1,75,0,0
52422,-65.7894736842105,4,2,1,75,0,0
52951,-75.7575757575758,4,2,1,75,0,0
58422,-65.7894736842105,4,2,1,75,0,0
58598,-81.9672131147541,4,2,1,75,0,1
58686,-81.9672131147541,4,2,1,75,0,0
63716,-65.7894736842105,4,2,1,75,0,0
64245,-81.9672131147541,4,2,1,75,0,0
67775,-65.7894736842105,4,2,1,75,0,0
69892,-89.2857142857143,4,2,20,70,0,1
69980,-89.2857142857143,4,2,1,70,0,0
74833,-75.7575757575758,4,2,1,70,0,0
75539,-89.2857142857143,4,2,1,70,0,0
81186,-108.695652173913,4,2,1,60,0,0
92481,-89.2857142857143,4,2,1,65,0,0
97598,-65.7894736842105,4,2,1,65,0,0
97951,-89.2857142857143,4,2,1,65,0,0
103069,-81.9672131147541,4,2,1,65,0,0
103422,-61.7283950617284,4,2,1,65,0,0
103775,-108.695652173913,4,2,20,60,0,1
103863,-108.695652173913,4,2,1,60,0,0
114363,-98.0392156862745,4,2,1,60,0,0
115069,-98.0392156862745,4,2,1,65,0,0
124951,-89.2857142857143,4,2,1,65,0,0
126363,-81.9672131147541,4,2,1,60,0,0
131833,-81.9672131147541,4,2,1,65,0,0
133245,-65.7894736842105,4,2,1,65,0,0
137128,-108.695652173913,4,2,1,65,0,0
137304,-81.9672131147541,4,2,1,65,0,0
137481,-65.7894736842105,4,2,1,65,0,0
137657,-70.4225352112676,4,2,20,75,0,1
137745,-70.4225352112676,4,2,1,75,0,1
142775,-61.7283950617284,4,2,1,75,0,1
143304,-70.4225352112676,4,2,1,75,0,1
148863,-70.4225352112676,4,2,1,75,0,0
148951,-70.4225352112676,4,2,1,75,0,1
151069,-65.7894736842105,4,2,1,75,0,1
152128,-70.4225352112676,4,2,1,75,0,1
154069,-61.7283950617284,4,2,1,75,0,1
154598,-70.4225352112676,4,2,1,75,0,1
160069,-61.7283950617284,4,2,1,75,0,1
160157,-61.7283950617284,4,2,1,75,0,0
160245,-81.9672131147541,4,2,1,75,0,1
160333,-81.9672131147541,4,2,1,75,0,0
165892,-70.4225352112676,4,2,1,75,0,1
168716,-70.4225352112676,4,2,1,65,0,0
170128,-54.9450549450549,4,2,1,45,0,0
170216,-54.9450549450549,4,2,1,5,0,0

[Colours]
Combo1 : 255,136,136
Combo2 : 255,51,51

[HitObjects]
98,142,716,5,2,2:3:0:0:
400,244,1069,1,2,2:3:0:0:
150,225,1422,5,2,2:0:0:0:
346,159,1598,1,2,2:0:0:0:
246,159,1775,5,2,2:0:0:0:
256,189,1863,1,2,2:0:0:0:
265,220,1951,1,2,2:0:0:0:
20,358,2128,6,0,B|61:297|129:305|129:305|107:349|150:385,1,192.64,4|10,1:2|2:0,2:0:0:0:
45,228,2657,2,0,P|57:180|70:124,1,96.32,2|0,2:0|2:0,2:0:0:0:
205,333,3010,5,2,2:0:0:0:
212,338,3098,1,2,2:0:0:0:
219,343,3186,2,0,B|259:355|287:317|278:308|312:272|354:299,1,144.48,10|2,2:0|2:0,2:0:0:0:
397,348,3539,1,2,1:2:0:0:
512,194,3716,2,0,P|478:226|431:225,1,96.32,2|8,2:0|2:0,2:0:0:0:
505,304,4069,5,2,2:0:0:0:
385,157,4245,2,0,L|407:64,1,96.32,2|2,1:2|2:0,2:0:0:0:
469,13,4510,1,2,2:0:0:0:
476,22,4598,2,0,P|488:48|484:75,1,48.16,10|0,2:0|2:0,2:0:0:0:
337,227,4775,1,2,2:0:0:0:
147,59,4951,6,0,B|99:123|175:174|175:174|189:148|219:143,1,192.64,2|8,1:2|2:0,2:0:0:0:
353,7,5481,2,0,P|308:47|255:31,1,96.32,2|2,2:0|1:2,2:0:0:0:
394,135,5833,2,0,L|338:116,1,48.16,2|0,2:0|2:0,2:0:0:0:
207,4,6010,5,10,2:0:0:0:
297,183,6186,1,2,2:0:0:0:
115,229,6363,5,2,1:2:0:0:
275,44,6539,1,2,2:0:0:0:
83,7,6716,2,0,P|11:25|13:104,1,144.48,10|0,2:0|2:0,2:0:0:0:
2,164,7069,6,0,P|30:159|61:131,1,56.76,2|0,1:2|2:0,2:0:0:0:
173,282,7245,1,10,2:0:0:0:
141,118,7422,2,0,B|126:171|126:171|128:177|128:177|113:233,1,113.52,14|2,2:0|1:2,2:0:0:0:
212,354,7686,5,0,1:2:0:0:
220,361,7775,2,0,B|229:344|245:332|245:332|161:273|116:365,1,192.64,6|10,1:2|2:0,2:0:0:0:
0,232,8304,2,0,P|36:284|79:288,1,96.32,2|0,2:0|2:0,2:0:0:0:
216,180,8657,5,2,2:0:0:0:
222,172,8745,1,2,2:0:0:0:
227,164,8833,2,0,B|251:126|223:94|215:104|180:67|209:22,1,144.48,10|2,2:0|2:0,2:0:0:0:
283,49,9186,1,2,1:2:0:0:
147,141,9363,2,0,P|133:185|161:229,1,96.32,2|8,2:0|2:0,2:0:0:0:
283,49,9716,5,2,2:0:0:0:
491,136,9892,2,0,B|455:167|455:167|405:150,1,96.32,2|2,1:2|2:0,2:0:0:0:
353,97,10157,1,2,2:0:0:0:
346,105,10245,2,0,P|331:131|334:164,1,48.16,10|0,2:0|2:0,2:0:0:0:
387,264,10422,1,2,2:0:0:0:
232,372,10598,6,0,B|245:312|311:305|311:305|334:353|382:349,1,192.64,2|10,1:2|2:0,2:0:0:0:
439,195,11128,2,0,P|392:229|389:275,1,96.32,2|2,2:0|1:2,2:0:0:0:
466,366,11481,2,0,L|453:310,1,48.16,2|0,2:0|2:0,2:0:0:0:
346,119,11657,5,10,2:0:0:0:
505,247,11833,1,2,2:0:0:0:
466,30,12010,5,2,1:2:0:0:
359,216,12186,1,2,2:0:0:0:
146,134,12363,6,0,B|198:131|216:76|216:76|215:134|261:158,1,192.64,10|0,2:0|3:2,2:0:0:0:
139,51,13069,2,0,L|87:26,1,48.16,2|0,2:3|2:0,2:0:0:0:
296,83,13245,2,0,L|342:70,1,48.16,2|0,2:3|2:0,2:0:0:0:
232,0,13422,6,0,L|203:157,1,158.24,2|0,1:2|1:2,2:0:0:0:
92,284,13951,1,2,2:0:0:0:
92,284,14128,2,0,P|53:309|16:304,1,79.12,0|0,1:2|2:0,2:0:0:0:
161,236,14481,2,0,P|226:252|257:338,1,158.24,2|0,1:2|1:2,2:0:0:0:
324,384,15010,1,2,2:0:0:0:
324,384,15186,1,0,1:2:0:0:
488,235,15539,5,2,1:2:0:0:
419,187,15716,1,0,2:0:0:0:
362,75,15892,5,2,1:2:0:0:
431,23,16069,1,0,2:0:0:0:
492,138,16245,6,0,P|416:160|344:192,1,158.24,2|0,1:2|1:2,2:0:0:0:
242,77,16775,2,0,P|278:115|276:155,1,79.12,2|0,2:0|1:2,2:0:0:0:
338,52,17128,1,0,2:0:0:0:
198,146,17304,2,0,P|121:121|117:36,1,158.24,2|0,1:2|1:2,2:0:0:0:
182,8,17833,1,2,2:0:0:0:
32,141,18010,5,0,1:2:0:0:
32,141,18186,1,0,2:0:0:0:
78,209,18363,2,0,P|80:251|57:282,1,79.12,2|0,1:2|2:0,2:0:0:0:
121,137,18716,2,0,P|156:114|194:118,1,79.12,2|0,1:2|2:0,2:0:0:0:
311,262,19069,6,0,P|257:246|210:235,1,79.12,6|2,1:2|2:0,2:0:0:0:
201,256,19333,1,2,2:0:0:0:
201,256,19422,2,0,P|179:294|191:330,1,79.12,0|2,1:0|2:0,2:0:0:0:
339,173,19775,6,0,P|393:187|439:201,1,79.12,2|2,1:2|2:0,2:0:0:0:
436,224,20039,1,2,2:0:0:0:
436,224,20128,2,0,P|435:267|406:292,1,79.12,0|2,1:0|2:0,2:0:0:0:
232,152,20481,6,0,P|215:84|299:36,1,158.24,2|0,1:2|1:2,2:0:0:0:
92,177,21186,5,2,1:2:0:0:
155,225,21363,1,0,2:0:0:0:
5,329,21539,5,2,1:2:0:0:
57,256,21716,1,0,2:0:0:0:
182,333,21892,6,0,P|214:353|260:342,1,79.12,2|0,1:2|2:0,2:0:0:0:
400,231,22245,2,0,P|366:210|327:216,1,79.12,0|2,1:2|2:0,2:0:0:0:
336,379,22598,2,0,P|338:335|353:293,1,79.12,0|0,1:2|2:0,2:0:0:0:
240,186,22951,2,0,P|237:229|223:272,1,79.12,0|0,1:2|2:0,2:0:0:0:
375,144,23304,5,0,1:2:0:0:
417,74,23481,1,2,2:0:0:0:
309,106,23657,1,0,1:2:0:0:
489,104,23833,1,0,2:0:0:0:
372,4,24010,2,0,L|404:167,1,158.24,2|10,1:2|2:0,2:0:0:0:
122,326,24716,6,0,B|102:287|131:256|139:266|170:232|148:190,1,144.48,2|0,1:2|2:0,2:0:0:0:
82,159,25069,2,0,P|69:186|78:217,1,48.16,10|0,2:0|2:0,2:0:0:0:
198,309,25245,6,0,P|266:279|257:215,1,144.48,2|0,2:0|2:0,2:0:0:0:
252,212,25598,1,2,2:0:0:0:
29,360,25775,6,0,B|19:345|3:333|3:333|103:283|134:388,1,192.64,10|0,2:0|1:2,2:0:0:0:
252,212,26304,1,2,2:0:0:0:
308,363,26481,1,10,2:0:0:0:
232,307,26657,1,0,2:0:0:0:
467,184,26833,5,2,1:2:0:0:
352,151,27010,1,2,2:0:0:0:
319,267,27186,1,10,2:0:0:0:
434,300,27363,1,2,2:0:0:0:
352,151,27539,6,0,B|338:113|319:75|319:75|348:59|382:32,1,144.48,2|0,1:2|2:0,2:0:0:0:
435,0,27892,2,0,P|448:26|446:55,1,48.16,10|0,2:0|2:0,2:0:0:0:
356,232,28069,6,0,B|312:245|286:208|296:199|264:164|218:187,1,144.48,2|0,2:0|2:0,2:0:0:0:
215,186,28422,1,2,2:0:0:0:
114,22,28598,6,0,B|66:86|142:137|142:137|156:111|186:106,1,192.64,10|0,2:0|1:2,2:0:0:0:
364,42,29128,1,2,2:0:0:0:
263,0,29304,2,0,L|286:104,1,96.32,10|0,2:0|2:0,2:0:0:0:
240,174,29657,1,2,1:2:0:0:
462,293,29833,5,10,2:0:0:0:
284,384,30010,2,0,P|310:336|410:351,1,144.48,10|0,2:0|2:0,2:0:0:0:
462,293,30363,6,0,B|480:249|480:249|451:209,1,96.32,6|2,1:2|2:0,2:0:0:0:
391,156,30628,2,0,L|407:95,1,48.16,2|10,2:0|2:0,2:0:0:0:
302,237,30892,1,0,2:0:0:0:
454,52,31069,6,0,P|502:74|510:122,1,96.32,2|2,1:2|2:0,2:0:0:0:
491,188,31333,2,0,P|465:208|447:209,1,48.16,2|10,2:0|2:0,2:0:0:0:
227,130,31598,1,0,2:0:0:0:
391,156,31775,6,0,B|344:125|306:157|306:157|285:218|225:212,1,192.64,2|10,1:2|2:0,2:0:0:0:
61,76,32304,1,2,2:0:0:0:
127,22,32481,2,0,B|161:55|161:55|147:101,1,96.32,2|2,1:2|1:2,2:0:0:0:
231,212,32833,1,10,2:0:0:0:
0,366,33010,6,0,B|-26:308|48:268|48:268|54:323|100:332,1,192.64,4|2,1:2|1:2,2:0:0:0:
231,212,33539,1,8,2:0:0:0:
296,373,33716,1,2,2:0:0:0:
131,257,33892,2,0,P|146:197|159:147,1,104.92,10|0,2:0|1:2,2:0:0:0:
380,61,34245,1,10,2:0:0:0:
237,12,34422,6,0,P|260:87|278:170,1,144.48,2|0,1:2|2:0,2:0:0:0:
330,231,34775,2,0,P|383:173|446:116,1,144.48,2|0,1:2|2:0,2:0:0:0:
381,61,35128,2,0,P|342:52|302:39,1,48.16,2|0,1:2|2:0,2:0:0:0:
459,214,35304,2,0,P|497:222|537:235,1,48.16,2|0,1:2|2:0,2:0:0:0:
297,350,35481,1,8,2:1:0:0:
297,350,35657,1,8,2:1:0:0:
297,350,36010,6,0,P|251:314|188:325,1,113.52,6|2,1:2|2:0,2:0:0:0:
69,374,36275,1,2,2:0:0:0:
77,381,36363,2,0,P|113:373|129:349,1,56.76,10|0,2:0|2:0,2:0:0:0:
243,231,36539,1,2,2:0:0:0:
89,144,36716,6,0,B|111:132|129:112|129:112|203:160|144:232,1,170.28,2|0,1:2|2:0,2:0:0:0:
108,270,37069,2,0,P|86:243|90:205,1,56.76,10|0,2:0|2:0,2:0:0:0:
242,46,37245,6,0,B|290:23|324:61|319:72|313:80|346:120|405:92,1,170.28,2|0,2:0|2:0,2:0:0:0:
437,6,37598,2,0,P|400:16|371:24,1,56.76,2|0,2:0|2:0,2:0:0:0:
258,124,37775,1,10,2:0:0:0:
428,234,37951,1,2,2:0:0:0:
387,98,38128,6,0,L|372:169,1,56.76,2|0,1:2|2:0,2:0:0:0:
251,384,38304,2,0,L|236:313,1,56.76,2|0,2:0|2:0,2:0:0:0:
126,221,38481,1,10,2:0:0:0:
233,139,38657,1,2,2:0:0:0:
326,295,38833,6,0,B|397:352|476:300|467:239|411:212|371:250,1,227.04,2|8,1:2|2:0,2:0:0:0:
506,384,39363,1,2,2:0:0:0:
326,295,39539,2,0,B|255:238|176:290|185:351|241:378|281:340,1,227.04,2|8,1:2|2:0,2:0:0:0:
492,219,40069,1,2,2:0:0:0:
366,8,40245,6,0,B|395:50|356:92|347:78|300:115|333:166,1,170.28,2|0,1:2|2:0,2:0:0:0:
414,198,40598,2,0,P|406:156|401:129,1,56.76,10|0,2:0|2:0,2:0:0:0:
289,27,40775,1,0,2:0:0:0:
125,202,40951,1,2,1:2:0:0:
245,279,41128,6,0,P|214:268|191:239,1,65.36,8|0,2:1|2:0,2:0:0:0:
35,314,41304,2,0,P|63:297|80:263,1,65.36,8|0,2:1|2:0,2:0:0:0:
198,105,41481,1,2,2:0:0:0:
60,3,41657,6,0,P|9:33|20:103,1,113.52,2|2,1:2|2:0,2:0:0:0:
0,162,41922,1,2,2:0:0:0:
13,165,42010,2,0,L|81:138,1,56.76,10|0,2:0|2:0,2:0:0:0:
301,212,42186,1,2,2:0:0:0:
198,105,42363,6,0,B|159:120|159:120|141:206|141:206|80:233,1,170.28,2|0,1:2|2:0,2:0:0:0:
29,237,42716,2,0,P|36:271|61:287,1,56.76,10|0,2:0|2:0,2:0:0:0:
293,332,42892,2,0,B|302:319|313:309|313:309|230:259|192:360,1,170.28,2|0,2:0|2:0,2:0:0:0:
129,375,43245,2,0,L|70:358,1,56.76,2|0,2:0|2:0,2:0:0:0:
218,220,43422,1,10,2:0:0:0:
299,338,43598,1,2,2:0:0:0:
124,203,43775,6,0,L|142:125,1,56.76,2|0,1:2|2:0,2:0:0:0:
374,0,43951,2,0,L|392:78,1,56.76,2|0,2:0|2:0,2:0:0:0:
464,197,44128,1,10,2:0:0:0:
295,61,44304,1,2,2:0:0:0:
464,197,44481,6,0,B|496:156|453:119|402:114|350:185|413:273,1,227.04,2|8,1:2|2:0,2:0:0:0:
446,324,45010,1,2,2:0:0:0:
233,383,45186,2,0,B|213:362|177:362|177:362|286:331,1,170.28,2|0,1:2|2:0,2:0:0:0:
344,374,45539,2,0,P|356:345|352:313,1,56.76,10|0,2:0|2:0,2:0:0:0:
231,168,45716,6,0,L|244:104,1,56.76,2|0,2:0|2:0,2:0:0:0:
56,275,45892,1,2,1:2:0:0:
157,119,46069,1,2,2:0:0:0:
370,192,46245,2,0,B|327:171|293:205|296:212|301:219|275:262|225:250,1,170.28,10|0,2:0|2:0,2:0:0:0:
157,215,46598,1,2,1:2:0:0:
50,375,46775,5,8,2:0:0:0:
16,342,46863,1,8,2:0:0:0:
34,300,46951,1,12,2:0:0:0:
213,132,47128,2,0,L|152:118,1,56.76,10|10,2:0|2:0,2:0:0:0:
0,1,47304,6,0,P|45:29|42:93,1,113.52,6|2,1:2|2:0,2:0:0:0:
83,157,47569,1,2,2:0:0:0:
77,167,47657,2,0,P|49:185|17:182,1,56.76,10|0,2:0|2:0,2:0:0:0:
164,9,47833,1,2,2:0:0:0:
308,160,48010,6,0,B|353:181|353:181|427:142|371:67,1,170.28,2|0,1:2|2:0,2:0:0:0:
374,4,48363,2,0,P|346:7|324:24,1,56.76,10|0,2:0|2:0,2:0:0:0:
139,211,48539,6,0,B|178:186|222:204|222:204|246:248|293:245,1,170.28,2|0,2:0|2:0,2:0:0:0:
349,292,48892,2,0,P|366:261|364:230,1,56.76,2|0,2:0|2:0,2:0:0:0:
461,72,49069,1,8,2:0:0:0:
506,201,49245,1,2,2:0:0:0:
297,101,49422,6,0,L|227:117,1,56.76,2|0,1:2|2:0,2:0:0:0:
447,274,49598,2,0,L|517:290,1,56.76,2|0,2:0|2:0,2:0:0:0:
295,351,49775,1,10,2:0:0:0:
418,198,49951,1,2,2:0:0:0:
295,351,50128,6,0,B|223:286|297:218|297:218|327:264|377:255,1,227.04,2|8,1:2|2:0,2:0:0:0:
196,366,50657,1,2,2:0:0:0:
415,163,50833,2,0,B|486:227|412:295|412:295|382:249|332:258,1,227.04,2|10,1:2|2:0,2:0:0:0:
488,353,51363,1,2,2:0:0:0:
318,179,51539,6,0,B|275:158|241:192|244:199|249:206|223:249|173:237,1,170.28,2|0,1:2|2:0,2:0:0:0:
121,179,51892,2,0,P|146:160|177:163,1,56.76,10|0,2:0|2:0,2:0:0:0:
311,263,52069,1,0,2:0:0:0:
137,384,52245,1,2,1:2:0:0:
23,286,52422,6,0,P|53:304|76:350,1,65.36,8|0,2:1|2:0,2:0:0:0:
173,237,52598,2,0,P|159:269|167:320,1,65.36,8|0,2:1|2:0,2:0:0:0:
233,369,52775,1,2,2:0:0:0:
81,209,52951,6,0,L|104:92,1,113.52,2|2,1:2|2:0,2:0:0:0:
23,11,53216,1,2,2:0:0:0:
15,20,53304,2,0,P|10:47|24:71,1,56.76,10|0,2:0|2:0,2:0:0:0:
181,143,53481,1,2,2:0:0:0:
362,46,53657,6,0,B|382:9|425:12|425:12|376:39|375:87,1,170.28,2|0,1:2|2:0,2:0:0:0:
309,131,54010,2,0,P|282:130|258:110,1,56.76,10|0,2:0|2:0,2:0:0:0:
58,198,54186,6,0,P|139:210|179:128,1,170.28,2|0,2:0|2:0,2:0:0:0:
127,87,54539,2,0,P|102:123|103:146,1,56.76,2|0,2:0|2:0,2:0:0:0:
182,285,54716,1,10,2:0:0:0:
50,195,54892,1,2,2:0:0:0:
109,373,55069,6,0,L|96:317,1,56.76,2|0,1:2|2:0,2:0:0:0:
327,139,55245,2,0,L|308:214,1,56.76,2|0,2:0|2:0,2:0:0:0:
207,70,55422,1,10,2:0:0:0:
267,264,55598,1,2,2:0:0:0:
389,11,55775,6,0,B|478:-11|503:76|503:76|459:110|476:171,1,227.04,2|8,1:2|2:0,2:0:0:0:
512,352,56304,1,2,2:0:0:0:
323,182,56481,2,0,B|372:174|389:131|389:131|378:176|419:208,1,170.28,2|0,1:2|2:0,2:0:0:0:
488,238,56833,2,0,P|452:288|400:281,1,113.52,10|0,2:0|2:0,2:0:0:0:
94,215,57186,5,6,1:2:0:0:
303,101,57363,1,2,2:0:0:0:
260,325,57539,1,10,2:0:0:0:
173,140,57716,6,0,P|220:184|202:231,1,113.52,2|2,2:0|1:2,2:0:0:0:
167,294,57981,1,0,1:2:0:0:
156,301,58069,1,8,2:0:0:0:
303,196,58245,1,12,2:0:0:0:
154,77,58422,2,0,P|152:117|175:140,1,65.36,8|0,2:1|2:0,2:0:0:0:
342,373,58598,6,0,B|325:328|293:310|245:318|245:318|230:370|180:377,1,209.84,6|8,1:2|2:0,2:0:0:0:
15,221,59128,2,0,P|63:235|106:207,1,104.92,2|0,2:0|1:2,2:0:0:0:
4,332,59481,1,0,1:2:0:0:
116,198,59657,2,0,P|165:176|217:212,1,104.92,10|2,2:0|2:0,2:0:0:0:
268,244,60010,1,0,1:2:0:0:
107,107,60186,5,2,2:0:0:0:
215,16,60363,1,10,2:0:0:0:
295,127,60539,1,2,2:0:0:0:
113,323,60716,5,2,1:2:0:0:
199,103,60892,1,2,1:2:0:0:
191,281,61069,5,10,2:0:0:0:
130,152,61245,1,2,2:0:0:0:
334,343,61422,6,0,B|379:341|421:372|421:372|487:342|466:284|422:271,1,209.84,2|8,1:2|2:0,2:0:0:0:
343,157,61951,2,0,L|371:39,2,104.92,2|0|0,2:0|1:2|1:2,2:0:0:0:
269,73,62481,1,10,2:0:0:0:
512,163,62657,2,0,P|472:197|419:186,1,104.92,2|0,2:0|1:2,2:0:0:0:
205,343,63010,5,2,2:0:0:0:
343,157,63186,1,10,2:0:0:0:
371,384,63363,1,2,2:0:0:0:
223,239,63539,1,2,1:2:0:0:
453,64,63716,6,0,P|423:82|400:128,1,65.36,8|0,1:0|2:0,2:0:0:0:
307,15,63892,2,0,P|321:47|313:98,1,65.36,8|0,2:1|2:0,2:0:0:0:
320,232,64069,1,2,2:0:0:0:
86,64,64245,6,0,B|56:19|99:-3|139:-19|195:55|133:134,1,209.84,6|8,1:2|2:0,2:0:0:0:
240,290,64775,2,0,P|198:251|138:265,1,104.92,2|0,2:0|1:2,2:0:0:0:
271,128,65128,1,0,1:2:0:0:
146,262,65304,2,0,P|98:292|41:266,1,104.92,10|0,2:0|2:0,2:0:0:0:
0,220,65657,1,0,1:2:0:0:
169,353,65833,5,2,2:0:0:0:
256,265,66010,1,10,2:0:0:0:
163,180,66186,1,2,2:0:0:0:
255,13,66363,5,2,1:2:0:0:
341,233,66539,1,2,1:2:0:0:
333,55,66716,5,10,2:0:0:0:
274,182,66892,1,2,2:0:0:0:
475,328,67069,5,2,1:2:0:0:
475,328,67775,2,0,P|388:349|281:387,1,196.08,2|0,1:2|2:0,2:0:0:0:
250,273,68128,2,0,P|336:251|443:213,1,196.08,2|0,1:2|2:0,2:0:0:0:
512,256,68481,1,2,1:2:0:0:
152,160,69186,5,2,2:0:0:0:
246,225,69363,1,2,2:0:0:0:
256,195,69451,1,2,2:0:0:0:
265,164,69539,1,2,2:0:0:0:
348,226,69716,1,2,2:0:0:0:
149,72,69892,6,0,B|171:14|237:18|237:18|252:69|300:72,1,192.64,4|10,1:2|2:0,2:0:0:0:
497,213,70422,2,0,P|429:209|412:180,1,96.32,2|0,2:0|2:0,2:0:0:0:
360,29,70775,5,2,2:0:0:0:
368,24,70863,1,2,2:0:0:0:
375,17,70951,2,0,P|446:36|456:116,1,144.480001763672,10|2,2:0|2:0,2:0:0:0:
466,112,71304,1,2,1:2:0:0:
342,261,71481,2,0,L|323:157,1,96.32,2|8,2:0|2:0,2:0:0:0:
378,105,71833,1,2,2:0:0:0:
255,253,72010,6,0,P|252:301|292:334,1,96.32,2|2,1:2|2:0,2:0:0:0:
348,373,72275,1,2,2:0:0:0:
358,377,72363,2,0,L|418:359,1,48.16,10|0,2:0|2:0,2:0:0:0:
309,182,72539,1,2,2:0:0:0:
169,346,72716,6,0,B|140:352|122:375|122:375|37:333|89:255,1,192.64,2|10,1:2|2:0,2:0:0:0:
0,144,73245,2,0,P|25:177|88:178,1,96.32,2|2,2:0|1:2,2:0:0:0:
79,57,73598,2,0,L|60:122,1,48.16,2|0,2:0|2:0,2:0:0:0:
0,258,73775,5,10,2:0:0:0:
182,152,73951,1,2,2:0:0:0:
8,9,74128,5,2,1:2:0:0:
76,183,74304,1,2,2:0:0:0:
276,22,74481,2,0,B|325:52|325:52|288:166,1,144.48,10|0,2:0|2:0,2:0:0:0:
254,198,74833,6,0,P|277:213|305:212,1,56.76,2|0,1:2|2:0,2:0:0:0:
506,352,75010,1,10,2:0:0:0:
376,169,75186,2,0,P|420:193|416:263,1,113.52,14|2,2:0|1:2,2:0:0:0:
506,352,75451,5,0,1:2:0:0:
512,342,75539,2,0,B|475:307|432:335|432:335|401:392|344:377,1,192.64,6|10,1:2|2:0,2:0:0:0:
164,303,76069,2,0,P|212:314|248:281,1,96.32,2|0,2:0|2:0,2:0:0:0:
314,157,76422,5,2,2:0:0:0:
306,163,76510,1,2,2:0:0:0:
298,169,76598,2,0,B|274:207|302:239|310:229|345:266|316:311,1,144.48,10|2,2:0|2:0,2:0:0:0:
245,286,76951,1,2,1:2:0:0:
382,196,77128,2,0,P|397:155|367:101,1,96.32,2|8,2:0|2:0,2:0:0:0:
175,141,77481,5,2,2:0:0:0:
275,0,77657,2,0,L|252:107,1,96.32,2|2,1:2|2:0,2:0:0:0:
310,151,77922,1,2,2:0:0:0:
303,159,78010,2,0,P|282:172|254:174,1,48.16,10|0,2:0|2:0,2:0:0:0:
120,76,78186,1,2,2:0:0:0:
14,293,78363,6,0,B|55:232|123:240|123:240|101:284|144:320,1,192.64,2|10,1:2|2:0,2:0:0:0:
15,177,78892,2,0,B|-7:137|-7:137|28:83,1,96.32,2|2,2:0|1:2,2:0:0:0:
202,266,79245,2,0,L|265:249,1,48.16,2|0,2:0|2:0,2:0:0:0:
84,373,79422,5,10,2:0:0:0:
191,173,79598,1,2,2:0:0:0:
232,356,79775,5,2,1:2:0:0:
104,209,79951,1,2,2:0:0:0:
289,75,80128,2,0,P|330:110|318:160,1,96.32,10|2,2:0|2:0,2:0:0:0:
288,215,80392,1,0,2:0:0:0:
279,223,80481,5,0,3:2:0:0:
325,284,80657,5,0,3:2:0:0:
396,311,80833,5,0,3:0:0:0:
468,284,81010,5,0,3:0:0:0:
279,223,81186,6,0,P|210:238|183:333,1,158.24,2|0,1:2|1:2,2:0:0:0:
277,384,81716,1,2,2:0:0:0:
277,384,81892,2,0,P|267:339|262:294,1,79.12,0|0,1:2|2:0,2:0:0:0:
351,174,82245,2,0,P|368:240|385:328,1,158.24,2|0,1:2|1:2,2:0:0:0:
452,384,82775,1,2,2:0:0:0:
452,384,82951,1,0,1:2:0:0:
248,304,83304,5,2,1:2:0:0:
161,252,83481,1,0,2:0:0:0:
29,217,83657,5,2,1:2:0:0:
116,165,83833,1,0,2:0:0:0:
14,21,84010,6,0,P|46:66|148:64,1,158.24,2|0,1:2|1:2,2:0:0:0:
247,186,84539,2,0,P|222:153|226:90,1,79.12,2|0,2:0|1:2,2:0:0:0:
164,240,84892,1,0,2:0:0:0:
305,114,85069,2,0,P|286:42|200:30,1,158.24,2|0,1:2|1:2,2:0:0:0:
359,0,85598,1,2,2:0:0:0:
217,116,85775,5,0,1:2:0:0:
217,116,85951,1,0,2:0:0:0:
322,192,86128,2,0,P|360:181|397:167,1,79.12,2|0,1:2|2:0,2:0:0:0:
271,282,86481,2,0,P|232:292|195:306,1,79.12,2|0,1:2|2:0,2:0:0:0:
480,191,86833,6,0,P|486:133|448:105,1,79.12,6|2,1:2|2:0,2:0:0:0:
453,93,87098,1,2,2:0:0:0:
453,93,87186,2,0,P|467:50|474:11,1,79.12,0|2,1:0|2:0,2:0:0:0:
213,149,87539,6,0,P|275:142|303:173,1,79.12,2|2,1:2|2:0,2:0:0:0:
310,182,87804,1,2,2:0:0:0:
310,182,87892,2,0,P|353:168|392:161,1,79.12,0|2,1:2|2:0,2:0:0:0:
512,300,88245,6,0,P|464:364|379:346,1,158.24,0|0,1:2|1:2,2:0:0:0:
157,218,88951,5,2,1:2:0:0:
223,136,89128,1,0,2:0:0:0:
301,91,89304,5,2,1:2:0:0:
235,9,89481,1,0,2:0:0:0:
77,195,89657,6,0,P|36:185|-5:179,1,79.12,2|0,1:2|2:0,2:0:0:0:
130,125,90010,2,0,P|157:93|183:61,1,79.12,0|2,1:2|2:0,2:0:0:0:
160,207,90363,2,0,P|171:247|187:285,1,79.12,0|0,1:2|2:0,2:0:0:0:
11,373,90716,1,2,1:2:0:0:
60,297,90892,1,0,2:0:0:0:
202,370,91069,6,0,P|238:374|275:350,1,79.12,2|2,1:2|2:0,2:0:0:0:
335,312,91333,1,2,2:0:0:0:
327,303,91422,1,2,1:2:0:0:
403,384,91598,1,2,2:0:0:0:
271,234,91775,5,2,1:2:0:0:
310,165,91951,1,2,1:2:0:0:
348,96,92128,1,2,1:2:0:0:
348,96,92481,6,0,B|328:135|357:166|365:156|396:190|374:232,1,144.48,6|0,1:2|2:0,2:0:0:0:
289,262,92833,2,0,L|303:199,1,48.16,10|0,2:0|2:0,2:0:0:0:
429,104,93010,2,0,P|425:43|342:20,1,144.48,2|0,2:0|2:0,2:0:0:0:
285,42,93363,2,0,P|260:53|235:53,1,48.16,2|0,2:0|2:0,2:0:0:0:
6,193,93539,6,0,B|-5:181|-23:172|-23:172|31:145|89:163|89:230,1,192.64,8|0,2:0|2:0,2:0:0:0:
239,53,94069,1,2,2:0:0:0:
102,102,94245,1,10,2:0:0:0:
143,4,94422,1,0,2:0:0:0:
267,268,94598,5,2,1:2:0:0:
300,153,94775,1,2,2:0:0:0:
184,120,94951,1,10,2:0:0:0:
151,235,95128,1,2,2:0:0:0:
373,365,95304,6,0,B|342:342|343:301|343:301|329:339|285:347,1,144.48,2|0,1:2|2:0,2:0:0:0:
224,384,95657,2,0,P|213:361|215:334,1,48.16,10|0,2:0|2:0,2:0:0:0:
381,188,95833,2,0,P|430:221|425:306,1,144.48,2|0,2:0|2:0,2:0:0:0:
464,370,96186,1,2,2:0:0:0:
253,258,96363,6,0,B|220:232|167:255|167:255|150:321|83:315,1,192.64,10|0,2:0|1:2,2:0:0:0:
169,376,96892,1,2,2:0:0:0:
39,262,97069,1,10,2:0:0:0:
0,336,97245,1,0,2:0:0:0:
131,196,97422,1,2,1:2:0:0:
28,111,97598,6,0,P|34:144|63:173,1,65.36,8|0,2:1|2:0,2:0:0:0:
184,72,97775,2,0,P|192:105|178:143,1,65.36,8|0,2:1|2:0,2:0:0:0:
122,310,97951,2,0,P|163:275|220:288,1,96.32,2|4,2:0|1:2,2:0:0:0:
382,337,98304,5,2,2:0:0:0:
260,218,98481,1,10,2:0:0:0:
416,155,98657,1,2,2:0:0:0:
304,366,98833,2,0,P|305:301|376:252,1,144.48,2|0,1:2|2:0,2:0:0:0:
440,230,99186,1,10,2:0:0:0:
483,334,99363,1,2,2:0:0:0:
308,191,99539,6,0,L|331:81,1,96.32,2|2,1:2|2:0,2:0:0:0:
276,37,99804,2,0,P|256:59|251:84,1,48.16,2|10,2:0|2:0,2:0:0:0:
363,253,100069,1,2,2:0:0:0:
512,92,100245,2,0,P|476:133|433:131,1,96.32,0|0,1:2|1:2,2:0:0:0:
501,237,100598,1,10,2:0:0:0:
374,76,100775,1,8,2:0:0:0:
366,70,100863,1,0,1:2:0:0:
359,63,100951,6,0,P|290:55|239:125,1,144.48,6|0,1:2|2:0,2:0:0:0:
191,169,101304,2,0,P|154:133|164:89,1,96.32,10|0,2:0|2:0,2:0:0:0:
288,290,101657,2,0,L|266:404,1,96.32,2|0,1:2|1:2,2:0:0:0:
158,268,102010,6,0,L|228:247,1,48.16,10|0,2:0|2:0,2:0:0:0:
287,187,102186,2,0,L|333:173,1,48.16,8|8,2:0|2:0,2:0:0:0:
144,350,102363,5,2,1:2:0:0:
96,351,102451,1,8,2:0:0:0:
59,320,102539,1,8,2:0:0:0:
59,271,102628,1,8,2:0:0:0:
73,267,102716,5,0,1:2:0:0:
92,222,102804,1,8,2:0:0:0:
86,174,102892,1,8,2:0:0:0:
36,155,102981,1,8,2:0:0:0:
45,144,103069,6,0,P|75:141|110:116,1,52.46,2|0,1:2|2:0,2:0:0:0:
175,39,103245,2,0,P|167:68|137:98,1,52.46,0|0,1:2|2:0,2:0:0:0:
22,222,103422,6,0,P|45:241|87:248,1,69.66,0|0,1:2|2:0,2:0:0:0:
250,31,103598,2,0,P|265:57|265:100,1,69.66,0|0,1:2|2:0,2:0:0:0:
126,311,103775,6,0,B|217:289|190:362|280:343,1,158.24,4|2,1:2|1:2,2:0:0:0:
362,210,104304,2,0,P|353:169|346:131,1,79.12,2|0,2:0|1:0,2:0:0:0:
266,257,104657,6,0,L|319:276,1,39.56,0|0,2:0|2:0,2:0:0:0:
455,306,104833,2,0,P|392:307|345:385,1,158.24,2|0,1:2|1:2,2:0:0:0:
512,239,105363,2,0,P|466:220|450:184,1,79.12,2|0,2:0|1:0,2:0:0:0:
340,59,105716,1,0,2:0:0:0:
292,131,105892,6,0,B|324:158|324:158|407:130,1,118.68,2|0,1:2|2:0,2:0:0:0:
451,74,106245,2,0,B|490:86|490:86|473:124,1,79.12,2|2,1:2|2:0,2:0:0:0:
315,236,106598,6,0,B|279:249|279:249|255:326|255:326|211:340,1,158.24,2|0,1:2|1:2,2:0:0:0:
113,264,107128,2,0,P|161:266|184:241,1,79.12,2|0,2:0|1:0,2:0:0:0:
181,246,107481,1,0,2:0:0:0:
342,369,107657,2,0,P|291:316|211:346,1,158.24,2|0,1:2|1:2,2:0:0:0:
73,366,108186,6,0,B|64:348|64:348|69:329,1,39.56,2|0,2:0|2:0,2:0:0:0:
113,264,108363,1,2,1:2:0:0:
117,253,108451,1,0,2:0:0:0:
117,241,108539,1,0,2:0:0:0:
1,163,108716,5,2,1:2:0:0:
27,187,108804,1,0,2:0:0:0:
61,177,108892,2,0,B|71:155|71:155|63:124,1,39.56,0|0,2:0|2:0,2:0:0:0:
152,22,109069,5,2,1:2:0:0:
118,32,109157,1,0,2:0:0:0:
109,66,109245,2,0,B|123:85|123:85|153:94,1,39.56,0|0,2:0|2:0,2:0:0:0:
276,161,109422,6,0,B|285:123|285:123|233:62|233:62|247:19,1,158.24,2|0,1:2|1:2,2:0:0:0:
190,156,109951,2,0,P|180:194|213:227,1,79.12,2|0,2:0|1:0,2:0:0:0:
347,310,110304,6,0,P|343:329|340:349,1,39.56,0|0,2:0|2:0,2:0:0:0:
253,352,110481,2,0,P|262:314|268:274,1,79.12,2|0,1:2|2:0,2:0:0:0:
427,199,110833,6,0,B|455:214|455:214|470:272|470:272|506:287,2,118.68,2|2|2,1:2|2:0|2:0,2:0:0:0:
314,78,111539,2,0,B|346:56|346:56|394:75,1,79.12,2|0,1:2|2:0,2:0:0:0:
443,120,111804,2,0,B|464:125|464:125|491:110,1,39.56,2|0,2:0|1:2,2:0:0:0:
439,12,112069,1,2,2:0:0:0:
313,162,112245,6,0,B|281:179|281:179|186:136,1,118.68,2|2,1:2|2:0,2:0:0:0:
197,154,112598,1,0,1:2:0:0:
101,78,112775,2,0,B|113:96|113:96|101:117,1,39.56,2|0,2:0|2:0,2:0:0:0:
56,172,112951,2,0,B|43:208|43:208|96:270|96:270|83:311,1,158.24,2|2,1:2|1:2,2:0:0:0:
5,290,113481,1,2,2:0:0:0:
225,328,113657,6,0,B|204:312|204:312|137:346,1,79.12,2|0,1:2|2:0,2:0:0:0:
101,384,113922,1,2,2:0:0:0:
93,379,114010,1,0,1:2:0:0:
209,229,114186,1,2,2:0:0:0:
316,359,114363,6,0,B|336:374|336:374|401:341,1,87.7200005354004,6|8,1:2|2:2,2:0:0:0:
453,295,114628,1,8,2:0:0:0:
463,304,114716,1,4,1:2:0:0:
357,217,114892,1,8,2:0:0:0:
512,166,115069,1,6,1:2:0:0:
512,20,115422,6,0,B|488:24|488:24|467:9,1,43.86,2|0,1:2|2:0,2:0:0:0:
410,83,115598,1,2,2:0:0:0:
403,78,115686,2,0,B|379:74|379:74|358:89,1,43.86,2|2,2:0|1:2,2:0:0:0:
282,143,115863,5,0,2:0:0:0:
261,118,115951,1,0,2:0:0:0:
258,86,116039,1,0,2:0:0:0:
271,57,116128,5,2,1:2:0:0:
276,67,116216,1,0,2:0:0:0:
277,80,116304,1,0,2:0:0:0:
271,91,116392,1,0,2:0:0:0:
259,96,116481,2,0,B|239:104|239:104|217:98,1,43.86,2|0,1:2|2:0,2:0:0:0:
84,30,116657,5,2,2:0:0:0:
95,26,116745,1,0,2:0:0:0:
105,30,116833,1,2,1:2:0:0:
126,47,116922,1,0,2:0:0:0:
135,73,117010,1,2,2:0:0:0:
131,108,117098,1,0,2:0:0:0:
109,145,117186,5,2,1:2:0:0:
91,184,117275,1,0,2:0:0:0:
107,224,117363,1,2,2:0:0:0:
147,239,117451,1,0,2:0:0:0:
187,223,117539,2,0,B|193:202|193:202|182:181,1,43.86,2|0,1:2|2:0,2:0:0:0:
75,303,117716,2,0,B|68:322|68:322|79:342,1,43.86,2|0,2:0|2:0,2:0:0:0:
252,305,117892,5,2,1:2:0:0:
280,266,117981,1,0,2:0:0:0:
325,253,118069,1,0,2:0:0:0:
368,272,118157,1,0,2:0:0:0:
407,335,118245,5,2,1:2:0:0:
376,366,118333,1,0,2:0:0:0:
332,369,118422,2,0,B|319:351|319:351|324:328,1,43.86,0|0,2:0|2:0,2:0:0:0:
426,207,118598,5,2,1:2:0:0:
449,164,118686,1,0,2:0:0:0:
446,115,118775,1,0,2:0:0:0:
410,81,118863,1,0,2:0:0:0:
362,88,118951,2,0,B|353:106|353:106|361:128,1,43.86,2|0,1:2|2:0,2:0:0:0:
251,306,119128,6,0,B|211:297|211:297|178:213|178:213|131:201,1,175.44,2|2,2:0|2:0,2:0:0:0:
216,139,119657,1,2,1:2:0:0:
41,216,119833,2,0,B|33:262|33:262|125:289,1,131.58,2|0,2:0|2:0,2:0:0:0:
171,338,120186,1,2,2:0:0:0:
282,195,120363,1,2,1:2:0:0:
321,287,120539,1,2,2:0:0:0:
158,199,120716,6,0,B|142:157|142:157|209:96|209:96|188:42,1,175.44,2|2,1:2|1:2,2:0:0:0:
334,30,121245,2,0,P|290:29|258:-10,1,87.72,2|0,2:0|2:0,2:0:0:0:
386,121,121598,2,0,L|428:132,1,43.86,2|0,2:0|2:0,2:0:0:0:
505,95,121775,6,0,B|471:106|471:106|432:198|432:198|393:208,1,175.44,2|0,1:2|1:2,2:0:0:0:
282,295,122304,2,0,P|328:310|378:332,1,87.72,2|0,2:0|1:2,2:0:0:0:
185,376,122657,2,0,B|158:341|158:341|184:285,1,87.72,2|0,2:0|1:2,2:0:0:0:
197,172,123010,1,2,2:0:0:0:
364,237,123186,2,0,B|346:194|346:194|252:220,1,131.58,2|0,1:2|2:0,2:0:0:0:
197,172,123539,1,2,1:2:0:0:
119,61,123716,6,0,B|144:93|144:93|96:181|96:181|126:222,1,175.44,2|0,2:0|2:0,2:0:0:0:
13,77,124245,1,2,1:2:0:0:
0,44,124333,1,0,2:0:0:0:
21,16,124422,2,0,B|38:1|38:1|63:7,1,43.86,0|0,2:0|2:0,2:0:0:0:
141,64,124598,1,2,1:2:0:0:
165,72,124686,1,0,2:0:0:0:
191,70,124775,1,0,2:0:0:0:
215,58,124863,1,0,2:0:0:0:
238,41,124951,6,0,P|272:78|266:125,1,96.32,6|8,1:2|2:0,2:0:0:0:
333,162,125216,1,8,2:0:0:0:
325,173,125304,1,8,2:0:0:0:
234,279,125481,1,8,2:0:0:0:
165,72,125657,5,8,2:0:0:0:
328,250,125833,1,0,1:2:0:0:
125,355,126010,1,12,2:0:0:0:
220,191,126186,1,8,2:0:0:0:
418,356,126363,6,0,B|434:361|452:380|452:380|526:335|475:269,1,157.38,4|0,1:2|2:0,2:0:0:0:
507,210,126716,2,0,B|458:196|458:196|421:235,1,104.92,10|0,2:0|2:0,2:0:0:0:
284,102,127069,2,0,L|310:-11,1,104.92,2|0,1:2|2:0,2:0:0:0:
145,138,127422,2,0,B|185:118|217:150|214:156|212:165|239:197|283:188,1,157.38,10|0,2:0|2:0,2:0:0:0:
354,151,127775,5,2,1:2:0:0:
206,59,127951,1,2,2:0:0:0:
275,267,128128,1,8,2:0:0:0:
420,98,128304,2,0,P|464:87|510:135,1,104.92,2|0,2:0|1:2,2:0:0:0:
373,336,128657,2,0,L|350:226,1,104.92,2|8,2:0|2:0,2:0:0:0:
167,112,129010,6,0,B|137:67|180:45|220:29|276:103|214:182,1,209.84,2|2,2:0|2:0,2:0:0:0:
149,297,129539,1,10,2:0:0:0:
247,346,129716,1,0,2:0:0:0:
118,198,129892,5,2,1:2:0:0:
69,383,130069,1,2,2:0:0:0:
241,242,130245,1,10,2:0:0:0:
13,123,130422,6,0,B|-22:176|37:204|37:204|141:168|141:168|156:163,1,209.84,2|0,2:0|2:0,2:0:0:0:
276,60,130951,1,10,2:0:0:0:
336,217,131128,1,0,2:0:0:0:
196,96,131304,2,0,P|176:62|204:7,1,104.92,2|8,1:2|2:0,2:0:0:0:
202,7,131657,1,10,2:0:0:0:
508,173,131833,6,0,B|465:132|413:155|413:155|390:219|327:216,1,209.84,6|2,1:2|1:2,2:0:0:0:
477,269,132363,1,10,2:0:0:0:
324,128,132539,2,0,P|337:79|350:17,1,104.92,2|0,2:0|1:0,2:0:0:0:
420,149,132892,1,2,1:2:0:0:
282,277,133069,1,10,2:0:0:0:
180,74,133245,6,0,P|161:154|142:277,1,196.08,2|0,1:2|2:0,2:0:0:0:
28,245,133598,2,0,P|46:164|65:41,1,196.08,0|0,1:2|2:0,2:0:0:0:
131,0,133951,1,0,1:2:0:0:
304,233,134128,1,0,1:2:0:0:
480,28,137128,6,0,L|408:50,1,39.56,2|0,2:3|2:0,2:0:0:0:
367,64,137304,6,0,L|295:86,1,52.46,2|0,2:3|2:0,2:0:0:0:
241,105,137481,6,0,L|169:127,1,65.36,2|0,2:3|2:0,2:0:0:0:
405,348,137657,6,0,P|455:310|443:251,1,122.12,6|2,1:2|2:0,2:0:0:0:
379,164,137922,1,2,2:0:0:0:
371,176,138010,2,0,P|361:208|379:240,1,61.06,10|0,2:0|2:0,2:0:0:0:
512,384,138186,1,2,2:0:0:0:
285,235,138363,6,0,B|236:211|201:250|206:261|212:269|177:313|115:287,1,183.18,2|0,1:2|2:0,2:0:0:0:
80,230,138716,2,0,P|110:213|144:220,1,61.06,10|0,2:0|2:0,2:0:0:0:
351,354,138892,6,0,B|374:363|400:381|400:381|477:324|398:257,1,183.18,2|0,2:0|2:0,2:0:0:0:
364,214,139245,2,0,L|377:154,1,61.06,2|0,2:0|2:0,2:0:0:0:
323,18,139422,1,10,2:0:0:0:
475,131,139598,1,2,2:0:0:0:
295,271,139775,6,0,L|223:253,1,61.06,2|0,1:2|2:0,2:0:0:0:
453,37,139951,2,0,L|525:19,1,61.06,2|0,2:0|2:0,2:0:0:0:
364,214,140128,1,10,2:0:0:0:
250,57,140304,1,2,2:0:0:0:
149,259,140481,6,0,B|82:341|10:281|10:281|25:212|85:234,1,244.24,2|8,1:2|2:0,2:0:0:0:
277,364,141010,1,2,2:0:0:0:
149,259,141186,2,0,B|214:175|284:242|284:242|264:306|205:283,1,244.24,2|8,1:2|2:0,2:0:0:0:
5,109,141716,1,2,2:0:0:0:
227,63,141892,6,0,B|276:42|253:0|229:-33|140:-4|146:95,1,183.18,2|0,1:2|2:0,2:0:0:0:
87,86,142245,2,0,P|109:114|137:124,1,61.06,10|0,2:0|2:0,2:0:0:0:
358,190,142422,1,0,2:0:0:0:
241,276,142598,1,2,1:2:0:0:
465,91,142775,6,0,P|451:129|421:148,1,69.66,8|0,2:1|2:0,2:0:0:0:
315,48,142951,2,0,P|307:88|323:119,1,69.66,8|0,2:1|2:0,2:0:0:0:
402,11,143128,1,2,2:0:0:0:
495,299,143304,6,0,P|450:245|381:263,1,122.12,2|2,1:2|2:0,2:0:0:0:
341,337,143569,1,2,2:0:0:0:
352,344,143657,2,0,L|435:320,1,61.06,10|0,2:0|2:0,2:0:0:0:
271,177,143833,1,2,2:0:0:0:
41,293,144010,6,0,B|88:287|108:235|108:235|98:290|137:313,1,183.18,2|0,1:2|2:0,2:0:0:0:
201,359,144363,2,0,P|216:332|215:299,1,61.06,10|0,2:0|2:0,2:0:0:0:
20,60,144539,6,0,B|45:53|72:30|72:30|119:56|131:96|83:144,1,183.18,2|0,2:0|2:0,2:0:0:0:
31,204,144892,2,0,L|14:135,1,61.06,2|0,2:0|2:0,2:0:0:0:
221,23,145069,1,10,2:0:0:0:
95,131,145245,1,2,2:0:0:0:
321,321,145422,6,0,L|308:249,1,61.06,2|0,1:2|2:0,2:0:0:0:
221,23,145598,2,0,L|208:95,1,61.06,2|0,2:0|2:0,2:0:0:0:
179,261,145775,1,10,2:0:0:0:
300,131,145951,1,2,2:0:0:0:
483,361,146128,6,0,B|505:350|524:325|514:271|460:250|420:302|425:312|430:322|405:361|350:354,1,244.24,2|8,1:2|2:0,2:0:0:0:
179,261,146657,1,2,2:0:0:0:
292,115,146833,6,0,B|267:162|310:199|321:194|329:188|373:225|344:285,1,183.18,2|0,1:2|2:0,2:0:0:0:
285,316,147186,2,0,P|270:281|283:240,1,61.06,10|0,2:0|2:0,2:0:0:0:
374,126,147363,2,0,L|386:57,1,61.06,2|0,2:0|2:0,2:0:0:0:
447,259,147539,5,2,1:2:0:0:
206,159,147716,1,2,2:0:0:0:
447,259,147892,2,0,B|454:244|467:231|467:231|418:194|363:220|350:274,1,183.18,10|0,2:0|2:0,2:0:0:0:
285,316,148245,1,2,1:2:0:0:
206,159,148422,1,8,2:0:0:0:
194,111,148510,1,8,2:0:0:0:
231,79,148598,1,12,2:0:0:0:
354,165,148775,2,0,P|319:155|280:140,1,61.06,10|10,2:0|2:0,2:0:0:0:
118,1,148951,6,0,P|67:30|89:115,1,122.12,6|2,1:2|2:0,2:0:0:0:
2,138,149216,1,2,2:0:0:0:
10,149,149304,2,0,P|38:169|70:171,1,61.06,10|0,2:0|2:0,2:0:0:0:
221,54,149481,1,2,2:0:0:0:
209,271,149657,6,0,B|182:211|131:215|131:215|106:258|46:253,1,183.18,2|0,1:2|2:0,2:0:0:0:
0,291,150010,2,0,P|16:316|49:330,1,61.06,10|0,2:0|2:0,2:0:0:0:
253,347,150186,6,0,B|295:322|292:266|292:266|313:317|377:319,1,183.18,2|0,2:0|2:0,2:0:0:0:
428,358,150539,2,0,L|445:284,1,61.06,2|0,2:0|2:0,2:0:0:0:
408,119,150716,1,8,2:0:0:0:
512,220,150892,1,2,2:0:0:0:
325,0,151069,6,0,P|330:34|342:77,1,65.36,2|0,1:2|2:0,2:0:0:0:
172,304,151245,2,0,P|167:270|155:227,1,65.36,2|0,2:0|2:0,2:0:0:0:
67,69,151422,6,2,P|101:64|144:52,1,65.36,10|0,2:0|2:0,2:0:0:0:
371,210,151598,2,2,P|337:215|294:227,1,65.36,2|0,2:0|2:0,2:0:0:0:
46,366,151775,6,0,B|-5:383|-35:332|-1:259|90:280|126:345,1,196.08,2|0,1:2|2:0,2:0:0:0:
159,361,152128,2,0,P|171:341|171:300,1,61.06,10|0,2:0|2:0,2:0:0:0:
108,161,152304,1,0,2:0:0:0:
250,348,152481,2,0,B|291:396|393:398|412:312|369:266|315:299,1,244.24,2|10,1:2|2:0,2:0:0:0:
449,382,153010,1,2,2:0:0:0:
267,233,153186,6,0,B|238:179|238:179|287:122,1,122.12,2|2,1:2|2:0,2:0:0:0:
464,50,153539,1,8,2:0:0:0:
247,53,153716,2,0,B|295:27|332:54|332:54|360:119|425:98,1,183.18,2|0,2:0|2:0,2:0:0:0:
464,50,154069,6,0,P|484:82|474:129,1,69.66,8|0,2:1|2:0,2:0:0:0:
319,163,154245,2,0,P|335:193|366:208,1,69.66,8|0,2:1|2:0,2:0:0:0:
475,238,154422,1,2,2:0:0:0:
247,53,154598,6,0,L|222:172,1,122.12,2|2,1:2|2:0,2:0:0:0:
148,241,154863,1,2,2:0:0:0:
139,233,154951,2,0,P|130:199|145:172,1,61.06,10|0,2:0|2:0,2:0:0:0:
328,343,155128,1,2,2:0:0:0:
111,358,155304,6,0,B|164:368|191:333|189:320|187:310|220:268|278:298,1,183.18,2|0,1:2|2:0,2:0:0:0:
328,343,155657,2,0,P|347:309|336:270,1,61.06,10|0,2:0|2:0,2:0:0:0:
504,81,155833,6,0,B|521:139|456:160|456:160|424:114|371:135,1,183.18,2|0,2:0|2:0,2:0:0:0:
326,178,156186,2,0,P|361:206|396:206,1,61.06,2|0,2:0|2:0,2:0:0:0:
508,310,156363,1,10,2:0:0:0:
389,129,156539,1,2,2:0:0:0:
257,290,156716,6,0,L|240:204,1,61.06,2|0,1:2|2:0,2:0:0:0:
445,0,156892,2,0,L|428:86,1,61.06,2|0,2:0|2:0,2:0:0:0:
405,231,157069,1,10,2:0:0:0:
241,147,157245,1,2,2:0:0:0:
40,86,157422,6,0,B|7:67|7:67|58:58|100:34|100:34|168:78|118:138,1,244.24,2|8,1:2|2:0,2:0:0:0:
0,326,157951,1,2,2:0:0:0:
237,238,158128,2,0,B|199:212|205:160|205:160|185:209|132:219,1,183.18,2|0,1:2|2:0,2:0:0:0:
57,215,158481,2,0,P|67:275|129:294,1,122.12,10|0,2:0|2:0,2:0:0:0:
309,156,158833,5,6,1:2:0:0:
404,357,159010,1,2,2:0:0:0:
237,238,159186,1,10,2:0:0:0:
430,134,159363,6,0,P|440:82|380:37,1,122.12,2|2,2:0|1:2,2:0:0:0:
326,0,159628,1,0,1:2:0:0:
317,9,159716,1,8,2:0:0:0:
482,210,159892,1,4,1:2:0:0:
253,65,160069,2,0,P|235:96|247:137,1,69.66,8|0,2:0|2:0,2:0:0:0:
445,337,160245,6,0,B|460:315|477:300|477:300|380:244|337:344,1,209.84,6|8,1:2|2:0,2:0:0:0:
188,211,160775,2,0,P|236:247|290:236,1,104.92,2|0,2:0|1:2,2:0:0:0:
80,367,161128,1,0,1:2:0:0:
287,235,161304,2,0,P|235:238|199:275,1,104.92,10|2,2:0|2:0,2:0:0:0:
172,352,161657,1,0,1:2:0:0:
47,162,161833,5,2,2:0:0:0:
102,38,162010,1,10,2:0:0:0:
222,106,162186,1,2,2:0:0:0:
369,245,162363,5,2,1:2:0:0:
139,155,162539,1,2,1:2:0:0:
325,163,162716,5,10,2:0:0:0:
190,227,162892,1,2,2:0:0:0:
390,45,163069,6,0,B|448:37|479:97|479:97|424:134|435:190,1,209.84,2|8,1:2|2:0,2:0:0:0:
393,366,163598,2,0,L|368:261,2,104.92,2|0|0,2:0|1:2|1:2,2:0:0:0:
460,265,164128,1,10,2:0:0:0:
251,147,164304,2,0,P|300:186|360:164,1,104.92,2|0,2:0|1:2,2:0:0:0:
197,231,164657,5,2,2:0:0:0:
400,108,164833,1,10,2:0:0:0:
292,282,165010,1,2,2:0:0:0:
144,142,165186,2,0,B|119:96|119:96|153:47,1,104.92,6|10,1:2|2:0,2:0:0:0:
215,13,165451,1,8,2:0:0:0:
224,8,165539,1,10,2:0:0:0:
18,179,165716,2,0,L|100:203,1,52.46,10|8,2:0|2:0,2:0:0:0:
363,316,165892,6,0,B|323:291|281:315|281:315|255:378|190:359,1,183.18,6|0,1:2|2:0,2:0:0:0:
133,380,166245,6,0,P|129:352|145:321,1,61.06,8|0,2:0|2:0,2:0:0:0:
267,186,166422,1,2,1:2:0:0:
0,25,166598,5,8,2:0:0:0:
81,271,166775,1,0,1:2:0:0:
246,36,166951,5,10,2:0:0:0:
14,179,167128,1,0,1:2:0:0:
273,318,167304,6,0,P|322:327|367:275,1,122.12,8|0,2:0|1:2,2:0:0:0:
428,226,167569,1,2,3:2:0:0:
420,216,167657,1,10,2:0:0:0:
512,367,167833,1,2,1:2:0:0:
272,196,168010,1,10,1:2:0:0:
491,52,168186,5,2,1:2:0:0:
508,98,168275,1,0,1:0:0:0:
486,141,168363,1,2,1:2:0:0:
436,142,168451,1,0,1:0:0:0:
400,109,168539,1,2,1:2:0:0:
356,87,168628,1,0,1:0:0:0:
338,95,168716,5,2,1:2:0:0:
59,335,169422,5,2,1:2:0:0:
259,204,170128,6,0,P|256:177|253:202,1,78.2600000000001,2|0,2:1|2:0,2:0:0:0:
