osu file format v14

[General]
AudioFilename: audio.mp3
AudioLeadIn: 0
PreviewTime: 35610
Countdown: 0
SampleSet: Soft
StackLeniency: 0.7
Mode: 0
LetterboxInBreaks: 0
WidescreenStoryboard: 0

[Editor]
DistanceSpacing: 1
BeatDivisor: 4
GridSize: 32
TimelineZoom: 1.5

[Metadata]
Title:Good-bye sengen
TitleUnicode:グッバイ宣言
Artist:Nakiri Ayame
ArtistUnicode:百鬼あやめ
Creator:AyameMyMommy
Version:Insane
Source:
Tags:pile amateurre rage quit ホロライブ hololive vtuber virtual youtuber chinozo japanese pop jpop j-pop さんかくずわり sankaku zuwari cover flower goodbye declaration 引き籠り hikikomori ojou
BeatmapID:3026615
BeatmapSetID:1470790

[Difficulty]
HPDrainRate:4.6
CircleSize:3.8
OverallDifficulty:8
ApproachRate:9
SliderMultiplier:1.62
SliderTickRate:1

[Events]
//Background and Video events
0,0,"ojou.jpg",0,0
//Break Periods
2,134328,136495
//Storyboard Layer 0 (Background)
//Storyboard Layer 1 (Fail)
//Storyboard Layer 2 (Pass)
//Storyboard Layer 3 (Foreground)
//Storyboard Layer 4 (Overlay)
//Storyboard Sound Samples

[TimingPoints]
-3519,352.941176470588,4,2,1,60,1,0
2128,-98.0392156862745,4,2,20,70,0,0
2216,-98.0392156862745,4,2,1,70,0,0
13422,-121.951219512195,4,2,1,60,0,0
24716,-108.695652173913,4,2,1,65,0,0
36010,-89.2857142857143,4,2,20,75,0,1
36098,-89.2857142857143,4,2,1,75,0,0
47304,-89.2857142857143,4,2,1,75,0,1
47392,-89.2857142857143,4,2,1,75,0,0
58598,-89.2857142857143,4,2,1,75,0,1
58686,-89.2857142857143,4,2,1,75,0,0
69892,-98.0392156862745,4,2,20,70,0,1
69980,-98.0392156862745,4,2,1,70,0,0
81186,-121.951219512195,4,2,1,60,0,0
92481,-108.695652173913,4,2,1,65,0,0
102363,-89.2857142857143,4,2,1,65,0,0
103775,-121.951219512195,4,2,20,60,0,1
103863,-121.951219512195,4,2,1,60,0,0
115069,-121.951219512195,4,2,1,65,0,0
124951,-108.695652173913,4,2,1,65,0,0
126363,-98.0392156862744,4,2,1,60,0,0
131833,-98.0392156862744,4,2,1,65,0,0
137657,-89.2857142857143,4,2,20,75,0,1
137745,-89.2857142857143,4,2,1,75,0,1
148863,-89.2857142857143,4,2,1,75,0,0
148951,-89.2857142857143,4,2,1,75,0,1
160157,-89.2857142857143,4,2,1,75,0,0
160245,-89.2857142857143,4,2,1,75,0,1
160333,-89.2857142857143,4,2,1,75,0,0
165892,-89.2857142857143,4,2,1,75,0,1
168716,-89.2857142857143,4,2,1,65,0,0
170128,-89.2857142857143,4,2,1,45,0,0

[Colours]
Combo1 : 255,136,136
Combo2 : 255,51,51

[HitObjects]
145,132,716,5,2,2:3:0:0:
365,251,1069,1,2,2:3:0:0:
181,232,1422,5,2,2:0:0:0:
330,151,1598,1,2,2:0:0:0:
279,299,1775,2,0,L|268:248,2,40.5,2|2|2,2:0|2:0|2:0,2:0:0:0:
503,384,2128,6,0,P|460:327|356:351,1,165.24,4|10,1:2|2:0,2:0:0:0:
270,259,2657,2,0,P|281:217|292:175,1,82.62,2|0,2:0|2:0,2:0:0:0:
177,32,3010,1,2,2:0:0:0:
177,32,3098,1,2,2:0:0:0:
177,32,3186,6,0,P|226:83|323:58,1,165.24,10|2,2:0|1:2,2:0:0:0:
436,148,3716,2,0,P|416:88|409:47,1,82.62,2|8,2:0|2:0,2:0:0:0:
412,69,4069,1,2,2:0:0:0:
317,189,4245,2,0,P|260:209|219:234,1,82.62,2|2,1:2|2:0,2:0:0:0:
234,239,4510,1,2,2:0:0:0:
234,239,4598,1,10,2:0:0:0:
69,331,4775,1,2,2:0:0:0:
181,384,4951,6,0,P|162:317|135:207,1,165.24,2|8,1:2|2:0,2:0:0:0:
1,131,5481,2,0,P|40:167|80:167,1,82.62,2|2,2:0|1:2,2:0:0:0:
10,247,5833,1,2,2:0:0:0:
136,108,6010,5,10,2:0:0:0:
283,196,6186,1,2,2:0:0:0:
254,26,6363,2,0,P|240:82|228:131,1,82.62,2|2,1:2|2:0,2:0:0:0:
0,45,6716,2,0,P|55:30|128:1,1,123.93,10|0,2:0|2:0,2:0:0:0:
131,13,7069,1,2,1:2:0:0:
234,106,7245,1,10,2:0:0:0:
432,21,7422,2,0,P|382:30|357:74,1,82.62,14|2,2:0|1:2,2:0:0:0:
325,122,7686,5,0,1:2:0:0:
320,133,7775,2,0,P|339:181|371:312,1,165.24,6|10,1:2|2:0,2:0:0:0:
510,201,8304,2,0,P|463:186|415:167,1,82.62,2|0,2:0|2:0,2:0:0:0:
286,315,8657,1,2,2:0:0:0:
286,315,8745,1,2,2:0:0:0:
286,315,8833,6,0,P|321:365|421:356,1,165.24,10|2,2:0|1:2,2:0:0:0:
398,196,9363,2,0,P|380:241|368:289,1,82.62,2|8,2:0|2:0,2:0:0:0:
218,374,9716,1,2,2:0:0:0:
121,255,9892,2,0,P|176:240|206:231,1,82.62,2|2,1:2|2:0,2:0:0:0:
223,222,10157,1,2,2:0:0:0:
223,222,10245,1,10,2:0:0:0:
122,363,10422,1,2,2:0:0:0:
14,228,10598,6,0,P|-6:179|73:98,1,165.24,2|10,1:2|2:0,2:0:0:0:
191,9,11128,2,0,P|149:36|106:32,1,82.62,2|2,2:0|1:2,2:0:0:0:
31,10,11481,1,2,2:0:0:0:
229,114,11657,5,10,2:0:0:0:
92,252,11833,1,2,2:0:0:0:
142,123,12010,2,0,P|156:177|169:218,1,82.62,2|2,1:2|2:0,2:0:0:0:
0,317,12363,2,0,P|77:342|167:389,1,165.24,10|0,2:0|3:2,2:0:0:0:
414,195,13069,1,2,2:3:0:0:
391,266,13245,1,2,2:3:0:0:
367,336,13422,6,0,P|308:329|276:249,1,132.84,2|0,1:2|1:2,2:0:0:0:
207,198,13951,2,0,P|275:181|339:162,1,132.84,2|0,2:0|2:0,2:0:0:0:
336,58,14481,2,0,P|401:92|476:120,1,132.84,2|0,1:2|1:2,2:0:0:0:
509,189,15010,1,2,2:0:0:0:
509,189,15186,1,0,1:2:0:0:
305,375,15539,5,2,1:2:0:0:
218,258,15716,1,0,2:0:0:0:
359,279,15892,2,0,P|307:293|276:305,1,66.4200000000001,2|0,1:2|2:0,2:0:0:0:
150,371,16245,6,0,P|101:314|124:241,1,132.84,2|0,1:2|1:2,2:0:0:0:
0,171,16775,2,0,P|21:206|22:248,1,66.4200000000001,2|0,2:0|1:2,2:0:0:0:
146,117,17128,1,0,2:0:0:0:
146,117,17304,2,0,P|77:99|10:75,1,132.84,2|0,1:2|1:2,2:0:0:0:
135,19,17833,1,2,2:0:0:0:
135,19,18010,2,0,P|172:27|210:41,1,66.4200000000001,0|0,1:2|2:0,2:0:0:0:
322,98,18363,2,0,P|312:61|306:24,1,66.4200000000001,2|0,1:2|2:0,2:0:0:0:
230,133,18716,2,0,P|240:170|246:207,1,66.4200000000001,2|0,1:2|2:0,2:0:0:0:
208,329,19069,6,0,P|247:297|304:295,1,99.6300000000001,6|2,1:2|2:0,2:0:0:0:
304,299,19422,2,0,P|341:314|371:321,1,66.4200000000001,0|2,1:0|2:0,2:0:0:0:
493,380,19775,2,0,P|464:332|474:266,1,99.6300000000001,2|2,1:2|2:0,2:0:0:0:
459,277,20128,2,0,P|469:237|475:198,1,66.4200000000001,0|2,1:0|2:0,2:0:0:0:
400,69,20481,6,0,P|437:113|522:104,1,132.84,2|0,1:2|1:2,2:0:0:0:
376,286,21186,2,0,P|340:294|309:305,1,66.4200000000001,2|0,1:2|2:0,2:0:0:0:
222,231,21539,2,0,P|258:223|289:212,1,66.4200000000001,2|0,1:2|2:0,2:0:0:0:
199,366,21892,6,0,P|139:336|140:278,2,132.84,2|0|0,1:2|1:2|1:2,2:0:0:0:
76,220,22951,1,2,1:2:0:0:
76,220,23304,5,0,1:2:0:0:
128,286,23481,1,2,2:0:0:0:
62,373,23657,2,0,P|31:359|0:351,1,66.4200000000001,0|0,1:2|2:0,2:0:0:0:
143,280,24010,2,0,P|204:300|281:319,1,132.84,2|10,1:2|2:0,2:0:0:0:
357,119,24716,6,0,P|278:123|247:178,1,149.04,2|10,1:2|2:0,2:0:0:0:
154,26,25245,2,0,P|185:51|225:56,1,74.52,2|0,2:0|2:0,2:0:0:0:
219,57,25598,1,2,2:0:0:0:
352,188,25775,2,0,P|368:117|387:33,1,149.04,10|0,2:0|1:2,2:0:0:0:
502,29,26304,5,2,2:0:0:0:
502,29,26481,2,0,P|491:72|485:111,1,74.52,10|0,2:0|2:0,2:0:0:0:
443,299,26833,1,2,1:2:0:0:
345,195,27010,1,2,2:0:0:0:
501,188,27186,2,0,P|460:206|429:220,1,74.52,10|2,2:0|2:0,2:0:0:0:
250,304,27539,6,0,P|316:326|388:373,1,149.04,2|10,1:2|2:0,2:0:0:0:
358,165,28069,2,0,P|344:201|327:240,1,74.52,2|0,2:0|2:0,2:0:0:0:
329,233,28422,1,2,2:0:0:0:
229,384,28598,2,0,P|210:312|186:224,1,149.04,10|0,2:0|1:2,2:0:0:0:
48,164,29128,5,2,2:0:0:0:
157,97,29304,2,0,P|141:144|132:173,1,74.52,10|0,2:0|2:0,2:0:0:0:
133,167,29657,1,2,1:2:0:0:
270,264,29833,1,10,2:0:0:0:
270,264,30010,2,0,P|222:271|174:321,1,111.78,10|0,2:0|2:0,2:0:0:0:
110,367,30363,6,0,P|85:322|79:257,1,111.78,6|2,1:2|2:0,2:0:0:0:
87,251,30716,1,10,2:0:0:0:
0,331,30892,1,0,2:0:0:0:
173,227,31069,6,0,P|198:182|204:117,1,111.78,2|2,1:2|2:0,2:0:0:0:
196,111,31422,1,10,2:0:0:0:
62,15,31598,1,0,2:0:0:0:
0,87,31775,2,0,P|74:54|152:31,1,149.04,2|10,1:2|2:0,2:0:0:0:
335,158,32304,1,2,2:0:0:0:
289,74,32481,2,0,P|302:28|310:3,1,74.52,2|2,1:2|1:2,2:0:0:0:
409,118,32833,1,10,2:0:0:0:
194,217,33010,6,0,P|249:216|307:304,1,149.04,4|2,1:2|1:2,2:0:0:0:
206,379,33539,2,0,P|218:331|223:299,1,74.52,8|2,2:0|2:0,2:0:0:0:
300,188,33892,1,10,2:0:0:0:
300,188,34069,1,0,1:2:0:0:
416,272,34245,1,10,2:0:0:0:
280,95,34422,5,2,1:2:0:0:
280,95,34775,5,2,1:2:0:0:
280,95,35128,5,2,1:2:0:0:
280,95,35304,1,2,1:2:0:0:
186,69,35481,6,0,P|199:41|206:17,1,37.26,8|0,2:1|2:0,2:0:0:0:
349,38,35657,2,0,P|327:16|312:-4,1,37.26,8|0,2:1|2:0,2:0:0:0:
144,257,36010,6,0,P|112:225|68:218,1,90.72,6|2,1:2|2:0,2:0:0:0:
5,263,36275,1,2,2:0:0:0:
12,272,36363,1,10,2:0:0:0:
161,155,36539,1,2,2:0:0:0:
224,365,36716,2,0,P|240:291|253:248,1,90.72,2|0,1:2|2:0,2:0:0:0:
417,140,37069,1,10,2:0:0:0:
268,161,37245,6,0,P|315:220|381:218,1,136.08,2|0,2:0|2:0,2:0:0:0:
381,218,37598,1,2,2:0:0:0:
357,15,37775,2,0,P|347:60|335:108,1,90.72,10|2,2:0|2:0,2:0:0:0:
234,278,38128,5,2,1:2:0:0:
110,126,38304,1,2,2:0:0:0:
55,314,38481,1,10,2:0:0:0:
135,226,38657,1,2,2:0:0:0:
310,384,38833,6,0,P|330:303|367:177,1,181.44,2|8,1:2|2:0,2:0:0:0:
439,160,39363,1,2,2:0:0:0:
362,46,39539,2,0,P|407:114|515:101,1,181.44,2|8,1:2|2:0,2:0:0:0:
452,24,40069,1,2,2:0:0:0:
302,132,40245,6,0,P|254:148|207:169,1,90.72,2|0,1:2|2:0,2:0:0:0:
98,38,40598,2,0,P|146:22|193:1,1,90.72,10|0,2:0|2:0,2:0:0:0:
96,204,40951,1,2,1:2:0:0:
0,98,41128,1,8,2:1:0:0:
96,204,41304,2,0,P|104:251|80:289,1,90.72,8|2,2:1|2:0,2:0:0:0:
320,384,41657,6,0,P|254:363|218:343,1,90.72,2|2,1:2|2:0,2:0:0:0:
176,301,41922,1,2,2:0:0:0:
183,291,42010,1,10,2:0:0:0:
327,237,42186,1,2,2:0:0:0:
232,98,42363,2,0,P|240:158|269:179,1,90.72,2|0,1:2|2:0,2:0:0:0:
494,194,42716,1,10,2:0:0:0:
436,317,42892,6,0,P|417:242|399:157,1,136.08,2|0,2:0|2:0,2:0:0:0:
410,167,43245,1,2,2:0:0:0:
512,41,43422,2,0,P|474:81|430:82,1,90.72,10|2,2:0|2:0,2:0:0:0:
160,127,43775,5,2,1:2:0:0:
304,12,43951,1,2,2:0:0:0:
321,204,44128,1,10,2:0:0:0:
267,106,44304,1,2,2:0:0:0:
123,293,44481,6,0,P|62:270|48:157,1,181.44,2|8,1:2|2:0,2:0:0:0:
147,83,45010,1,2,2:0:0:0:
25,2,45186,2,0,P|46:50|66:107,1,90.72,2|0,1:2|2:0,2:0:0:0:
179,192,45539,2,0,P|232:163|275:139,1,90.72,10|2,2:0|2:0,2:0:0:0:
113,327,45892,5,2,1:2:0:0:
20,195,46069,1,2,2:0:0:0:
0,381,46245,1,10,2:0:0:0:
89,245,46422,1,2,2:0:0:0:
196,371,46598,2,0,P|246:374|278:344,1,90.72,2|8,1:2|2:0,2:0:0:0:
297,275,46863,1,8,2:0:0:0:
289,267,46951,1,12,2:0:0:0:
512,384,47128,1,10,2:0:0:0:
512,384,47216,1,10,2:0:0:0:
512,384,47304,6,0,P|451:359|411:344,1,90.72,6|2,1:2|2:0,2:0:0:0:
352,341,47569,1,2,2:0:0:0:
341,349,47657,1,10,2:0:0:0:
469,273,47833,1,2,2:0:0:0:
340,144,48010,2,0,P|337:100|375:62,1,90.72,2|0,1:2|2:0,2:0:0:0:
255,92,48363,1,10,2:0:0:0:
469,177,48539,6,0,P|413:201|342:246,1,136.08,2|0,2:0|2:0,2:0:0:0:
342,251,48892,1,2,2:0:0:0:
184,368,49069,1,8,2:0:0:0:
92,308,49245,1,2,2:0:0:0:
250,192,49422,2,0,P|232:250|223:292,1,90.72,2|2,1:2|2:0,2:0:0:0:
106,88,49775,2,0,P|124:30|133:-12,1,90.72,10|2,2:0|2:0,2:0:0:0:
0,260,50128,6,0,P|50:191|150:209,1,181.44,2|8,1:2|2:0,2:0:0:0:
311,135,50657,1,2,2:0:0:0:
193,50,50833,2,0,P|215:137|240:240,1,181.44,2|10,1:2|2:0,2:0:0:0:
404,326,51363,1,2,2:0:0:0:
292,356,51539,6,0,P|299:297|363:226,1,136.08,2|0,1:2|2:0,2:0:0:0:
414,200,51892,2,0,P|456:217|503:236,1,90.72,10|0,2:0|2:0,2:0:0:0:
336,104,52245,1,2,1:2:0:0:
457,6,52422,1,8,2:1:0:0:
325,110,52598,2,0,P|274:98|208:74,1,90.72,8|2,2:1|2:0,2:0:0:0:
28,5,52951,6,0,P|76:51|83:88,1,90.72,2|2,1:2|2:0,2:0:0:0:
123,137,53216,1,2,2:0:0:0:
114,145,53304,1,10,2:0:0:0:
173,34,53481,1,2,2:0:0:0:
33,180,53657,2,0,P|50:236|64:271,1,90.72,2|0,1:2|2:0,2:0:0:0:
240,348,54010,1,10,2:0:0:0:
47,350,54186,6,0,P|117:351|155:285,1,136.08,2|0,2:0|2:0,2:0:0:0:
161,287,54539,1,2,2:0:0:0:
273,163,54716,1,10,2:0:0:0:
176,124,54892,1,2,2:0:0:0:
325,315,55069,2,0,P|337:267|346:218,1,90.72,2|2,1:2|2:0,2:0:0:0:
512,100,55422,2,0,P|500:148|491:197,1,90.72,10|2,2:0|2:0,2:0:0:0:
266,64,55775,6,0,P|350:33|453:0,1,181.44,2|8,1:2|2:0,2:0:0:0:
343,155,56304,1,2,2:0:0:0:
170,12,56481,2,0,P|132:48|148:137,1,136.08,2|0,1:2|2:0,2:0:0:0:
149,130,56833,2,0,P|177:180|171:223,1,90.72,10|0,2:0|2:0,2:0:0:0:
61,377,57186,5,6,1:2:0:0:
257,274,57363,1,2,2:0:0:0:
70,184,57539,1,10,2:0:0:0:
162,330,57716,2,0,P|198:361|265:352,1,90.72,2|2,2:0|1:2,2:0:0:0:
315,384,57981,1,0,1:2:0:0:
325,374,58069,1,8,2:0:0:0:
430,245,58245,1,12,2:0:0:0:
505,323,58422,1,8,2:1:0:0:
344,197,58598,6,0,P|323:130|401:51,1,181.44,6|8,1:2|2:0,2:0:0:0:
512,117,59128,2,0,P|458:128|419:146,2,90.72,2|0|0,2:0|1:2|1:2,2:0:0:0:
374,42,59657,1,10,2:0:0:0:
229,183,59833,2,0,P|214:103|186:0,1,181.44,2|2,2:0|2:0,2:0:0:0:
345,124,60363,6,0,P|330:177|324:220,1,90.72,10|2,2:0|2:0,2:0:0:0:
135,369,60716,1,2,1:2:0:0:
189,260,60892,1,2,1:2:0:0:
339,382,61069,2,0,P|275:359|232:346,1,90.72,10|2,2:0|2:0,2:0:0:0:
3,246,61422,6,0,P|69:245|130:148,1,181.44,2|8,1:2|2:0,2:0:0:0:
6,77,61951,2,0,P|23:126|39:175,2,90.72,2|0|0,2:0|1:2|1:2,2:0:0:0:
243,166,62481,1,10,2:0:0:0:
127,255,62657,2,0,P|143:189|170:60,1,181.44,2|2,2:0|2:0,2:0:0:0:
285,13,63186,6,0,P|299:69|312:108,1,90.72,10|2,2:0|2:0,2:0:0:0:
430,183,63539,1,2,1:2:0:0:
489,88,63716,1,8,1:0:0:0:
325,184,63892,1,8,2:1:0:0:
426,290,64069,1,2,2:0:0:0:
247,373,64245,6,0,P|177:341|61:325,1,181.44,6|8,1:2|2:0,2:0:0:0:
217,229,64775,2,0,P|167:199|128:163,2,90.72,2|0|0,2:0|1:2|1:2,2:0:0:0:
151,302,65304,1,10,2:0:0:0:
293,165,65481,6,0,P|380:199|374:293,1,181.44,0|2,2:0|2:0,2:0:0:0:
502,358,66010,2,0,P|450:370|410:388,1,90.72,10|2,2:0|2:0,2:0:0:0:
301,256,66363,1,2,1:2:0:0:
259,374,66539,1,2,1:2:0:0:
420,241,66716,2,0,P|409:199|399:150,1,90.72,10|2,2:0|2:0,2:0:0:0:
217,14,67069,5,2,1:2:0:0:
217,14,67775,6,0,P|258:32|301:45,1,90.72,2|0,1:2|2:0,2:0:0:0:
114,162,68128,2,0,P|72:143|29:130,1,90.72,2|0,1:2|2:0,2:0:0:0:
226,248,68481,1,2,1:2:0:0:
226,248,69186,5,2,2:0:0:0:
353,153,69363,2,0,L|343:96,2,45.36,2|2|2,2:0|2:0|2:0,2:0:0:0:
282,45,69716,1,2,2:0:0:0:
467,172,69892,6,0,P|399:169|344:255,1,165.24,4|10,1:2|2:0,2:0:0:0:
456,336,70422,2,0,P|441:282|433:232,1,82.62,2|0,2:0|1:0,2:0:0:0:
282,359,70775,1,2,2:0:0:0:
282,359,70863,1,2,2:0:0:0:
282,359,70951,6,0,P|219:358|145:293,1,165.24,10|2,2:0|1:2,2:0:0:0:
35,228,71481,2,0,P|92:207|124:195,1,82.62,2|8,2:0|2:0,2:0:0:0:
112,199,71833,1,2,2:0:0:0:
43,31,72010,2,0,P|19:82|34:121,1,82.62,2|2,1:2|2:0,2:0:0:0:
41,122,72275,1,2,2:0:0:0:
41,122,72363,1,10,2:0:0:0:
263,47,72539,1,2,2:0:0:0:
154,0,72716,6,0,P|179:87|203:175,1,165.24,2|10,1:2|2:0,2:0:0:0:
85,282,73245,2,0,P|130:242|172:245,1,82.62,2|2,2:0|1:2,2:0:0:0:
95,165,73598,1,2,2:0:0:0:
318,272,73775,5,10,2:0:0:0:
142,364,73951,1,2,2:0:0:0:
225,286,74128,2,0,P|240:346|248:396,1,82.62,2|2,1:2|2:0,2:0:0:0:
318,180,74481,2,0,P|379:203|400:278,1,123.93,10|0,2:0|2:0,2:0:0:0:
399,272,74833,1,2,1:2:0:0:
512,173,75010,1,10,2:0:0:0:
418,27,75186,2,0,P|403:80|385:126,1,82.62,14|2,2:0|1:2,2:0:0:0:
318,180,75451,5,0,1:2:0:0:
307,193,75539,2,0,P|235:168|235:67,1,165.24,6|10,1:2|2:0,2:0:0:0:
88,32,76069,2,0,P|131:22|171:7,1,82.62,2|0,2:0|1:0,2:0:0:0:
90,144,76422,1,2,2:0:0:0:
90,144,76510,1,2,2:0:0:0:
90,144,76598,6,0,P|67:199|28:312,1,165.24,10|2,2:0|1:2,2:0:0:0:
181,357,77128,2,0,P|169:306|147:285,1,82.62,2|8,2:0|2:0,2:0:0:0:
40,218,77481,1,2,2:0:0:0:
205,162,77657,2,0,P|253:179|300:194,1,82.62,2|2,1:2|2:0,2:0:0:0:
302,204,77922,1,2,2:0:0:0:
302,204,78010,1,10,2:0:0:0:
412,141,78186,1,2,2:0:0:0:
512,323,78363,6,0,P|471:265|383:277,1,165.24,2|10,1:2|2:0,2:0:0:0:
412,141,78892,2,0,P|427:95|439:52,1,82.62,2|2,2:0|1:2,2:0:0:0:
507,164,79245,1,2,2:0:0:0:
343,7,79422,5,10,2:0:0:0:
209,114,79598,1,2,2:0:0:0:
320,188,79775,2,0,P|320:134|287:91,1,82.62,2|2,1:2|2:0,2:0:0:0:
133,23,80128,2,0,P|109:82|96:130,1,82.62,10|2,2:0|2:0,2:0:0:0:
111,125,80392,1,0,2:0:0:0:
111,125,80481,5,0,3:2:0:0:
150,188,80657,1,0,3:2:0:0:
106,248,80833,1,0,3:0:0:0:
157,301,81010,1,0,3:0:0:0:
101,372,81186,6,0,P|163:348|242:326,1,132.84,2|0,1:2|1:2,2:0:0:0:
309,374,81716,2,0,P|346:339|323:239,1,132.84,2|0,2:0|2:0,2:0:0:0:
441,187,82245,2,0,P|370:166|299:128,1,132.84,2|0,1:2|1:2,2:0:0:0:
262,73,82775,1,2,2:0:0:0:
262,73,82951,1,0,1:2:0:0:
6,137,83304,5,2,1:2:0:0:
138,36,83481,1,0,2:0:0:0:
34,0,83657,2,0,P|52:53|60:88,1,66.4200000000001,2|0,1:2|2:0,2:0:0:0:
211,189,84010,6,0,P|153:152|89:141,1,132.84,2|0,1:2|1:2,2:0:0:0:
35,251,84539,2,0,P|71:246|105:225,1,66.4200000000001,2|0,2:0|1:2,2:0:0:0:
282,309,84892,1,0,2:0:0:0:
233,372,85069,2,0,P|172:338|178:260,1,132.84,2|0,1:2|1:2,2:0:0:0:
251,194,85598,1,2,2:0:0:0:
251,194,85775,2,0,P|263:156|280:110,1,66.4200000000001,0|0,1:2|2:0,2:0:0:0:
301,22,86128,2,0,P|335:50|376:51,1,66.4200000000001,2|0,1:2|2:0,2:0:0:0:
512,27,86481,2,0,P|480:35|456:58,1,66.4200000000001,2|0,1:2|2:0,2:0:0:0:
337,212,86833,6,0,P|289:230|225:270,1,99.6300000000001,6|2,1:2|2:0,2:0:0:0:
238,266,87186,2,0,P|246:307|273:327,1,66.4200000000001,0|2,1:0|2:0,2:0:0:0:
126,377,87539,6,0,P|108:329|68:265,1,99.6300000000001,2|2,1:2|2:0,2:0:0:0:
72,278,87892,2,0,P|31:286|11:313,1,66.4200000000001,0|2,1:2|2:0,2:0:0:0:
168,176,88245,2,0,P|176:121|109:68,1,132.84,0|0,1:2|1:2,2:0:0:0:
408,14,88951,6,0,P|417:55|428:91,1,66.4200000000001,2|0,1:2|2:0,2:0:0:0:
342,182,89304,2,0,P|333:141|322:105,1,66.4200000000001,2|0,1:2|2:0,2:0:0:0:
503,218,89657,2,0,P|436:220|406:275,2,132.84,2|0|0,1:2|1:2|1:2,2:0:0:0:
375,360,90716,2,0,P|338:344|302:336,1,66.4200000000001,2|0,1:2|2:0,2:0:0:0:
214,211,91069,5,2,1:2:0:0:
288,251,91245,1,2,2:0:0:0:
196,372,91422,2,0,P|173:339|177:304,1,66.4200000000001,2|2,1:2|2:0,2:0:0:0:
105,184,91775,2,0,P|99:231|84:260,1,66.4200000000001,2|2,1:2|0:2,2:0:0:0:
17,319,92128,1,2,1:2:0:0:
301,28,92481,6,0,P|371:58|458:82,1,149.04,6|10,1:2|2:0,2:0:0:0:
336,209,93010,2,0,P|325:167|312:134,1,74.52,2|0,2:0|1:0,2:0:0:0:
313,138,93363,1,2,2:0:0:0:
459,0,93539,2,0,P|518:33|502:114,1,149.04,8|0,2:0|1:0,2:0:0:0:
436,203,94069,1,2,2:0:0:0:
436,203,94245,2,0,P|475:217|512:235,1,74.52,10|0,2:0|2:0,2:0:0:0:
389,90,94598,5,2,1:2:0:0:
308,197,94775,1,2,2:0:0:0:
234,92,94951,2,0,P|248:49|256:8,1,74.52,10|2,2:0|2:0,2:0:0:0:
70,153,95304,6,0,P|120:149|175:238,1,149.04,2|10,1:2|2:0,2:0:0:0:
314,311,95833,2,0,P|274:284|219:284,1,74.52,2|0,2:0|1:0,2:0:0:0:
248,279,96186,1,2,2:0:0:0:
135,382,96363,2,0,P|115:309|90:241,1,149.04,10|0,2:0|1:2,2:0:0:0:
149,128,96892,5,2,2:0:0:0:
0,117,97069,2,0,P|36:149|71:151,1,74.52,10|0,2:0|2:0,2:0:0:0:
224,72,97422,1,2,1:2:0:0:
313,187,97598,1,8,2:1:0:0:
224,72,97775,2,0,P|235:27|245:-20,1,74.52,8|2,2:1|2:0,2:0:0:0:
114,216,98128,6,0,P|141:288|155:365,1,149.04,4|10,1:2|2:0,2:0:0:0:
325,338,98657,1,2,2:0:0:0:
325,338,98833,2,0,P|271:319|243:270,1,111.78,2|0,1:2|2:0,2:0:0:0:
241,258,99186,1,10,2:0:0:0:
178,376,99363,1,2,2:0:0:0:
339,239,99539,6,0,P|399:261|459:273,2,111.78,2|2|2,1:2|2:0|2:0,2:0:0:0:
423,108,100245,2,0,P|447:150|446:193,1,74.52,0|0,1:2|1:2,2:0:0:0:
245,99,100598,1,10,2:0:0:0:
202,190,100775,1,8,2:0:0:0:
341,80,100951,6,0,P|327:37|323:-1,1,74.52,6|0,1:2|2:0,2:0:0:0:
441,185,101304,2,0,P|482:200|517:216,1,74.52,10|0,2:0|2:0,2:0:0:0:
477,71,101657,1,2,1:2:0:0:
477,71,101833,1,0,1:2:0:0:
361,229,102010,1,10,2:0:0:0:
270,173,102186,1,8,2:0:0:0:
270,173,102275,1,8,2:0:0:0:
270,173,102363,6,0,P|237:177|213:202,1,45.36,2|8,1:2|2:0,2:0:0:0:
139,234,102539,2,0,P|130:271|138:294,1,45.36,8|8,2:0|2:0,2:0:0:0:
299,381,102716,1,0,1:2:0:0:
288,341,102804,1,8,2:0:0:0:
252,320,102892,1,8,2:0:0:0:
211,320,102981,1,8,2:0:0:0:
182,349,103069,5,2,1:2:0:0:
50,260,103245,1,0,1:2:0:0:
188,132,103422,1,0,1:2:0:0:
13,58,103598,1,0,1:2:0:0:
168,218,103775,6,0,P|242:221|284:156,1,132.84,4|2,1:2|1:2,2:0:0:0:
345,103,104304,2,0,P|336:68|330:25,1,66.4200000000001,2|0,2:0|1:0,2:0:0:0:
201,142,104657,1,2,2:0:0:0:
201,142,104745,1,2,2:0:0:0:
201,142,104833,6,0,P|216:87|231:0,1,132.84,2|0,1:2|1:2,2:0:0:0:
342,117,105363,1,2,2:0:0:0:
342,117,105539,1,0,1:0:0:0:
145,282,105892,2,0,P|209:298|268:336,1,132.84,2|2,1:2|1:2,2:0:0:0:
187,384,106422,1,2,2:0:0:0:
339,285,106598,6,0,P|342:226|275:189,1,132.84,2|0,1:2|1:2,2:0:0:0:
196,142,107128,2,0,P|182:194|169:234,1,66.4200000000001,2|0,2:0|1:0,2:0:0:0:
10,325,107481,1,0,2:0:0:0:
32,252,107657,2,0,P|104:264|134:324,1,132.84,2|0,1:2|1:2,2:0:0:0:
233,363,108186,6,0,L|275:351,1,33.21,2|0,2:0|2:0,2:0:0:0:
332,301,108363,2,0,L|322:257,3,33.21,2|0|0|0,1:2|2:0|2:0|2:0,2:0:0:0:
407,352,108716,2,0,L|417:396,3,33.21,2|0|0|0,1:2|2:0|2:0|2:0,2:0:0:0:
474,288,109069,1,2,1:2:0:0:
485,260,109157,1,0,2:0:0:0:
481,230,109245,1,0,2:0:0:0:
463,205,109333,1,0,2:0:0:0:
441,184,109422,6,0,P|431:117|488:-6,1,199.26,2|2,1:2|2:0,2:0:0:0:
340,149,110304,2,0,P|303:162|283:174,1,33.21,0|0,2:0|2:0,2:0:0:0:
239,206,110481,2,0,P|214:167|218:132,1,66.4200000000001,2|0,1:2|2:0,2:0:0:0:
134,60,110833,6,0,P|196:46|231:25,2,99.6300000000001,2|2|2,1:2|2:0|2:0,2:0:0:0:
25,110,111539,2,0,P|62:145|88:208,1,99.6300000000001,2|2,1:2|2:0,2:0:0:0:
92,205,111892,1,0,1:2:0:0:
8,302,112069,1,2,2:0:0:0:
128,367,112245,6,0,P|148:327|158:291,2,66.4200000000001,2|0|0,1:2|2:0|1:2,2:0:0:0:
220,235,112775,1,2,2:0:0:0:
261,321,112951,2,0,P|323:351|370:382,1,99.6300000000001,2|0,1:2|2:0,2:0:0:0:
369,371,113304,2,0,P|392:338|394:291,1,66.4200000000001,2|2,1:2|2:0,2:0:0:0:
500,222,113657,6,0,P|439:196|378:157,1,132.84,2|0,1:2|1:2,2:0:0:0:
350,239,114186,1,2,2:0:0:0:
476,115,114363,2,0,P|470:70|442:46,1,66.4200000000001,6|8,1:2|2:2,2:0:0:0:
446,49,114628,1,8,2:0:0:0:
446,49,114716,1,4,1:2:0:0:
347,151,114892,1,8,2:0:0:0:
242,44,115069,5,6,1:2:0:0:
242,44,115422,1,2,1:2:0:0:
242,44,115510,1,0,2:0:0:0:
242,44,115598,2,0,L|191:58,1,33.21,2|2,2:0|2:0,2:0:0:0:
113,52,115775,2,0,L|101:11,3,33.21,2|0|0|0,1:2|2:0|2:0|2:0,2:0:0:0:
52,125,116128,2,0,L|64:166,3,33.21,2|0|0|0,1:2|2:0|2:0|2:0,2:0:0:0:
149,170,116481,6,0,P|167:209|156:251,1,66.4200010134888,2|2,1:2|2:0,2:0:0:0:
165,247,116745,1,0,2:0:0:0:
165,247,116833,2,0,L|180:288,3,33.21,2|0|2|0,1:2|2:0|2:0|2:0,2:0:0:0:
147,352,117186,1,2,1:2:0:0:
118,369,117275,1,0,2:0:0:0:
85,372,117363,1,2,2:0:0:0:
57,353,117451,1,0,2:0:0:0:
40,324,117539,2,0,L|54:268,2,33.2100005067444,2|0|2,1:2|2:0|2:0,2:0:0:0:
42,151,117892,5,2,1:2:0:0:
75,136,117981,1,0,2:0:0:0:
106,154,118069,2,0,L|121:200,1,33.21,0|0,2:0|2:0,2:0:0:0:
174,240,118245,1,2,1:2:0:0:
207,255,118333,1,0,2:0:0:0:
238,237,118422,2,0,L|253:191,1,33.21,0|0,2:0|2:0,2:0:0:0:
335,99,118598,5,2,1:2:0:0:
300,119,118686,1,0,2:0:0:0:
260,116,118775,1,0,2:0:0:0:
228,91,118863,1,0,2:0:0:0:
215,53,118951,1,2,1:2:0:0:
402,201,119128,6,0,P|414:137|448:54,1,132.84,2|2,2:0|2:0,2:0:0:0:
335,99,119657,1,2,1:2:0:0:
491,212,119833,2,0,P|501:263|443:317,1,132.84,2|2,2:0|2:0,2:0:0:0:
309,341,120363,1,2,1:2:0:0:
388,225,120539,1,2,2:0:0:0:
309,341,120716,6,0,P|251:357|163:396,1,132.84,2|2,1:2|1:2,2:0:0:0:
106,247,121245,2,0,P|119:213|128:175,1,66.4200000000001,2|0,2:0|1:0,2:0:0:0:
5,332,121598,1,2,2:0:0:0:
5,332,121775,6,0,P|70:330|106:382,1,132.84,2|0,1:2|1:2,2:0:0:0:
200,301,122304,1,2,2:0:0:0:
40,173,122657,2,0,P|37:134|58:102,1,66.4200000000001,2|0,2:0|1:2,2:0:0:0:
207,37,123010,1,2,2:0:0:0:
96,7,123186,2,0,P|124:63|147:144,1,132.84,2|2,1:2|1:2,2:0:0:0:
169,284,123716,6,0,P|190:214|259:168,1,132.84,2|0,2:0|2:0,2:0:0:0:
305,97,124245,1,2,1:2:0:0:
331,117,124333,1,0,2:0:0:0:
367,123,124422,1,0,2:0:0:0:
391,100,124510,1,0,2:0:0:0:
403,69,124598,2,0,L|390:30,3,33.21,2|0|0|0,1:2|2:0|2:0|2:0,2:0:0:0:
481,121,124951,6,0,P|492:175|508:221,1,74.52,6|8,1:2|2:0,2:0:0:0:
510,217,125216,1,8,2:0:0:0:
510,217,125304,1,8,2:0:0:0:
438,280,125481,1,8,2:0:0:0:
512,368,125657,5,8,2:0:0:0:
352,251,125833,1,0,1:2:0:0:
271,384,126010,5,12,2:0:0:0:
438,280,126186,1,8,2:0:0:0:
248,164,126363,6,0,P|242:80|308:40,1,165.24,4|10,1:2|2:0,2:0:0:0:
303,40,126892,1,0,2:0:0:0:
414,167,127069,2,0,P|366:145|332:135,1,82.6200000000001,2|0,1:2|2:0,2:0:0:0:
228,252,127422,2,0,P|188:264|151:282,1,82.6200000000001,10|0,2:0|2:0,2:0:0:0:
8,189,127775,5,2,1:2:0:0:
119,100,127951,1,2,2:0:0:0:
0,32,128128,1,8,2:0:0:0:
170,173,128304,2,0,P|205:131|202:92,1,82.6200000000001,2|0,2:0|1:2,2:0:0:0:
57,270,128657,2,0,P|41:321|15:369,1,82.6200000000001,2|8,2:0|2:0,2:0:0:0:
199,286,129010,6,0,P|259:244|363:219,1,165.24,2|2,2:0|2:0,2:0:0:0:
248,128,129539,2,0,P|231:87|224:38,1,82.6200000000001,10|0,2:0|2:0,2:0:0:0:
353,226,129892,1,2,1:2:0:0:
464,150,130069,1,2,2:0:0:0:
355,83,130245,1,10,2:0:0:0:
486,258,130422,6,0,P|476:306|447:351,2,82.6200000000001,2|0|0,2:0|1:0|2:0,2:0:0:0:
435,147,130951,2,0,P|490:129|525:109,1,82.6200000000001,10|0,2:0|2:0,2:0:0:0:
319,247,131304,2,0,P|276:262|236:298,1,82.6200000000001,2|8,1:2|2:0,2:0:0:0:
334,341,131657,1,10,2:0:0:0:
146,160,131833,6,0,P|169:74|186:-26,1,165.24,6|2,1:2|1:2,2:0:0:0:
257,114,132363,1,10,2:0:0:0:
64,208,132539,2,0,P|61:250|94:283,2,82.6200000000001,2|0|2,2:0|1:0|1:2,2:0:0:0:
7,136,133069,1,10,2:0:0:0:
202,247,133245,5,2,1:2:0:0:
30,355,133598,5,0,1:2:0:0:
202,247,133951,5,0,1:2:0:0:
30,355,134128,1,0,1:2:0:0:
38,248,137128,5,2,2:3:0:0:
122,220,137304,5,2,2:3:0:0:
228,179,137481,5,2,2:3:0:0:
358,128,137657,6,0,P|342:82|329:34,1,90.72,6|2,1:2|2:0,2:0:0:0:
264,0,137922,1,2,2:0:0:0:
258,11,138010,1,10,2:0:0:0:
437,75,138186,1,2,2:0:0:0:
243,199,138363,2,0,P|300:211|327:248,1,90.72,2|0,1:2|2:0,2:0:0:0:
475,369,138716,1,10,2:0:0:0:
441,179,138892,6,0,P|418:237|399:314,1,136.08,2|0,2:0|2:0,2:0:0:0:
404,325,139245,1,2,2:0:0:0:
238,381,139422,2,0,P|185:357|142:349,1,90.72,10|2,2:0|2:0,2:0:0:0:
147,155,139775,5,2,1:2:0:0:
271,270,139951,1,2,2:0:0:0:
73,380,140128,1,10,2:0:0:0:
144,257,140304,1,2,2:0:0:0:
2,94,140481,6,0,P|47:154|149:153,1,181.44,2|8,1:2|2:0,2:0:0:0:
306,24,141010,1,2,2:0:0:0:
100,35,141186,2,0,P|186:63|266:107,1,181.44,2|8,1:2|2:0,2:0:0:0:
421,245,141716,1,2,2:0:0:0:
339,197,141892,6,0,P|354:141|361:98,1,90.72,2|0,1:2|2:0,2:0:0:0:
494,296,142245,2,0,P|479:352|472:395,1,90.72,10|0,2:0|2:0,2:0:0:0:
340,293,142598,1,2,1:2:0:0:
477,179,142775,1,8,2:1:0:0:
329,300,142951,2,0,P|270:331|243:355,1,90.72,8|2,2:1|2:0,2:0:0:0:
105,141,143304,6,0,P|164:176|183:213,1,90.72,2|2,1:2|2:0,2:0:0:0:
224,253,143569,1,2,2:0:0:0:
214,262,143657,1,10,2:0:0:0:
386,157,143833,1,2,2:0:0:0:
247,89,144010,2,0,P|257:48|265:-10,1,90.72,2|0,1:2|2:0,2:0:0:0:
39,149,144363,1,10,2:0:0:0:
84,31,144539,6,0,P|127:62|153:194,1,181.44,2|2,2:0|2:0,2:0:0:0:
19,319,145069,2,0,P|35:268|67:228,1,90.72,10|2,2:0|2:0,2:0:0:0:
250,195,145422,5,2,1:2:0:0:
48,139,145598,1,2,2:0:0:0:
122,315,145775,1,10,2:0:0:0:
156,181,145951,1,2,2:0:0:0:
302,340,146128,6,0,P|369:346|425:247,1,181.44,2|8,1:2|2:0,2:0:0:0:
512,342,146657,1,2,2:0:0:0:
383,181,146833,2,0,P|400:130|409:78,1,90.72,2|0,1:2|2:0,2:0:0:0:
252,264,147186,2,0,P|194:288|154:314,1,90.72,10|2,2:0|2:0,2:0:0:0:
14,197,147539,5,2,1:2:0:0:
149,384,147716,1,2,2:0:0:0:
7,294,147892,1,10,2:0:0:0:
132,182,148069,1,2,2:0:0:0:
6,30,148245,2,0,P|44:67|91:69,1,90.72,2|8,1:2|2:0,2:0:0:0:
151,41,148510,1,8,2:0:0:0:
162,32,148598,1,12,2:0:0:0:
317,180,148775,1,10,2:0:0:0:
317,180,148863,1,10,2:0:0:0:
317,180,148951,6,0,P|301:117|287:76,1,90.72,6|2,1:2|2:0,2:0:0:0:
257,25,149216,1,2,2:0:0:0:
265,16,149304,1,10,2:0:0:0:
180,165,149481,1,2,2:0:0:0:
352,275,149657,2,0,P|397:254|444:236,1,90.72,2|0,1:2|2:0,2:0:0:0:
302,155,150010,1,10,2:0:0:0:
248,360,150186,6,0,P|178:322|161:258,1,136.08,2|0,2:0|2:0,2:0:0:0:
170,259,150539,1,2,2:0:0:0:
11,174,150716,2,0,P|39:222|47:274,1,90.72,8|2,2:0|2:0,2:0:0:0:
208,74,151069,5,2,1:2:0:0:
51,37,151245,1,2,2:0:0:0:
181,172,151422,1,10,2:0:0:0:
350,77,151598,1,2,2:0:0:0:
471,280,151775,6,0,P|411:247|322:225,1,136.08,2|0,1:2|2:0,2:0:0:0:
332,225,152128,2,0,P|303:203|303:144,1,90.72,10|0,2:0|2:0,2:0:0:0:
476,0,152481,2,0,P|441:73|342:72,1,181.44,2|10,1:2|2:0,2:0:0:0:
218,20,153010,1,2,2:0:0:0:
34,144,153186,6,0,P|76:159|117:178,1,90.72,2|2,1:2|2:0,2:0:0:0:
284,233,153539,1,8,2:0:0:0:
288,97,153716,2,0,P|239:116|215:219,1,136.08,2|0,2:0|2:0,2:0:0:0:
199,207,154069,1,8,2:1:0:0:
122,338,154245,2,0,P|75:357|17:385,1,90.72,8|2,2:1|2:0,2:0:0:0:
277,256,154598,6,0,P|335:268|354:311,1,90.72,2|2,1:2|2:0,2:0:0:0:
401,352,154863,1,2,2:0:0:0:
394,363,154951,1,10,2:0:0:0:
510,238,155128,1,2,2:0:0:0:
392,138,155304,2,0,P|410:193|420:233,1,90.72,2|0,1:2|2:0,2:0:0:0:
459,65,155657,1,10,2:0:0:0:
301,171,155833,6,0,P|233:158|200:73,1,136.08,2|0,2:0|2:0,2:0:0:0:
203,90,156186,1,2,2:0:0:0:
57,13,156363,2,0,P|36:62|13:102,1,90.72,10|2,2:0|2:0,2:0:0:0:
190,249,156716,5,2,1:2:0:0:
114,109,156892,1,2,2:0:0:0:
6,260,157069,2,0,P|48:222|94:211,1,90.72,10|2,2:0|2:0,2:0:0:0:
298,364,157422,6,0,P|217:333|191:240,1,181.44,2|8,1:2|2:0,2:0:0:0:
124,360,157951,1,2,2:0:0:0:
281,237,158128,2,0,P|301:180|300:75,1,136.08,2|0,1:2|2:0,2:0:0:0:
310,91,158481,2,0,P|272:59|222:59,1,90.72,10|0,2:0|2:0,2:0:0:0:
406,297,158833,5,6,1:2:0:0:
364,167,159010,1,2,2:0:0:0:
512,235,159186,1,10,2:0:0:0:
341,370,159363,2,0,P|270:344|221:339,1,90.72,2|2,2:0|1:2,2:0:0:0:
182,376,159628,1,0,1:2:0:0:
173,364,159716,1,8,2:0:0:0:
69,233,159892,1,4,1:2:0:0:
16,326,160069,1,8,2:0:0:0:
171,196,160245,6,0,P|192:129|114:50,1,181.44,6|8,1:2|2:0,2:0:0:0:
3,116,160775,2,0,P|57:127|96:145,2,90.72,2|0|0,2:0|1:2|1:2,2:0:0:0:
141,41,161304,1,10,2:0:0:0:
286,182,161481,2,0,P|301:102|329:-1,1,181.44,2|2,2:0|2:0,2:0:0:0:
170,123,162010,6,0,P|185:176|191:219,1,90.72,10|2,2:0|2:0,2:0:0:0:
380,368,162363,1,2,1:2:0:0:
326,259,162539,1,2,1:2:0:0:
176,381,162716,2,0,P|240:358|283:345,1,90.72,10|2,2:0|2:0,2:0:0:0:
512,245,163069,6,0,P|446:244|385:147,1,181.44,2|8,1:2|2:0,2:0:0:0:
509,76,163598,2,0,P|492:125|476:174,2,90.72,2|0|0,2:0|1:2|1:2,2:0:0:0:
272,165,164128,1,10,2:0:0:0:
388,254,164304,2,0,P|372:188|345:59,1,181.44,2|2,2:0|2:0,2:0:0:0:
230,12,164833,6,0,P|216:68|203:107,1,90.72,10|2,2:0|2:0,2:0:0:0:
86,207,165186,1,6,1:2:0:0:
34,83,165363,1,10,2:0:0:0:
34,83,165451,1,8,2:0:0:0:
34,83,165539,1,10,2:0:0:0:
187,181,165716,2,0,L|171:243,1,45.36,10|8,2:0|2:0,2:0:0:0:
38,379,165892,6,0,P|85:329|173:347,1,136.08,6|0,1:2|2:0,2:0:0:0:
212,380,166245,2,0,P|252:359|318:340,1,90.72,8|2,2:0|1:2,2:0:0:0:
420,209,166598,1,8,2:0:0:0:
492,340,166775,1,0,1:2:0:0:
295,177,166951,2,0,P|311:128|320:77,1,90.72,10|0,2:0|1:2,2:0:0:0:
396,297,167304,6,0,P|380:346|371:397,1,90.72,8|0,2:0|1:2,2:0:0:0:
253,301,167657,1,10,2:0:0:0:
414,204,167833,1,2,1:2:0:0:
187,79,168010,1,10,1:2:0:0:
252,191,168186,6,0,L|308:172,1,45.36,2|0,1:2|1:0,2:0:0:0:
421,114,168363,1,2,1:2:0:0:
432,79,168451,1,0,1:0:0:0:
419,44,168539,1,2,1:2:0:0:
388,24,168628,1,0,1:0:0:0:
351,23,168716,5,2,1:2:0:0:
466,241,169422,1,2,1:2:0:0:
256,192,170128,5,2,2:1:0:0:
