osu file format v14

[General]
AudioFilename: audio.mp3
AudioLeadIn: 0
PreviewTime: 65290
Countdown: 1
SampleSet: Soft
StackLeniency: 0.4
Mode: 0
LetterboxInBreaks: 0
WidescreenStoryboard: 1

[Editor]
Bookmarks: 656,11442,22229,33015,43802,54588,65375,86948,97734,108521,119307,130094,151667,162453,173240,181330
DistanceSpacing: 1
BeatDivisor: 2
GridSize: 32
TimelineZoom: 1.268

[Metadata]
Title:Shiranai Wakusei
TitleUnicode:知らない惑星
Artist:Nakigoto
ArtistUnicode:なきごと
Creator:Amateurre
Version:Normal
Source:
Tags:midorijeon -Rei Kyuuchie MRL Hoshimiya Toto Japanese pop j-pop jpop rock n' Roll jrock j-rock Female vocalist band 黄昏 STARSHIP 黄昏STARSHIP Tasogare unknown planet baby 水上えみり 岡田 安未 Mizukami Emiri Emily Okada Ami
BeatmapID:3839615
BeatmapSetID:1865974

[Difficulty]
HPDrainRate:2
CircleSize:3
OverallDifficulty:4
ApproachRate:5.5
SliderMultiplier:0.999999999999999
SliderTickRate:1

[Events]
//Background and Video events
0,0,"97732781_p0.jpg",0,0
//Break Periods
2,119507,126272
//Storyboard Layer 0 (Background)
//Storyboard Layer 1 (Fail)
//Storyboard Layer 2 (Pass)
//Storyboard Layer 3 (Foreground)
Sprite,Foreground,Centre,"sb/Lyrics/860/_005.png",140,310 S,0,11442,,0.4 F,0,11442,14138,1 C,0,11442,,222,222,222
//Storyboard Sound Samples

[TimingPoints]
656,337.078651685393,4,2,12,60,1,0
740,-100,4,2,2,60,0,0
1330,-100,4,2,1,60,0,0
1835,-100,4,2,12,60,0,0
1919,-100,4,2,2,60,0,0
3352,-100,4,2,12,60,0,0
3436,-100,4,2,2,60,0,0
4026,-100,4,2,3,60,0,0
4532,-100,4,2,12,60,0,0
4616,-100,4,2,2,60,0,0
6049,-100,4,2,12,60,0,0
6133,-100,4,2,2,60,0,0
6807,-100,4,2,1,60,0,0
6891,-100,4,2,2,60,0,0
7229,-100,4,2,12,60,0,0
7313,-100,4,2,2,60,0,0
7734,-100,4,2,8,60,0,0
7818,-100,4,2,2,60,0,0
8071,-100,4,2,8,60,0,0
8155,-100,4,2,2,60,0,0
8408,-100,4,2,6,60,0,0
8492,-100,4,2,2,60,0,0
9167,-100,4,2,3,60,0,0
9251,-100,4,2,1,60,0,0
9757,-100,4,2,3,60,0,0
9925,-100,4,2,12,60,0,0
10009,-100,4,2,2,60,0,0
10262,-100,4,2,2,50,0,0
11442,-100,4,2,2,65,0,0
11779,-100,4,2,8,65,0,0
11863,-100,4,2,2,65,0,0
12116,-100,4,2,8,65,0,0
12200,-100,4,2,2,65,0,0
12453,-100,4,2,8,65,0,0
12537,-100,4,2,2,65,0,0
12622,-100,4,2,12,65,0,0
12706,-100,4,2,2,65,0,0
13127,-100,4,2,8,65,0,0
13211,-100,4,2,2,65,0,0
13380,-100,4,2,17,65,0,0
13464,-100,4,2,8,65,0,0
13548,-100,4,2,17,65,0,0
13802,-100,4,2,8,65,0,0
13886,-100,4,2,2,65,0,0
14139,-100,4,2,6,65,0,0
14223,-100,4,2,2,65,0,0
14476,-100,4,2,8,65,0,0
14560,-100,4,2,2,65,0,0
14813,-100,4,2,8,65,0,0
14897,-100,4,2,2,65,0,0
15150,-100,4,2,8,65,0,0
15234,-100,4,2,2,65,0,0
15318,-100,4,2,12,65,0,0
15402,-100,4,2,2,65,0,0
15824,-100,4,2,8,65,0,0
15908,-100,4,2,2,65,0,0
16077,-100,4,2,17,65,0,0
16161,-100,4,2,8,65,0,0
16245,-100,4,2,17,65,0,0
16498,-100,4,2,8,65,0,0
16582,-100,4,2,2,65,0,0
16835,-100,4,2,6,65,0,0
16919,-100,4,2,2,65,0,0
17172,-100,4,2,8,65,0,0
17256,-100,4,2,2,65,0,0
17509,-100,4,2,8,65,0,0
17593,-100,4,2,2,65,0,0
17847,-100,4,2,8,65,0,0
17931,-100,4,2,2,65,0,0
18015,-100,4,2,12,65,0,0
18099,-100,4,2,2,65,0,0
18521,-100,4,2,8,65,0,0
18605,-100,4,2,2,65,0,0
18773,-100,4,2,17,65,0,0
18858,-100,4,2,8,65,0,0
18942,-100,4,2,17,65,0,0
19195,-100,4,2,6,65,0,0
19279,-100,4,2,2,65,0,0
19869,-100,4,2,8,65,0,0
19953,-100,4,2,2,65,0,0
20206,-100,4,2,8,65,0,0
20290,-100,4,2,2,65,0,0
22229,-100,4,2,2,75,0,0
22566,-100,4,2,10,75,0,0
22650,-100,4,2,2,75,0,0
22903,-100,4,2,11,75,0,0
22987,-100,4,2,2,75,0,0
23240,-100,4,2,10,75,0,0
23324,-100,4,2,2,75,0,0
23577,-100,4,2,10,75,0,0
23661,-100,4,2,2,75,0,0
23914,-100,4,2,10,75,0,0
23998,-100,4,2,2,75,0,0
24251,-100,4,2,10,75,0,0
24335,-100,4,2,2,75,0,0
24588,-100,4,2,10,75,0,0
24672,-100,4,2,2,75,0,0
24925,-100,4,2,10,75,0,0
25009,-100,4,2,2,75,0,0
25262,-100,4,2,10,75,0,0
25346,-100,4,2,2,75,0,0
25599,-100,4,2,11,75,0,0
25683,-100,4,2,2,75,0,0
25936,-100,4,2,10,75,0,0
26020,-100,4,2,2,75,0,0
26273,-100,4,2,10,75,0,0
26357,-100,4,2,2,75,0,0
26611,-100,4,2,10,75,0,0
26695,-100,4,2,2,75,0,0
26948,-100,4,2,10,75,0,0
27032,-100,4,2,2,75,0,0
27285,-100,4,2,3,75,0,0
27622,-100,4,2,2,75,0,0
28127,-100,4,2,3,75,0,0
28802,-100,4,2,2,75,0,0
29307,-100,4,2,10,75,0,0
29391,-100,4,2,2,75,0,0
29644,-100,4,2,10,75,0,0
29728,-100,4,2,2,75,0,0
29981,-100,4,2,10,75,0,0
30065,-100,4,2,2,75,0,0
30318,-100,4,2,3,75,0,0
30655,-100,4,2,10,75,0,0
30739,-100,4,2,2,75,0,0
30993,-100,4,2,10,75,0,0
31077,-100,4,2,2,75,0,0
31330,-100,4,2,10,75,0,0
31414,-100,4,2,2,75,0,0
31498,-100,4,2,3,75,0,0
32509,-100,4,2,1,75,0,0
32678,-100,4,2,3,75,0,0
33015,-100,4,2,2,70,0,0
33352,-100,4,2,8,70,0,0
33436,-100,4,2,2,70,0,0
33689,-100,4,2,9,70,0,0
33773,-100,4,2,2,70,0,0
34026,-100,4,2,9,70,0,0
34110,-100,4,2,2,70,0,0
34363,-100,4,2,9,70,0,0
34447,-100,4,2,2,70,0,0
34700,-100,4,2,8,70,0,0
34784,-100,4,2,2,70,0,0
35038,-100,4,2,9,70,0,0
35122,-100,4,2,2,70,0,0
35375,-100,4,2,8,70,0,0
35459,-100,4,2,2,70,0,0
35712,-100,4,2,8,70,0,0
35796,-100,4,2,2,70,0,0
36049,-100,4,2,8,70,0,0
36133,-100,4,2,2,70,0,0
36386,-100,4,2,8,70,0,0
36470,-100,4,2,2,70,0,0
36723,-100,4,2,9,70,0,0
36807,-100,4,2,2,70,0,0
37060,-100,4,2,9,70,0,0
37144,-100,4,2,2,70,0,0
37397,-100,4,2,8,70,0,0
37481,-100,4,2,2,70,0,0
37734,-100,4,2,8,70,0,0
37818,-100,4,2,2,70,0,0
38071,-100,4,2,6,70,0,0
38155,-100,4,2,2,70,0,0
38408,-100,4,2,8,70,0,0
38492,-100,4,2,2,70,0,0
38745,-100,4,2,8,70,0,0
38829,-100,4,2,2,70,0,0
39082,-100,4,2,9,70,0,0
39166,-100,4,2,2,70,0,0
39420,-100,4,2,9,70,0,0
39504,-100,4,2,2,70,0,0
39757,-100,4,2,9,70,0,0
39841,-100,4,2,2,70,0,0
40094,-100,4,2,8,70,0,0
40178,-100,4,2,2,70,0,0
40431,-100,4,2,8,70,0,0
40515,-100,4,2,2,70,0,0
40768,-100,4,2,6,70,0,0
40852,-100,4,2,2,70,0,0
41105,-100,4,2,8,70,0,0
41189,-100,4,2,2,70,0,0
41442,-100,4,2,8,70,0,0
41526,-100,4,2,2,70,0,0
41779,-100,4,2,8,70,0,0
41863,-100,4,2,2,70,0,0
42116,-100,4,2,8,70,0,0
42200,-100,4,2,2,70,0,0
42453,-100,4,2,8,70,0,0
42537,-100,4,2,2,70,0,0
42622,-100,4,2,12,70,0,0
42706,-100,4,2,2,70,0,0
42959,-100,4,2,12,70,0,0
43043,-100,4,2,2,70,0,0
43296,-100,4,2,10,70,0,0
43380,-100,4,2,2,70,0,0
43464,-100,4,2,10,70,0,0
43548,-100,4,2,2,70,0,0
44139,-100,4,2,8,70,0,0
44223,-100,4,2,2,70,0,0
44476,-100,4,2,9,70,0,0
44560,-100,4,2,2,70,0,0
44813,-100,4,2,9,70,0,0
44897,-100,4,2,2,70,0,0
45150,-100,4,2,9,70,0,0
45234,-100,4,2,2,70,0,0
45487,-100,4,2,8,70,0,0
45571,-100,4,2,2,70,0,0
45824,-100,4,2,9,70,0,0
45908,-100,4,2,2,70,0,0
46161,-100,4,2,6,70,0,0
46245,-100,4,2,2,70,0,0
46498,-100,4,2,8,70,0,0
46582,-100,4,2,2,70,0,0
46835,-100,4,2,6,70,0,0
46919,-100,4,2,2,70,0,0
47172,-100,4,2,9,70,0,0
47256,-100,4,2,2,70,0,0
47509,-100,4,2,6,70,0,0
47593,-100,4,2,2,70,0,0
47847,-100,4,2,9,70,0,0
47931,-100,4,2,2,70,0,0
48184,-100,4,2,6,70,0,0
48268,-100,4,2,2,70,0,0
48521,-100,4,2,9,70,0,0
48605,-100,4,2,2,70,0,0
48858,-100,4,2,6,70,0,0
48942,-100,4,2,2,70,0,0
49195,-100,4,2,8,70,0,0
49279,-100,4,2,2,70,0,0
49532,-100,4,2,8,70,0,0
49616,-100,4,2,2,70,0,0
49869,-100,4,2,9,70,0,0
49953,-100,4,2,2,70,0,0
50206,-100,4,2,9,70,0,0
50290,-100,4,2,2,70,0,0
50543,-100,4,2,9,70,0,0
50627,-100,4,2,2,70,0,0
50880,-100,4,2,8,70,0,0
50964,-100,4,2,2,70,0,0
51217,-100,4,2,8,70,0,0
51301,-100,4,2,2,70,0,0
51554,-100,4,2,6,70,0,0
51638,-100,4,2,2,70,0,0
52229,-100,4,2,6,70,0,0
52313,-100,4,2,2,70,0,0
53071,-100,4,2,3,70,0,0
53577,-100,4,2,8,70,0,0
53661,-100,4,2,2,70,0,0
54082,-100,4,2,1,70,0,0
54251,-100,4,2,3,70,0,0
54588,-100,4,2,2,70,0,0
54925,-100,4,2,8,70,0,0
55009,-100,4,2,2,70,0,0
55262,-100,4,2,9,70,0,0
55346,-100,4,2,2,70,0,0
55599,-100,4,2,9,70,0,0
55683,-100,4,2,2,70,0,0
55936,-100,4,2,8,70,0,0
56020,-100,4,2,2,70,0,0
56273,-100,4,2,8,70,0,0
56357,-100,4,2,2,70,0,0
56611,-100,4,2,8,70,0,0
56695,-100,4,2,2,70,0,0
56948,-100,4,2,8,70,0,0
57032,-100,4,2,2,70,0,0
57285,-100,4,2,6,70,0,0
57369,-100,4,2,2,70,0,0
57622,-100,4,2,8,70,0,0
57706,-100,4,2,2,70,0,0
57959,-100,4,2,9,70,0,0
58043,-100,4,2,2,70,0,0
58296,-100,4,2,9,70,0,0
58380,-100,4,2,2,70,0,0
58633,-100,4,2,8,70,0,0
58717,-100,4,2,2,70,0,0
58970,-100,4,2,8,70,0,0
59054,-100,4,2,2,70,0,0
59307,-100,4,2,8,70,0,0
59391,-100,4,2,2,70,0,0
59644,-100,4,2,6,70,0,0
59728,-100,4,2,2,70,0,0
60318,-100,4,2,8,70,0,0
60402,-100,4,2,2,70,0,0
60655,-100,4,2,8,70,0,0
60739,-100,4,2,2,70,0,0
60824,-100,4,2,3,70,0,0
60993,-100,4,2,8,70,0,0
61077,-100,4,2,2,70,0,0
61330,-100,4,2,8,70,0,0
61414,-100,4,2,2,70,0,0
61667,-100,4,2,8,70,0,0
61751,-100,4,2,2,70,0,0
62004,-100,4,2,8,70,0,0
62088,-100,4,2,2,70,0,0
62172,-100,4,2,3,70,0,0
62341,-100,4,2,6,70,0,0
62425,-100,4,2,2,70,0,0
62678,-100,4,2,2,75,0,0
65375,-100,4,2,2,80,0,0
65712,-100,4,2,6,80,0,0
65796,-100,4,2,2,80,0,0
66049,-100,4,2,6,80,0,0
66133,-100,4,2,2,80,0,0
66386,-100,4,2,6,80,0,0
66470,-100,4,2,2,80,0,0
66723,-100,4,2,6,80,0,0
66807,-100,4,2,2,80,0,0
67060,-100,4,2,6,80,0,0
67144,-100,4,2,2,80,0,0
67397,-100,4,2,6,80,0,0
67481,-100,4,2,2,80,0,0
67734,-100,4,2,6,80,0,0
67818,-100,4,2,2,80,0,0
68071,-100,4,2,6,80,0,0
68155,-100,4,2,2,80,0,0
68408,-100,4,2,6,80,0,0
68492,-100,4,2,2,80,0,0
68745,-100,4,2,6,80,0,0
68829,-100,4,2,2,80,0,0
69082,-100,4,2,6,80,0,0
69166,-100,4,2,2,80,0,0
69420,-100,4,2,6,80,0,0
69504,-100,4,2,2,80,0,0
69757,-100,4,2,6,80,0,0
69841,-100,4,2,2,80,0,0
70094,-100,4,2,6,80,0,0
70178,-100,4,2,2,80,0,0
70431,-100,4,2,6,80,0,0
70515,-100,4,2,2,80,0,0
71105,-100,4,2,6,80,0,0
71189,-100,4,2,2,80,0,0
71442,-100,4,2,6,80,0,0
71526,-100,4,2,2,80,0,0
71779,-100,4,2,6,80,0,0
71863,-100,4,2,2,80,0,0
72116,-100,4,2,6,80,0,0
72200,-100,4,2,2,80,0,0
72453,-100,4,2,6,80,0,0
72537,-100,4,2,2,80,0,0
72790,-100,4,2,6,80,0,0
72874,-100,4,2,2,80,0,0
73970,-100,4,2,3,80,0,0
74644,-100,4,2,2,80,0,0
75318,-100,4,2,3,80,0,0
76161,-100,4,2,2,80,0,0
76498,-100,4,2,6,80,0,0
76582,-100,4,2,2,80,0,0
76835,-100,4,2,6,80,0,0
76919,-100,4,2,2,80,0,0
77172,-100,4,2,6,80,0,0
77256,-100,4,2,2,80,0,0
77509,-100,4,2,6,80,0,0
77593,-100,4,2,2,80,0,0
77846,-100,4,2,6,80,0,0
77930,-100,4,2,2,80,0,0
78183,-100,4,2,6,80,0,0
78267,-100,4,2,2,80,0,0
78520,-100,4,2,6,80,0,0
78604,-100,4,2,2,80,0,0
79194,-100,4,2,6,80,0,0
79278,-100,4,2,2,80,0,0
79531,-100,4,2,6,80,0,0
79615,-100,4,2,2,80,0,0
79868,-100,4,2,6,80,0,0
79952,-100,4,2,2,80,0,0
80206,-100,4,2,6,80,0,0
80290,-100,4,2,2,80,0,0
80543,-100,4,2,6,80,0,0
80627,-100,4,2,2,80,0,0
80880,-100,4,2,6,80,0,0
80964,-100,4,2,2,80,0,0
81217,-100,4,2,6,80,0,0
81301,-100,4,2,2,80,0,0
81891,-100,4,2,6,80,0,0
81975,-100,4,2,2,80,0,0
82228,-100,4,2,6,80,0,0
82312,-100,4,2,2,80,0,0
82565,-100,4,2,6,80,0,0
82649,-100,4,2,2,80,0,0
82902,-100,4,2,6,80,0,0
82986,-100,4,2,2,80,0,0
83239,-100,4,2,6,80,0,0
83323,-100,4,2,2,80,0,0
83576,-100,4,2,6,80,0,0
83660,-100,4,2,2,80,0,0
83914,-100,4,2,6,80,0,0
83998,-100,4,2,2,80,0,0
84588,-100,4,2,6,80,0,0
84672,-100,4,2,2,80,0,0
84925,-100,4,2,6,80,0,0
85009,-100,4,2,2,80,0,0
85431,-100,4,2,12,80,0,0
85515,-100,4,2,2,80,0,0
86611,-100,4,2,3,80,0,0
86948,-100,4,2,2,75,0,0
87453,-100,4,2,3,75,0,0
87959,-100,4,2,10,75,0,0
88043,-100,4,2,2,75,0,0
88296,-100,4,2,10,75,0,0
88380,-100,4,2,2,75,0,0
88633,-100,4,2,10,75,0,0
88717,-100,4,2,2,75,0,0
88970,-100,4,2,10,75,0,0
89054,-100,4,2,2,75,0,0
89307,-100,4,2,10,75,0,0
89391,-100,4,2,2,75,0,0
89644,-100,4,2,3,75,0,0
89981,-100,4,2,10,75,0,0
90065,-100,4,2,2,75,0,0
90318,-100,4,2,11,75,0,0
90402,-100,4,2,2,75,0,0
90655,-100,4,2,10,75,0,0
90739,-100,4,2,2,75,0,0
90993,-100,4,2,10,75,0,0
91077,-100,4,2,2,75,0,0
91330,-100,4,2,5,75,0,0
92088,-100,4,2,1,75,0,0
92172,-100,4,2,2,75,0,0
92257,-100,4,2,3,75,0,0
92847,-100,4,2,2,75,0,0
93521,-100,4,2,3,75,0,0
94026,-100,4,2,10,75,0,0
94110,-100,4,2,2,75,0,0
94363,-100,4,2,10,75,0,0
94447,-100,4,2,2,75,0,0
94700,-100,4,2,10,75,0,0
94784,-100,4,2,2,75,0,0
95375,-100,4,2,3,75,0,0
96217,-100,4,2,12,75,0,0
96302,-100,4,2,2,75,0,0
97734,-100,4,2,2,70,0,0
98071,-100,4,2,6,70,0,0
98155,-100,4,2,2,70,0,0
98408,-100,4,2,6,70,0,0
98492,-100,4,2,2,70,0,0
98745,-100,4,2,6,70,0,0
98829,-100,4,2,2,70,0,0
99082,-100,4,2,6,70,0,0
99166,-100,4,2,2,70,0,0
99420,-100,4,2,6,70,0,0
99504,-100,4,2,2,70,0,0
99757,-100,4,2,6,70,0,0
99841,-100,4,2,2,70,0,0
100094,-100,4,2,6,70,0,0
100178,-100,4,2,2,70,0,0
100431,-100,4,2,6,70,0,0
100515,-100,4,2,2,70,0,0
100768,-100,4,2,6,70,0,0
100852,-100,4,2,2,70,0,0
101105,-100,4,2,6,70,0,0
101189,-100,4,2,2,70,0,0
101442,-100,4,2,6,70,0,0
101526,-100,4,2,2,70,0,0
101779,-100,4,2,6,70,0,0
101863,-100,4,2,2,70,0,0
102116,-100,4,2,6,70,0,0
102200,-100,4,2,2,70,0,0
102453,-100,4,2,6,70,0,0
102537,-100,4,2,2,70,0,0
102790,-100,4,2,6,70,0,0
102874,-100,4,2,2,70,0,0
103464,-100,4,2,6,70,0,0
103548,-100,4,2,2,70,0,0
103802,-100,4,2,6,70,0,0
103886,-100,4,2,2,70,0,0
104139,-100,4,2,6,70,0,0
104223,-100,4,2,2,70,0,0
104476,-100,4,2,6,70,0,0
104560,-100,4,2,2,70,0,0
104813,-100,4,2,6,70,0,0
104897,-100,4,2,2,70,0,0
105150,-100,4,2,6,70,0,0
105234,-100,4,2,2,70,0,0
105487,-100,4,2,6,70,0,0
105571,-100,4,2,2,70,0,0
105824,-100,4,2,3,70,0,0
107172,-100,4,2,2,70,0,0
107594,-100,4,2,3,70,0,0
107931,-100,4,2,1,70,0,0
108099,-100,4,2,3,70,0,0
108521,-100,4,2,12,70,0,0
108605,-100,4,2,2,70,0,0
109195,-100,4,2,1,70,0,0
109869,-100,4,2,9,70,0,0
109953,-100,4,2,2,70,0,0
110206,-100,4,2,8,70,0,0
110290,-100,4,2,2,70,0,0
110544,-100,4,2,9,70,0,0
110628,-100,4,2,2,70,0,0
110881,-100,4,2,8,70,0,0
110965,-100,4,2,2,70,0,0
111218,-100,4,2,8,70,0,0
111302,-100,4,2,2,70,0,0
111555,-100,4,2,8,70,0,0
111639,-100,4,2,2,70,0,0
111892,-100,4,2,8,70,0,0
111976,-100,4,2,2,70,0,0
112229,-100,4,2,8,70,0,0
112313,-100,4,2,2,70,0,0
112397,-100,4,2,12,70,0,0
112481,-100,4,2,2,70,0,0
112566,-100,4,2,9,70,0,0
112650,-100,4,2,2,70,0,0
112903,-100,4,2,8,70,0,0
112987,-100,4,2,2,70,0,0
113155,-100,4,2,17,70,0,0
113240,-100,4,2,8,70,0,0
113324,-100,4,2,17,70,0,0
113408,-100,4,2,2,70,0,0
113577,-100,4,2,6,70,0,0
113661,-100,4,2,2,70,0,0
113914,-100,4,2,8,70,0,0
113998,-100,4,2,2,70,0,0
114251,-100,4,2,8,70,0,0
114335,-100,4,2,2,70,0,0
114588,-100,4,2,8,70,0,0
114672,-100,4,2,2,70,0,0
114926,-100,4,2,8,70,0,0
115010,-100,4,2,2,70,0,0
115094,-100,4,2,12,70,0,0
115178,-100,4,2,2,70,0,0
115263,-100,4,2,9,70,0,0
115347,-100,4,2,2,70,0,0
115600,-100,4,2,8,70,0,0
115684,-100,4,2,2,70,0,0
115852,-100,4,2,17,70,0,0
115937,-100,4,2,8,70,0,0
116021,-100,4,2,17,70,0,0
116105,-100,4,2,2,70,0,0
116274,-100,4,2,6,70,0,0
116358,-100,4,2,2,70,0,0
116948,-100,4,2,6,70,0,0
117032,-100,4,2,2,70,0,0
117285,-100,4,2,6,70,0,0
117369,-100,4,2,2,70,0,0
117790,-100,4,2,12,70,0,0
117874,-100,4,2,2,70,0,0
118296,-100,4,2,6,70,0,0
118380,-100,4,2,2,70,0,0
118689,-100,4,2,17,35,0,0
119307,-100,4,2,2,60,0,0
119644,-100,4,2,11,60,0,0
119700,-100,4,2,2,60,0,0
119981,-100,4,2,11,60,0,0
120037,-100,4,2,2,60,0,0
120318,-100,4,2,11,60,0,0
120374,-100,4,2,2,60,0,0
120655,-100,4,2,10,60,0,0
120711,-100,4,2,2,60,0,0
120993,-100,4,2,10,60,0,0
121049,-100,4,2,2,60,0,0
121330,-100,4,2,10,60,0,0
121386,-100,4,2,2,60,0,0
121835,-100,4,2,3,60,0,0
122004,-100,4,2,11,60,0,0
122060,-100,4,2,2,60,0,0
122341,-100,4,2,11,60,0,0
122397,-100,4,2,2,60,0,0
122678,-100,4,2,11,60,0,0
122734,-100,4,2,2,60,0,0
123015,-100,4,2,11,60,0,0
123071,-100,4,2,2,60,0,0
123352,-100,4,2,10,60,0,0
123408,-100,4,2,2,60,0,0
123689,-100,4,2,10,60,0,0
123745,-100,4,2,2,60,0,0
123858,-100,4,2,5,60,0,0
125037,-100,4,2,11,60,0,0
125093,-100,4,2,2,60,0,0
125375,-100,4,2,11,60,0,0
125431,-100,4,2,2,60,0,0
125543,-100,4,2,17,60,0,0
125712,-100,4,2,11,60,0,0
125768,-100,4,2,2,60,0,0
126049,-100,4,2,10,60,0,0
126105,-100,4,2,2,60,0,0
126386,-100,4,2,10,60,0,0
126442,-100,4,2,2,60,0,0
126723,-100,4,2,10,60,0,0
126779,-100,4,2,2,60,0,0
127060,-100,4,2,10,60,0,0
127116,-100,4,2,2,60,0,0
127397,-100,4,2,3,75,0,0
130094,-100,4,2,2,80,0,0
130431,-100,4,2,3,80,0,0
130768,-100,4,2,6,80,0,0
130852,-100,4,2,2,80,0,0
131105,-100,4,2,6,80,0,0
131189,-100,4,2,2,80,0,0
131442,-100,4,2,6,80,0,0
131526,-100,4,2,2,80,0,0
131779,-100,4,2,6,80,0,0
131863,-100,4,2,2,80,0,0
132116,-100,4,2,6,80,0,0
132200,-100,4,2,2,80,0,0
132453,-100,4,2,6,80,0,0
132537,-100,4,2,2,80,0,0
132790,-100,4,2,6,80,0,0
132874,-100,4,2,2,80,0,0
133127,-100,4,2,6,80,0,0
133211,-100,4,2,2,80,0,0
133464,-100,4,2,6,80,0,0
133548,-100,4,2,2,80,0,0
133801,-100,4,2,6,80,0,0
133885,-100,4,2,2,80,0,0
134139,-100,4,2,6,80,0,0
134223,-100,4,2,2,80,0,0
134476,-100,4,2,6,80,0,0
134560,-100,4,2,2,80,0,0
134813,-100,4,2,6,80,0,0
134897,-100,4,2,2,80,0,0
135150,-100,4,2,6,80,0,0
135234,-100,4,2,2,80,0,0
135824,-100,4,2,6,80,0,0
135908,-100,4,2,2,80,0,0
136161,-100,4,2,6,80,0,0
136245,-100,4,2,2,80,0,0
136498,-100,4,2,6,80,0,0
136582,-100,4,2,2,80,0,0
136835,-100,4,2,6,80,0,0
136919,-100,4,2,2,80,0,0
137172,-100,4,2,6,80,0,0
137256,-100,4,2,2,80,0,0
137509,-100,4,2,6,80,0,0
137593,-100,4,2,2,80,0,0
138183,-100,4,2,3,80,0,0
139363,-100,4,2,2,80,0,0
139869,-100,4,2,3,80,0,0
140712,-100,4,2,12,80,0,0
140796,-100,4,2,2,80,0,0
141217,-100,4,2,3,80,0,0
142060,-100,4,2,2,80,0,0
142566,-100,4,2,6,80,0,0
142650,-100,4,2,2,80,0,0
142903,-100,4,2,6,80,0,0
142987,-100,4,2,2,80,0,0
143240,-100,4,2,6,80,0,0
143324,-100,4,2,2,80,0,0
143914,-100,4,2,6,80,0,0
143998,-100,4,2,2,80,0,0
144251,-100,4,2,6,80,0,0
144335,-100,4,2,2,80,0,0
144588,-100,4,2,6,80,0,0
144672,-100,4,2,2,80,0,0
144926,-100,4,2,6,80,0,0
145010,-100,4,2,2,80,0,0
145263,-100,4,2,6,80,0,0
145347,-100,4,2,2,80,0,0
145600,-100,4,2,6,80,0,0
145684,-100,4,2,2,80,0,0
145937,-100,4,2,6,80,0,0
146021,-100,4,2,2,80,0,0
146611,-100,4,2,6,80,0,0
146695,-100,4,2,2,80,0,0
146948,-100,4,2,6,80,0,0
147032,-100,4,2,2,80,0,0
147285,-100,4,2,6,80,0,0
147369,-100,4,2,2,80,0,0
147622,-100,4,2,6,80,0,0
147706,-100,4,2,2,80,0,0
147959,-100,4,2,6,80,0,0
148043,-100,4,2,2,80,0,0
148296,-100,4,2,6,80,0,0
148380,-100,4,2,2,80,0,0
148634,-100,4,2,6,80,0,0
148718,-100,4,2,2,80,0,0
148970,-100,4,2,3,80,0,0
149308,-100,4,2,6,80,0,0
149392,-100,4,2,2,80,0,0
149645,-100,4,2,6,80,0,0
149729,-100,4,2,2,80,0,0
150151,-100,4,2,12,80,0,0
150235,-100,4,2,2,80,0,0
150993,-100,4,2,3,80,0,0
151667,-100,4,2,2,75,0,0
152004,-100,4,2,3,75,0,0
152341,-100,4,2,10,75,0,0
152425,-100,4,2,2,75,0,0
152678,-100,4,2,10,75,0,0
152762,-100,4,2,2,75,0,0
153015,-100,4,2,10,75,0,0
153099,-100,4,2,2,75,0,0
153352,-100,4,2,10,75,0,0
153436,-100,4,2,2,75,0,0
153689,-100,4,2,10,75,0,0
153773,-100,4,2,2,75,0,0
154026,-100,4,2,10,75,0,0
154110,-100,4,2,2,75,0,0
154363,-100,4,2,10,75,0,0
154447,-100,4,2,2,75,0,0
154700,-100,4,2,10,75,0,0
154784,-100,4,2,2,75,0,0
155037,-100,4,2,10,75,0,0
155121,-100,4,2,2,75,0,0
155375,-100,4,2,10,75,0,0
155459,-100,4,2,2,75,0,0
155712,-100,4,2,11,75,0,0
155796,-100,4,2,2,75,0,0
156049,-100,4,2,10,75,0,0
156133,-100,4,2,2,75,0,0
156386,-100,4,2,11,75,0,0
156470,-100,4,2,2,75,0,0
156723,-100,4,2,10,75,0,0
156807,-100,4,2,2,75,0,0
157060,-100,4,2,3,75,0,0
157397,-100,4,2,10,75,0,0
157481,-100,4,2,2,75,0,0
157734,-100,4,2,11,75,0,0
157818,-100,4,2,2,75,0,0
158071,-100,4,2,10,75,0,0
158155,-100,4,2,2,75,0,0
158408,-100,4,2,10,75,0,0
158492,-100,4,2,2,75,0,0
158745,-100,4,2,10,75,0,0
158829,-100,4,2,2,75,0,0
159082,-100,4,2,11,75,0,0
159166,-100,4,2,2,75,0,0
159420,-100,4,2,10,75,0,0
159504,-100,4,2,2,75,0,0
159757,-100,4,2,3,75,0,0
161442,-100,4,2,5,75,0,0
162453,-100,4,2,2,75,0,0
162790,-100,4,2,3,75,0,0
163127,-100,4,2,10,75,0,0
163211,-100,4,2,2,75,0,0
163464,-100,4,2,10,75,0,0
163548,-100,4,2,2,75,0,0
163802,-100,4,2,10,75,0,0
163886,-100,4,2,2,75,0,0
164139,-100,4,2,10,75,0,0
164223,-100,4,2,2,75,0,0
164476,-100,4,2,10,75,0,0
164560,-100,4,2,2,75,0,0
164813,-100,4,2,10,75,0,0
164897,-100,4,2,2,75,0,0
165150,-100,4,2,10,75,0,0
165234,-100,4,2,2,75,0,0
165487,-100,4,2,10,75,0,0
165571,-100,4,2,2,75,0,0
165824,-100,4,2,10,75,0,0
165908,-100,4,2,2,75,0,0
166161,-100,4,2,10,75,0,0
166245,-100,4,2,2,75,0,0
166498,-100,4,2,11,75,0,0
166582,-100,4,2,2,75,0,0
166835,-100,4,2,10,75,0,0
166919,-100,4,2,2,75,0,0
167172,-100,4,2,11,75,0,0
167256,-100,4,2,2,75,0,0
167509,-100,4,2,10,75,0,0
167593,-100,4,2,2,75,0,0
167846,-100,4,2,3,75,0,0
168184,-100,4,2,10,75,0,0
168268,-100,4,2,2,75,0,0
168521,-100,4,2,11,75,0,0
168605,-100,4,2,2,75,0,0
168858,-100,4,2,10,75,0,0
168942,-100,4,2,2,75,0,0
169195,-100,4,2,10,75,0,0
169279,-100,4,2,2,75,0,0
169532,-100,4,2,10,75,0,0
169616,-100,4,2,2,75,0,0
169869,-100,4,2,11,75,0,0
169953,-100,4,2,2,75,0,0
170206,-100,4,2,10,75,0,0
170290,-100,4,2,2,75,0,0
171049,-100,4,2,3,75,0,0
171723,-100,4,2,5,75,0,0
173240,-100,4,2,2,65,0,0
173577,-100,4,2,8,65,0,0
173661,-100,4,2,2,65,0,0
173914,-100,4,2,8,65,0,0
173998,-100,4,2,2,65,0,0
174251,-100,4,2,8,65,0,0
174335,-100,4,2,2,65,0,0
174420,-100,4,2,12,65,0,0
174504,-100,4,2,2,65,0,0
174588,-100,4,2,9,65,0,0
174672,-100,4,2,2,65,0,0
174925,-100,4,2,8,65,0,0
175009,-100,4,2,2,65,0,0
175262,-100,4,2,9,65,0,0
175346,-100,4,2,2,65,0,0
175599,-100,4,2,6,65,0,0
175683,-100,4,2,2,65,0,0
175936,-100,4,2,8,65,0,0
176020,-100,4,2,2,65,0,0
176273,-100,4,2,8,65,0,0
176357,-100,4,2,2,65,0,0
176611,-100,4,2,9,65,0,0
176695,-100,4,2,2,65,0,0
176948,-100,4,2,8,65,0,0
177032,-100,4,2,2,65,0,0
177116,-100,4,2,12,65,0,0
177200,-100,4,2,2,65,0,0
177285,-100,4,2,9,65,0,0
177369,-100,4,2,2,65,0,0
177622,-100,4,2,8,65,0,0
177706,-100,4,2,2,65,0,0
177875,-100,4,2,17,65,0,0
177959,-100,4,2,8,65,0,0
178043,-100,4,2,17,65,0,0
178127,-100,4,2,2,65,0,0
178296,-100,4,2,6,65,0,0
178380,-100,4,2,2,65,0,0
178633,-100,4,2,8,65,0,0
178717,-100,4,2,2,65,0,0
178970,-100,4,2,8,65,0,0
179054,-100,4,2,2,65,0,0
179307,-100,4,2,9,65,0,0
179391,-100,4,2,2,65,0,0
179644,-100,4,2,8,65,0,0
179728,-100,4,2,2,65,0,0
179813,-100,4,2,12,65,0,0
179897,-100,4,2,2,65,0,0
179981,-100,4,2,9,65,0,0
180065,-100,4,2,2,65,0,0
180318,-100,4,2,8,65,0,0
180402,-100,4,2,2,65,0,0
180655,-100,4,2,8,65,0,0
180739,-100,4,2,2,65,0,0
180993,-100,4,2,8,65,0,0
181077,-100,4,2,2,65,0,0
181330,-100,4,2,12,65,0,0
181414,-100,4,2,2,65,0,0
181667,-100,4,2,9,50,0,0
181751,-100,4,2,2,50,0,0
182004,-100,4,2,8,50,0,0
182088,-100,4,2,2,50,0,0
182341,-100,4,2,9,50,0,0
182425,-100,4,2,2,50,0,0
182509,-100,4,2,13,50,0,0
182593,-100,4,2,2,50,0,0

[Colours]
Combo1 : 250,180,240
Combo2 : 120,200,230
Combo3 : 255,230,130
Combo4 : 160,230,150

[HitObjects]
16,46,656,5,10,0:2:0:0:
166,98,1330,2,0,L|179:27,2,50,4|4|10,0:3|0:3|0:2,0:0:0:0:
163,137,1835,1,10,0:1:0:0:
456,345,3352,5,10,0:2:0:0:
299,310,4026,2,0,L|286:239,2,50,4|4|10,0:3|0:3|0:2,0:0:0:0:
302,349,4531,1,10,0:1:0:0:
496,45,6049,5,10,0:2:0:0:
355,121,6723,2,0,L|348:181,2,50,8|4|10,0:2|0:3|0:2,0:0:0:0:
361,71,7229,1,10,0:1:0:0:
278,24,7566,1,8,0:1:0:0:
278,24,7734,2,0,L|150:39,1,99.9999999999999,8|2,0:2|0:3,0:0:0:0:
130,48,8240,1,8,0:1:0:0:
130,48,8408,2,0,L|137:108,1,50,8|0,0:2|0:0,0:0:0:0:
135,147,8745,6,0,L|10:160,2,99.9999999999999,14|8|8,0:1|0:1|0:2,0:0:0:0:
238,136,9757,1,4,0:3:0:0:
238,136,9925,1,10,0:1:0:0:
500,368,11105,6,0,L|513:298,1,50,10|0,0:2|0:0,0:0:0:0:
493,271,11442,2,0,P|433:263|389:312,1,99.9999999999999,14|8,0:1|0:2,0:0:0:0:
375,326,11948,1,0,0:0:0:0:
288,275,12285,2,0,L|229:287,1,50,8|10,0:1|0:2,0:0:0:0:
203,320,12622,2,0,L|68:300,1,99.9999999999999,10|8,0:1|0:1,0:0:0:0:
55,294,13127,1,8,0:2:0:0:
16,201,13464,2,0,L|30:141,1,50,2|8,0:3|0:1,0:0:0:0:
42,104,13802,1,8,0:2:0:0:
113,34,14139,6,0,P|189:66|222:48,1,99.9999999999999,10|8,0:1|0:2,0:0:0:0:
244,38,14644,1,0,0:0:0:0:
299,121,14981,2,0,L|286:202,1,50,8|10,0:1|0:2,0:0:0:0:
257,208,15318,2,0,L|238:334,1,99.9999999999999,10|8,0:1|0:1,0:0:0:0:
235,356,15824,1,8,0:2:0:0:
334,342,16161,2,0,L|399:329,1,50,2|8,0:3|0:1,0:0:0:0:
432,341,16498,1,8,0:2:0:0:
492,261,16835,6,0,B|499:217|499:217|493:193|493:193|505:137,1,99.9999999999999,10|8,0:1|0:2,0:0:0:0:
510,114,17341,1,0,0:0:0:0:
428,56,17678,2,0,P|380:68|349:59,1,50,8|10,0:1|0:2,0:0:0:0:
336,43,18015,2,0,P|284:22|214:44,1,99.9999999999999,10|8,0:1|0:1,0:0:0:0:
201,57,18521,1,8,0:2:0:0:
104,32,18858,2,0,L|41:45,1,50,2|8,0:3|0:1,0:0:0:0:
6,55,19195,1,8,0:2:0:0:
72,129,19532,6,0,L|154:138,2,50,14|10|10,0:2|0:1|0:1,0:0:0:0:
27,151,20038,2,0,L|15:220,1,50,10|2,0:2|0:3,0:0:0:0:
7,249,20375,1,10,0:1:0:0:
79,317,20712,2,0,P|134:292|180:310,1,99.9999999999999,14|10,0:1|0:2,0:0:0:0:
212,328,21217,1,10,0:2:0:0:
303,286,21554,2,0,L|365:280,1,50,10|10,0:2|0:2,0:0:0:0:
382,241,21891,2,0,L|431:236,1,50,10|10,0:2|0:2,0:0:0:0:
481,246,22229,6,0,L|464:386,2,99.9999999999999,14|8|2,0:1|0:2|0:2,0:0:0:0:
504,202,23071,1,10,0:1:0:0:
420,147,23408,2,0,L|361:151,1,50,10|2,0:1|0:3,0:0:0:0:
333,184,23745,2,0,L|339:250,1,50,10|10,0:1|0:2,0:0:0:0:
309,275,24082,2,0,L|174:290,1,99.9999999999999,10|10,0:1|0:1,0:0:0:0:
160,275,24588,2,0,L|154:211,1,50,10|2,0:2|0:2,0:0:0:0:
152,175,24925,1,8,0:1:0:0:
61,132,25262,6,0,L|56:70,1,50,10|8,0:2|0:1,0:0:0:0:
97,52,25599,2,0,L|92:2,2,50,2|10|10,0:2|0:1|0:2,0:0:0:0:
142,73,26105,1,10,0:1:0:0:
238,45,26442,2,0,L|301:39,1,50,10|8,0:1|0:2,0:0:0:0:
333,60,26779,2,0,L|315:188,1,99.9999999999999,10|8,0:1|0:1,0:0:0:0:
287,197,27285,2,0,P|270:261|278:276,1,50,14|0,0:2|0:0,0:0:0:0:
290,284,27622,6,0,P|339:276|385:295,2,99.9999999999999,14|10|2,0:1|0:2|0:2,0:0:0:0:
260,323,28464,1,10,0:1:0:0:
163,351,28802,2,0,L|109:341,1,50,14|0,0:1|0:0,0:0:0:0:
64,349,29139,2,0,L|57:288,1,50,10|10,0:1|0:2,0:0:0:0:
17,270,29476,2,0,P|6:188|37:156,1,99.9999999999999,10|10,0:1|0:1,0:0:0:0:
46,141,29981,2,0,L|40:71,1,50,10|10,0:2|0:2,0:0:0:0:
34,41,30318,5,14,0:1:0:0:
127,75,30655,2,0,L|209:84,1,50,10|8,0:2|0:1,0:0:0:0:
226,70,30993,2,0,L|237:15,2,50,10|10|10,0:2|0:1|0:1,0:0:0:0:
262,103,31498,2,0,P|323:155|358:146,1,99.9999999999999,14|10,0:2|0:1,0:0:0:0:
384,139,32004,1,8,0:2:0:0:
483,125,32341,2,0,L|474:174,1,50,10|10,0:1|0:3,0:0:0:0:
440,211,32678,2,0,L|431:260,1,50,10|10,0:3|0:2,0:0:0:0:
426,310,33015,6,0,P|493:320|513:347,2,99.9999999999999,14|8|2,0:1|0:2|0:2,0:0:0:0:
335,351,34026,1,2,0:2:0:0:
247,302,34363,2,0,L|177:310,1,50,2|10,0:2|0:1,0:0:0:0:
147,316,34700,1,10,0:2:0:0:
65,257,35038,6,0,L|57:187,2,50,2|10|10,0:2|0:1|0:2,0:0:0:0:
160,226,35712,2,0,L|152:156,2,50,10|2|10,0:1|0:2|0:2,0:0:0:0:
256,201,36386,2,0,L|248:131,2,50,10|10|2,0:1|0:1|0:2,0:0:0:0:
330,267,37060,2,0,P|303:323|323:363,2,99.9999999999999,2|10|2,0:2|0:2|0:3,0:0:0:0:
376,244,37903,1,8,0:1:0:0:
376,244,38071,1,8,0:2:0:0:
420,154,38408,6,0,P|508:162|524:181,2,99.9999999999999,10|8|2,0:1|0:2|0:2,0:0:0:0:
322,128,39420,2,0,L|332:63,1,50,2|10,0:2|0:2,0:0:0:0:
289,48,39757,2,0,L|297:-16,2,50,2|10|10,0:2|0:1|0:2,0:0:0:0:
243,67,40262,1,2,0:2:0:0:
157,115,40599,1,10,0:1:0:0:
157,115,40768,2,0,L|96:105,1,50,8|2,0:2|0:2,0:0:0:0:
60,123,41105,6,0,P|46:181|67:229,1,99.9999999999999,10|10,0:1|0:2,0:0:0:0:
93,253,41611,1,2,0:2:0:0:
130,335,41948,2,0,L|194:337,1,50,10|2,0:1|0:3,0:0:0:0:
230,333,42285,2,0,P|262:359|328:354,2,99.9999999999999,10|10|10,0:2|0:1|0:1,0:0:0:0:
279,87,43802,6,0,P|328:81|371:104,1,99.9999999999999,14|8,0:1|0:2,0:0:0:0:
410,143,44307,1,2,0:2:0:0:
410,143,44476,2,0,L|391:227,1,50,2|10,0:2|0:1,0:0:0:0:
387,240,44813,1,2,0:2:0:0:
486,244,45150,2,0,L|476:307,1,50,2|10,0:2|0:1,0:0:0:0:
471,343,45487,1,10,0:2:0:0:
373,363,45824,6,0,L|310:353,1,50,2|10,0:2|0:1,0:0:0:0:
274,349,46161,1,10,0:2:0:0:
278,249,46498,2,0,L|215:239,1,50,10|10,0:1|0:1,0:0:0:0:
179,235,46835,1,10,0:2:0:0:
138,143,47172,2,0,L|75:133,1,50,2|10,0:2|0:1,0:0:0:0:
39,129,47509,1,10,0:2:0:0:
6,223,47847,2,0,L|-4:291,2,50,2|10|10,0:2|0:1|0:2,0:0:0:0:
55,225,48352,2,0,L|167:237,1,99.9999999999999,2|8,0:2|0:1,0:0:0:0:
204,237,48858,1,8,0:2:0:0:
263,156,49195,6,0,P|278:82|309:64,1,99.9999999999999,10|8,0:1|0:2,0:0:0:0:
346,62,49700,1,2,0:2:0:0:
346,62,49869,2,0,P|382:77|399:107,1,50,2|10,0:2|0:1,0:0:0:0:
412,128,50206,1,2,0:2:0:0:
454,218,50543,2,0,L|525:226,2,50,2|10|10,0:2|0:1|0:2,0:0:0:0:
418,252,51049,2,0,P|402:297|356:311,1,99.9999999999999,2|10,0:2|0:1,0:0:0:0:
310,290,51554,1,10,0:2:0:0:
225,235,51891,5,14,0:1:0:0:
134,277,52229,1,10,0:2:0:0:
45,230,52566,2,0,L|36:295,2,50,10|10|8,0:2|0:1|0:1,0:0:0:0:
25,184,53071,2,0,L|38:58,1,99.9999999999999,14|10,0:2|0:1,0:0:0:0:
43,35,53577,1,8,0:2:0:0:
132,79,53914,2,0,L|194:71,1,50,8|8,0:2|0:3,0:0:0:0:
231,65,54251,1,8,0:3:0:0:
319,111,54588,6,0,P|338:56|316:6,2,99.9999999999999,14|10|2,0:1|0:2|0:2,0:0:0:0:
248,181,55599,1,2,0:2:0:0:
248,181,55768,2,0,L|115:162,2,99.9999999999999,10|10|10,0:1|0:2|0:1,0:0:0:0:
268,278,56779,2,0,P|316:296|368:288,1,99.9999999999999,8|8,0:2|0:2,0:0:0:0:
413,289,57285,2,0,L|429:176,1,99.9999999999999,10|8,0:1|0:2,0:0:0:0:
448,85,57959,2,0,L|508:93,2,50,2|10|2,0:2|0:2|0:2,0:0:0:0:
406,57,58464,2,0,P|362:33|314:42,2,99.9999999999999,10|8|10,0:1|0:2|0:1,0:0:0:0:
352,143,59476,1,8,0:2:0:0:
352,143,59644,1,2,0:3:0:0:
261,186,59981,6,0,P|200:193|149:145,1,99.9999999999999,14|10,0:1|0:2,0:0:0:0:
81,124,60655,2,0,L|93:45,2,50,10|10|10,0:1|0:3|0:1,0:0:0:0:
74,173,61161,1,2,0:2:0:0:
9,249,61498,2,0,L|1:298,1,50,10|8,0:2|0:1,0:0:0:0:
18,345,61835,2,0,P|66:330|114:341,1,99.9999999999999,2|8,0:2|0:3,0:0:0:0:
155,371,62341,1,8,0:1:0:0:
235,311,62678,6,0,L|256:184,1,99.9999999999999,14|10,0:1|0:2,0:0:0:0:
266,164,63184,1,8,0:2:0:0:
266,164,63352,2,0,L|326:173,1,50,10|8,0:2|0:2,0:0:0:0:
362,153,63689,2,0,L|422:162,1,50,10|8,0:2|0:2,0:0:0:0:
458,142,64026,1,2,0:2:0:0:
75,15,65375,6,0,L|61:85,1,50,14|8,0:1|0:1,0:0:0:0:
87,108,65712,2,0,P|140:107|194:157,1,99.9999999999999,10|10,0:2|0:1,0:0:0:0:
205,173,66217,1,8,0:1:0:0:
205,173,66386,1,10,0:2:0:0:
134,243,66723,2,0,L|126:303,1,50,10|10,0:1|0:1,0:0:0:0:
157,332,67060,2,0,P|210:342|261:353,1,99.9999999999999,10|10,0:2|0:1,0:0:0:0:
301,333,67566,1,10,0:1:0:0:
301,333,67734,2,0,L|311:271,1,50,10|2,0:2|0:2,0:0:0:0:
350,255,68071,6,0,P|408:281|464:263,2,99.9999999999999,10|8|8,0:1|0:2|0:1,0:0:0:0:
273,199,69082,1,10,0:2:0:0:
273,199,69251,2,0,L|269:70,1,99.9999999999999,10|10,0:1|0:1,0:0:0:0:
259,50,69757,2,0,L|325:46,1,50,10|2,0:2|0:2,0:0:0:0:
359,46,70094,1,10,0:1:0:0:
458,36,70431,2,0,L|465:99,1,50,10|2,0:2|0:2,0:0:0:0:
453,134,70768,6,0,P|492:163|511:208,2,99.9999999999999,14|10|10,0:1|0:2|0:1,0:0:0:0:
408,151,71611,1,8,0:1:0:0:
408,151,71779,1,10,0:2:0:0:
322,203,72116,2,0,L|262:195,1,50,10|10,0:1|0:1,0:0:0:0:
231,167,72453,2,0,P|192:137|132:147,1,99.9999999999999,10|10,0:2|0:1,0:0:0:0:
113,181,72959,1,10,0:1:0:0:
113,181,73127,2,0,L|123:243,1,50,10|2,0:2|0:2,0:0:0:0:
107,278,73464,6,0,L|18:291,2,50,14|2|10,0:1|0:2|0:2,0:0:0:0:
142,313,73970,1,14,0:1:0:0:
226,366,74307,2,0,L|288:356,1,50,10|10,0:1|0:2,0:0:0:0:
324,350,74644,2,0,L|333:250,1,99.9999999999999,14|10,0:1|0:1,0:0:0:0:
301,212,75150,2,0,L|308:152,1,50,10|14,0:2|0:1,0:0:0:0:
314,112,75487,1,10,0:2:0:0:
271,21,75824,2,0,L|339:12,1,50,10|8,0:2|0:2,0:0:0:0:
367,31,76161,6,0,L|437:17,1,50,14|8,0:1|0:1,0:0:0:0:
458,47,76498,2,0,P|483:89|481:138,1,99.9999999999999,10|10,0:2|0:1,0:0:0:0:
451,179,77004,1,8,0:1:0:0:
451,179,77173,1,10,0:2:0:0:
473,276,77509,2,0,L|413:268,1,50,10|10,0:1|0:1,0:0:0:0:
380,243,77846,2,0,P|331:232|281:223,1,99.9999999999999,10|10,0:2|0:1,0:0:0:0:
235,228,78352,1,10,0:1:0:0:
235,228,78520,2,0,L|225:290,1,50,10|2,0:2|0:2,0:0:0:0:
184,303,78857,6,0,P|126:277|70:295,2,99.9999999999999,14|8|8,0:1|0:2|0:1,0:0:0:0:
270,364,79868,1,10,0:2:0:0:
270,364,80037,2,0,P|325:365|377:322,1,99.9999999999999,10|10,0:1|0:1,0:0:0:0:
378,294,80543,2,0,L|374:228,1,50,10|2,0:2|0:2,0:0:0:0:
373,193,80880,1,10,0:1:0:0:
471,175,81217,2,0,L|468:111,1,50,10|10,0:2|0:2,0:0:0:0:
449,78,81554,6,0,P|488:49|497:-7,2,99.9999999999999,14|10|10,0:1|0:2|0:1,0:0:0:0:
406,64,82397,1,8,0:1:0:0:
406,64,82565,1,10,0:2:0:0:
317,110,82902,2,0,L|257:102,1,50,10|10,0:1|0:1,0:0:0:0:
222,126,83240,2,0,L|172:119,1,50,10|2,0:2|0:2,0:0:0:0:
128,95,83577,2,0,P|89:124|85:172,1,99.9999999999999,10|10,0:1|0:2,0:0:0:0:
88,226,84082,1,2,0:2:0:0:
88,226,84251,6,0,L|22:241,2,50,14|8|8,0:2|0:1|0:2,0:0:0:0:
132,249,84757,1,10,0:1:0:0:
198,323,85094,2,0,L|261:308,1,50,8|10,0:1|0:1,0:0:0:0:
294,326,85431,1,10,0:2:0:0:
511,44,86948,6,0,L|411:31,1,99.9999999999999,14|10,0:1|0:2,0:0:0:0:
364,45,87453,2,0,P|367:94|378:115,1,50,14|2,0:1|0:2,0:0:0:0:
385,140,87790,1,10,0:1:0:0:
464,199,88127,2,0,L|468:258,1,50,10|2,0:1|0:3,0:0:0:0:
429,282,88464,2,0,L|435:348,1,50,10|8,0:1|0:2,0:0:0:0:
391,358,88801,2,0,L|256:373,1,99.9999999999999,10|10,0:1|0:1,0:0:0:0:
244,351,89307,2,0,L|238:287,1,50,10|10,0:2|0:2,0:0:0:0:
232,251,89644,1,12,0:1:0:0:
311,190,89981,6,0,L|306:128,1,50,10|8,0:2|0:1,0:0:0:0:
272,104,90318,2,0,L|222:109,2,50,2|10|10,0:2|0:1|0:2,0:0:0:0:
293,58,90824,1,10,0:1:0:0:
382,13,91161,2,0,L|445:7,1,50,10|12,0:1|0:2,0:0:0:0:
472,36,91498,2,0,L|468:164,1,99.9999999999999,10|10,0:2|0:2,0:0:0:0:
440,177,92004,2,0,P|423:241|431:256,1,50,10|10,0:2|0:3,0:0:0:0:
428,270,92341,6,0,P|476:280|512:314,2,99.9999999999999,14|10|2,0:1|0:2|0:2,0:0:0:0:
389,301,93183,1,10,0:1:0:0:
303,248,93521,2,0,L|298:194,1,50,14|0,0:1|0:0,0:0:0:0:
260,164,93858,2,0,L|253:103,1,50,10|8,0:1|0:2,0:0:0:0:
228,71,94195,2,0,P|180:57|135:75,1,99.9999999999999,10|10,0:1|0:1,0:0:0:0:
98,108,94700,2,0,L|92:178,1,50,10|10,0:2|0:2,0:0:0:0:
96,207,95037,5,14,0:1:0:0:
42,291,95374,2,0,L|124:300,1,50,14|10,0:2|0:1,0:0:0:0:
137,318,95712,2,0,L|126:373,2,50,14|10|10,0:2|0:1|0:1,0:0:0:0:
186,312,96217,1,10,0:2:0:0:
274,264,96554,2,0,L|331:259,2,50,10|10|10,0:2|0:2|0:2,0:0:0:0:
240,226,97060,2,0,L|231:177,1,50,10|10,0:2|0:2,0:0:0:0:
256,133,97397,2,0,L|247:84,1,50,10|10,0:2|0:1,0:0:0:0:
276,42,97734,6,0,P|350:40|381:73,2,99.9999999999999,14|8|10,0:2|0:2|0:2,0:0:0:0:
180,72,98745,1,10,0:2:0:0:
93,22,99082,2,0,L|81:88,1,50,10|2,0:2|0:2,0:0:0:0:
74,120,99420,1,10,0:2:0:0:
52,217,99757,6,0,L|118:205,1,50,10|10,0:2|0:1,0:0:0:0:
150,198,100095,1,10,0:2:0:0:
180,292,100431,2,0,L|246:280,1,50,10|10,0:2|0:1,0:0:0:0:
278,273,100769,1,10,0:2:0:0:
351,340,101105,2,0,L|417:328,1,50,10|10,0:2|0:1,0:0:0:0:
449,321,101443,1,10,0:2:0:0:
501,236,101779,1,10,0:2:0:0:
501,236,101948,2,0,L|488:128,1,99.9999999999999,2|10,0:2|0:1,0:0:0:0:
476,88,102453,1,8,0:2:0:0:
393,144,102790,1,8,0:2:0:0:
302,100,103127,6,0,L|287:248,1,99.9999999999999,14|8,0:2|0:2,0:0:0:0:
289,249,103633,1,10,0:1:0:0:
289,249,103802,2,0,L|218:246,1,50,10|8,0:2|0:1,0:0:0:0:
189,243,104139,1,10,0:2:0:0:
90,225,104476,2,0,L|83:307,2,50,10|2|8,0:2|0:2|0:2,0:0:0:0:
55,189,104981,2,0,P|37:104|71:73,1,99.9999999999999,10|10,0:1|0:1,0:0:0:0:
72,60,105487,1,8,0:2:0:0:
164,98,105824,6,0,L|157:147,2,50,14|2|10,0:2|0:2|0:2,0:0:0:0:
174,48,106330,1,10,0:2:0:0:
273,61,106667,2,0,L|279:-5,2,50,10|10|10,0:2|0:2|0:2,0:0:0:0:
266,110,107172,1,12,0:1:0:0:
365,100,107509,2,0,L|421:94,1,50,8|10,0:1|0:2,0:0:0:0:
455,124,107847,2,0,L|462:192,1,50,8|8,0:2|0:1,0:0:0:0:
449,222,108184,2,0,L|399:227,1,50,8|8,0:2|0:2,0:0:0:0:
349,228,108521,5,10,0:1:0:0:
177,330,109195,2,0,P|140:294|80:297,1,99.9999999999999,10|10,0:3|0:2,0:0:0:0:
46,309,109700,2,0,L|34:193,1,99.9999999999999,12|10,0:1|0:1,0:0:0:0:
28,159,110206,1,10,0:2:0:0:
62,65,110543,6,0,L|125:75,1,50,2|10,0:2|0:1,0:0:0:0:
161,79,110880,1,10,0:2:0:0:
157,179,111217,2,0,L|220:189,1,50,10|2,0:1|0:2,0:0:0:0:
256,193,111554,1,10,0:2:0:0:
297,285,111891,2,0,L|360:295,1,50,10|10,0:1|0:1,0:0:0:0:
396,299,112229,2,0,L|406:224,1,50,10|8,0:2|0:1,0:0:0:0:
435,211,112566,6,0,L|510:221,2,50,2|10|10,0:2|0:1|0:2,0:0:0:0:
368,136,113240,2,0,L|378:67,1,50,2|8,0:3|0:1,0:0:0:0:
383,37,113577,1,8,0:2:0:0:
292,80,113914,6,0,P|218:65|200:34,1,99.9999999999999,10|10,0:1|0:2,0:0:0:0:
166,28,114419,1,2,0:2:0:0:
166,28,114588,2,0,P|130:43|113:73,1,50,10|8,0:1|0:1,0:0:0:0:
100,94,114925,1,10,0:2:0:0:
48,179,115262,2,0,L|-23:171,2,50,2|10|10,0:2|0:1|0:2,0:0:0:0:
82,215,115768,2,0,P|125:235|167:212,1,99.9999999999999,2|10,0:2|0:1,0:0:0:0:
203,177,116273,1,8,0:2:0:0:
294,216,116610,5,14,0:1:0:0:
365,149,116948,1,10,0:2:0:0:
450,200,117285,2,0,L|436:306,1,99.9999999999999,10|10,0:2|0:1,0:0:0:0:
393,324,117790,2,0,P|345:311|299:329,1,99.9999999999999,10|10,0:2|0:1,0:0:0:0:
264,365,118296,1,8,0:2:0:0:
173,323,118633,2,0,P|78:333|33:291,1,150,8|8,0:2|0:2,0:0:0:0:
17,256,119307,5,14,0:1:0:0:
38,47,127397,6,0,L|165:26,1,99.9999999999999,14|10,0:2|0:2,0:0:0:0:
175,71,127903,1,10,0:2:0:0:
175,71,128071,2,0,L|166:131,1,50,10|8,0:2|0:1,0:0:0:0:
155,169,128408,1,10,0:2:0:0:
253,151,128745,1,10,0:2:0:0:
333,209,129082,1,10,0:2:0:0:
425,170,129420,2,0,L|484:177,1,50,10|8,0:2|0:2,0:0:0:0:
506,214,129757,2,0,L|498:281,1,50,10|8,0:2|0:2,0:0:0:0:
486,311,130094,6,0,P|442:288|393:294,1,99.9999999999999,14|14,0:1|0:2,0:0:0:0:
327,370,130768,2,0,L|277:360,1,50,10|8,0:1|0:1,0:0:0:0:
228,353,131105,1,10,0:2:0:0:
175,267,131442,2,0,L|167:207,1,50,10|10,0:1|0:1,0:0:0:0:
143,173,131779,2,0,P|94:183|44:192,1,99.9999999999999,10|10,0:2|0:1,0:0:0:0:
13,161,132285,1,10,0:1:0:0:
13,161,132453,2,0,L|23:99,1,50,10|2,0:2|0:2,0:0:0:0:
66,91,132790,6,0,P|62:41|86:-1,2,99.9999999999999,10|8|8,0:1|0:2|0:1,0:0:0:0:
166,66,133801,1,10,0:2:0:0:
166,66,133970,2,0,L|295:62,1,99.9999999999999,10|10,0:1|0:1,0:0:0:0:
303,96,134476,2,0,L|293:162,1,50,10|0,0:2|0:0,0:0:0:0:
287,194,134813,1,10,0:1:0:0:
355,267,135150,2,0,L|418:260,1,50,10|2,0:2|0:2,0:0:0:0:
445,232,135487,6,0,P|432:184|459:139,2,99.9999999999999,14|10|10,0:1|0:2|0:1,0:0:0:0:
496,251,136330,1,8,0:1:0:0:
496,251,136498,1,10,0:2:0:0:
462,345,136835,2,0,L|405:351,1,50,10|10,0:1|0:1,0:0:0:0:
366,330,137172,2,0,P|327:360|267:350,1,99.9999999999999,10|10,0:2|0:1,0:0:0:0:
244,327,137678,1,10,0:1:0:0:
244,327,137846,2,0,L|254:265,1,50,14|2,0:2|0:2,0:0:0:0:
230,232,138183,6,0,L|141:245,2,50,14|10|10,0:2|0:1|0:2,0:0:0:0:
261,192,138689,1,14,0:1:0:0:
354,228,139026,2,0,L|416:218,1,50,10|10,0:1|0:2,0:0:0:0:
453,221,139363,2,0,L|462:121,1,99.9999999999999,14|10,0:1|0:1,0:0:0:0:
470,71,139869,1,14,0:2:0:0:
375,103,140206,2,0,L|316:94,1,50,8|8,0:2|0:2,0:0:0:0:
299,52,140543,2,0,L|231:43,1,50,8|8,0:2|0:1,0:0:0:0:
206,70,140880,5,2,0:2:0:0:
126,9,141217,2,0,P|101:51|103:100,1,99.9999999999999,14|10,0:2|0:2,0:0:0:0:
134,140,141723,2,0,P|130:161|124:189,1,50,8|10,0:1|0:2,0:0:0:0:
143,234,142060,2,0,P|192:228|234:253,1,99.9999999999999,12|10,0:1|0:1,0:0:0:0:
260,296,142566,1,10,0:2:0:0:
346,245,142903,2,0,L|356:183,1,50,10|10,0:1|0:1,0:0:0:0:
328,154,143239,2,0,L|278:146,1,50,10|2,0:2|0:2,0:0:0:0:
240,113,143576,6,0,P|214:55|232:-1,2,99.9999999999999,14|8|8,0:1|0:2|0:1,0:0:0:0:
159,170,144587,1,10,0:2:0:0:
159,170,144756,2,0,P|104:169|52:212,1,99.9999999999999,10|10,0:1|0:1,0:0:0:0:
41,235,145262,2,0,L|49:300,1,50,10|2,0:2|0:2,0:0:0:0:
57,333,145599,1,10,0:1:0:0:
154,311,145936,2,0,L|220:297,1,50,10|2,0:2|0:2,0:0:0:0:
245,274,146273,6,0,P|245:225|285:185,2,99.9999999999999,14|10|10,0:1|0:2|0:1,0:0:0:0:
285,312,147116,1,8,0:1:0:0:
285,312,147284,1,10,0:2:0:0:
366,254,147621,2,0,L|426:246,1,50,10|10,0:1|0:1,0:0:0:0:
464,234,147959,2,0,L|471:184,1,50,10|2,0:2|0:2,0:0:0:0:
470,134,148296,2,0,P|441:95|393:91,1,99.9999999999999,8|10,0:1|0:2,0:0:0:0:
339,94,148801,1,10,0:2:0:0:
339,94,148970,6,0,L|324:28,2,50,14|10|10,0:1|0:1|0:2,0:0:0:0:
242,119,149644,2,0,L|179:104,1,50,8|8,0:2|0:1,0:0:0:0:
149,95,149981,1,10,0:2:0:0:
149,95,150150,1,8,0:1:0:0:
58,52,150487,2,0,L|63:3,2,50,10|14|10,0:1|0:2|0:1,0:0:0:0:
18,82,150993,2,0,L|10:140,1,50,14|8,0:2|0:2,0:0:0:0:
38,174,151330,2,0,L|30:237,1,50,10|10,0:2|0:2,0:0:0:0:
40,273,151667,5,14,0:1:0:0:
136,247,152004,1,12,0:2:0:0:
217,305,152341,2,0,P|295:308|331:282,1,99.9999999999999,10|10,0:1|0:2,0:0:0:0:
334,253,152847,2,0,P|346:202|393:178,1,99.9999999999999,10|10,0:1|0:1,0:0:0:0:
433,170,153352,2,0,L|439:99,1,50,10|10,0:2|0:1,0:0:0:0:
443,71,153689,1,10,0:1:0:0:
347,99,154026,1,10,0:2:0:0:
260,48,154363,6,0,L|266:-20,2,50,8|10|10,0:1|0:1|0:2,0:0:0:0:
222,81,154869,2,0,P|202:144|224:191,1,99.9999999999999,10|10,0:1|0:1,0:0:0:0:
242,215,155375,1,10,0:2:0:0:
242,215,155543,1,10,0:1:0:0:
340,192,155880,2,0,L|352:144,2,50,10|10|10,0:1|0:2|0:1,0:0:0:0:
373,231,156386,2,0,L|353:335,1,99.9999999999999,2|10,0:2|0:2,0:0:0:0:
259,358,157060,6,0,P|211:329|156:339,1,99.9999999999999,14|10,0:1|0:2,0:0:0:0:
120,344,157566,1,10,0:1:0:0:
120,344,157734,2,0,L|102:273,1,50,2|10,0:2|0:1,0:0:0:0:
92,247,158071,1,10,0:2:0:0:
147,164,158408,6,0,P|215:191|238:184,1,99.9999999999999,2|10,0:3|0:2,0:0:0:0:
287,168,158914,1,10,0:1:0:0:
287,168,159082,2,0,L|357:185,1,50,2|10,0:2|0:1,0:0:0:0:
384,190,159420,1,10,0:2:0:0:
448,119,159757,6,0,B|465:70|465:70|433:21,1,99.9999999999999,14|8,0:1|0:2,0:0:0:0:
394,8,160262,2,0,P|320:28|275:39,1,99.9999999999999,14|10,0:1|0:1,0:0:0:0:
245,43,160768,1,10,0:2:0:0:
245,43,160936,2,0,P|190:10|135:39,1,99.9999999999999,14|10,0:1|0:1,0:0:0:0:
117,46,161442,1,14,0:2:0:0:
18,42,161779,2,0,L|9:108,1,50,14|8,0:2|0:1,0:0:0:0:
47,128,162116,2,0,L|41:178,1,50,14|10,0:2|0:2,0:0:0:0:
72,217,162453,6,0,P|120:210|171:200,1,99.9999999999999,14|12,0:1|0:2,0:0:0:0:
220,188,162959,1,10,0:1:0:0:
267,277,163296,1,8,0:1:0:0:
267,277,163464,2,0,P|315:270|366:260,1,99.9999999999999,10|2,0:2|0:3,0:0:0:0:
415,248,163970,1,10,0:1:0:0:
490,182,164307,1,0,0:0:0:0:
490,182,164476,2,0,P|441:142|382:155,1,99.9999999999999,10|8,0:1|0:2,0:0:0:0:
358,144,164981,6,0,L|345:37,1,99.9999999999999,2|8,0:2|0:1,0:0:0:0:
308,13,165487,2,0,L|200:30,1,99.9999999999999,10|2,0:2|0:3,0:0:0:0:
161,39,165993,1,10,0:1:0:0:
199,127,166330,5,8,0:1:0:0:
199,127,166498,2,0,L|188:214,1,50,2|8,0:2|0:1,0:0:0:0:
220,220,166835,2,0,L|214:270,1,50,10|8,0:2|0:1,0:0:0:0:
178,305,167172,2,0,P|110:324|72:307,1,99.9999999999999,2|8,0:2|0:2,0:0:0:0:
26,234,167847,6,0,L|13:114,2,99.9999999999999,14|10|2,0:1|0:2|0:2,0:0:0:0:
117,197,168858,1,8,0:2:0:0:
117,197,169026,2,0,B|228:183,1,99.9999999999999,10|10,0:1|0:1,0:0:0:0:
252,148,169532,2,0,L|322:138,1,50,10|10,0:2|0:1,0:0:0:0:
352,140,169869,1,2,0:2:0:0:
413,220,170206,1,8,0:2:0:0:
483,148,170543,6,0,L|491:99,2,50,14|10|10,0:1|0:1|0:2,0:0:0:0:
508,192,171049,2,0,P|496:271|481:285,1,99.9999999999999,14|10,0:1|0:1,0:0:0:0:
481,328,171554,1,10,0:2:0:0:
481,328,171723,2,0,L|369:341,1,99.9999999999999,14|10,0:2|0:1,0:0:0:0:
333,349,172229,1,10,0:2:0:0:
267,275,172566,2,0,L|202:281,1,50,10|10,0:2|0:2,0:0:0:0:
185,318,172903,2,0,L|136:323,1,50,10|10,0:2|0:2,0:0:0:0:
91,300,173240,6,0,P|81:367|54:387,2,99.9999999999999,14|8|10,0:1|0:2|0:1,0:0:0:0:
23,228,174251,1,10,0:2:0:0:
93,156,174588,2,0,L|163:148,1,50,2|10,0:2|0:1,0:0:0:0:
193,142,174925,1,10,0:2:0:0:
270,78,175263,6,0,L|276:29,2,50,2|10|10,0:2|0:1|0:2,0:0:0:0:
367,105,175937,2,0,L|373:56,2,50,10|2|10,0:1|0:2|0:2,0:0:0:0:
463,136,176611,2,0,L|469:87,2,50,2|10|10,0:2|0:1|0:2,0:0:0:0:
464,236,177285,2,0,P|491:292|471:332,2,99.9999999999999,2|10|8,0:2|0:2|0:1,0:0:0:0:
373,197,178296,1,8,0:2:0:0:
307,272,178633,6,0,P|250:309|189:289,1,99.9999999999999,10|8,0:1|0:2,0:0:0:0:
144,242,179307,1,2,0:2:0:0:
59,294,179644,1,10,0:2:0:0:
4,211,179981,2,0,L|26:80,1,99.9999999999999,2|10,0:2|0:2,0:0:0:0:
58,79,180487,1,10,0:1:0:0:
58,79,180655,2,0,L|110:89,1,50,8|10,0:2|0:1,0:0:0:0:
150,62,180993,2,0,L|198:72,1,50,10|10,0:1|0:2,0:0:0:0:
247,87,181330,5,10,0:1:0:0:
