osu file format v14

[General]
AudioFilename: audio.mp3
AudioLeadIn: 0
PreviewTime: 65290
Countdown: 1
SampleSet: Soft
StackLeniency: 0.4
Mode: 0
LetterboxInBreaks: 0
WidescreenStoryboard: 1

[Editor]
Bookmarks: 656,11442,22229,33015,43802,54588,65375,86948,97734,108521,119307,130094,151667,162453,173240,181330
DistanceSpacing: 1.2
BeatDivisor: 4
GridSize: 32
TimelineZoom: 1.968

[Metadata]
Title:Shiranai Wakusei
TitleUnicode:知らない惑星
Artist:Nakigoto
ArtistUnicode:なきごと
Creator:Amateurre
Version:Insane
Source:
Tags:midorijeon -Rei Kyuuchie MRL Hoshimiya Toto Japanese pop j-pop jpop rock n' Roll jrock j-rock Female vocalist band 黄昏 STARSHIP 黄昏STARSHIP Tasogare unknown planet baby 水上えみり 岡田 安未 Mizukami Emiri Emily Okada Ami
BeatmapID:3842356
BeatmapSetID:1865974

[Difficulty]
HPDrainRate:4.5
CircleSize:3.8
OverallDifficulty:7.5
ApproachRate:8.6
SliderMultiplier:1.8
SliderTickRate:1

[Events]
//Background and Video events
0,0,"97732781_p0.jpg",0,0
//Break Periods
2,119507,126738
//Storyboard Layer 0 (Background)
//Storyboard Layer 1 (Fail)
//Storyboard Layer 2 (Pass)
//Storyboard Layer 3 (Foreground)
Sprite,Foreground,Centre,"sb/Lyrics/860/_005.png",140,310 S,0,11442,,0.4 F,0,11442,14138,1 C,0,11442,,222,222,222
//Storyboard Sound Samples

[TimingPoints]
656,337.078651685393,4,2,12,60,1,0
740,-100,4,2,2,60,0,0
1330,-100,4,2,1,60,0,0
1835,-100,4,2,12,60,0,0
1919,-100,4,2,2,60,0,0
3352,-100,4,2,12,60,0,0
3436,-100,4,2,2,60,0,0
4026,-100,4,2,3,60,0,0
4532,-100,4,2,12,60,0,0
4616,-100,4,2,2,60,0,0
6049,-100,4,2,12,60,0,0
6133,-100,4,2,2,60,0,0
6807,-100,4,2,1,60,0,0
6891,-100,4,2,2,60,0,0
7229,-100,4,2,12,60,0,0
7313,-100,4,2,2,60,0,0
7734,-111.111111111111,4,2,8,60,0,0
7818,-111.111111111111,4,2,2,60,0,0
8071,-111.111111111111,4,2,8,60,0,0
8155,-111.111111111111,4,2,2,60,0,0
8408,-111.111111111111,4,2,6,60,0,0
8492,-111.111111111111,4,2,2,60,0,0
9167,-111.111111111111,4,2,3,60,0,0
9251,-111.111111111111,4,2,1,60,0,0
9757,-111.111111111111,4,2,3,60,0,0
9925,-111.111111111111,4,2,12,60,0,0
10009,-111.111111111111,4,2,2,60,0,0
10262,-166.666666666666,4,2,2,50,0,0
11442,-111.111111111111,4,2,2,65,0,0
11779,-111.111111111111,4,2,8,65,0,0
11863,-111.111111111111,4,2,2,65,0,0
12116,-111.111111111111,4,2,8,65,0,0
12200,-111.111111111111,4,2,2,65,0,0
12453,-111.111111111111,4,2,8,65,0,0
12537,-111.111111111111,4,2,2,65,0,0
12622,-111.111111111111,4,2,12,65,0,0
12706,-111.111111111111,4,2,2,65,0,0
13127,-111.111111111111,4,2,8,65,0,0
13211,-111.111111111111,4,2,2,65,0,0
13380,-111.111111111111,4,2,17,65,0,0
13464,-111.111111111111,4,2,8,65,0,0
13548,-111.111111111111,4,2,17,65,0,0
13802,-111.111111111111,4,2,8,65,0,0
13886,-111.111111111111,4,2,2,65,0,0
14139,-111.111111111111,4,2,6,65,0,0
14223,-111.111111111111,4,2,2,65,0,0
14476,-111.111111111111,4,2,8,65,0,0
14560,-111.111111111111,4,2,2,65,0,0
14813,-111.111111111111,4,2,8,65,0,0
14897,-111.111111111111,4,2,2,65,0,0
15150,-111.111111111111,4,2,8,65,0,0
15234,-111.111111111111,4,2,2,65,0,0
15318,-111.111111111111,4,2,12,65,0,0
15402,-111.111111111111,4,2,2,65,0,0
15824,-111.111111111111,4,2,8,65,0,0
15908,-111.111111111111,4,2,2,65,0,0
16077,-111.111111111111,4,2,17,65,0,0
16161,-111.111111111111,4,2,8,65,0,0
16245,-111.111111111111,4,2,17,65,0,0
16498,-111.111111111111,4,2,8,65,0,0
16582,-111.111111111111,4,2,2,65,0,0
16835,-111.111111111111,4,2,6,65,0,0
16919,-111.111111111111,4,2,2,65,0,0
17172,-111.111111111111,4,2,8,65,0,0
17256,-111.111111111111,4,2,2,65,0,0
17509,-111.111111111111,4,2,8,65,0,0
17593,-111.111111111111,4,2,2,65,0,0
17847,-111.111111111111,4,2,8,65,0,0
17931,-111.111111111111,4,2,2,65,0,0
18015,-111.111111111111,4,2,12,65,0,0
18099,-111.111111111111,4,2,2,65,0,0
18521,-111.111111111111,4,2,8,65,0,0
18605,-111.111111111111,4,2,2,65,0,0
18773,-111.111111111111,4,2,17,65,0,0
18858,-111.111111111111,4,2,8,65,0,0
18942,-111.111111111111,4,2,17,65,0,0
19195,-111.111111111111,4,2,6,65,0,0
19279,-111.111111111111,4,2,2,65,0,0
19869,-111.111111111111,4,2,8,65,0,0
19953,-111.111111111111,4,2,2,65,0,0
20206,-111.111111111111,4,2,8,65,0,0
20290,-111.111111111111,4,2,2,65,0,0
22229,-111.111111111111,4,2,2,75,0,0
22566,-111.111111111111,4,2,10,75,0,0
22650,-111.111111111111,4,2,2,75,0,0
22903,-111.111111111111,4,2,11,75,0,0
22987,-111.111111111111,4,2,2,75,0,0
23240,-111.111111111111,4,2,10,75,0,0
23324,-111.111111111111,4,2,2,75,0,0
23577,-111.111111111111,4,2,10,75,0,0
23661,-111.111111111111,4,2,2,75,0,0
23914,-111.111111111111,4,2,10,75,0,0
23998,-111.111111111111,4,2,2,75,0,0
24251,-111.111111111111,4,2,10,75,0,0
24335,-111.111111111111,4,2,2,75,0,0
24588,-111.111111111111,4,2,10,75,0,0
24672,-111.111111111111,4,2,2,75,0,0
24925,-111.111111111111,4,2,10,75,0,0
25009,-111.111111111111,4,2,2,75,0,0
25262,-111.111111111111,4,2,10,75,0,0
25346,-111.111111111111,4,2,2,75,0,0
25599,-111.111111111111,4,2,11,75,0,0
25683,-111.111111111111,4,2,2,75,0,0
25936,-111.111111111111,4,2,10,75,0,0
26020,-111.111111111111,4,2,2,75,0,0
26273,-111.111111111111,4,2,10,75,0,0
26357,-111.111111111111,4,2,2,75,0,0
26611,-111.111111111111,4,2,10,75,0,0
26695,-111.111111111111,4,2,2,75,0,0
26948,-111.111111111111,4,2,10,75,0,0
27032,-111.111111111111,4,2,2,75,0,0
27285,-111.111111111111,4,2,3,75,0,0
27622,-111.111111111111,4,2,2,75,0,0
28127,-111.111111111111,4,2,3,75,0,0
28802,-111.111111111111,4,2,2,75,0,0
29307,-111.111111111111,4,2,10,75,0,0
29391,-111.111111111111,4,2,2,75,0,0
29644,-111.111111111111,4,2,10,75,0,0
29728,-111.111111111111,4,2,2,75,0,0
29981,-111.111111111111,4,2,10,75,0,0
30065,-111.111111111111,4,2,2,75,0,0
30318,-111.111111111111,4,2,3,75,0,0
30655,-111.111111111111,4,2,10,75,0,0
30739,-111.111111111111,4,2,2,75,0,0
30993,-111.111111111111,4,2,10,75,0,0
31077,-111.111111111111,4,2,2,75,0,0
31330,-111.111111111111,4,2,10,75,0,0
31414,-111.111111111111,4,2,2,75,0,0
31498,-111.111111111111,4,2,3,75,0,0
32509,-111.111111111111,4,2,1,75,0,0
32678,-111.111111111111,4,2,3,75,0,0
33015,-125,4,2,2,70,0,0
33352,-125,4,2,8,70,0,0
33436,-125,4,2,2,70,0,0
33689,-125,4,2,9,70,0,0
33773,-125,4,2,2,70,0,0
34026,-125,4,2,9,70,0,0
34110,-125,4,2,2,70,0,0
34363,-125,4,2,9,70,0,0
34447,-125,4,2,2,70,0,0
34700,-125,4,2,8,70,0,0
34784,-125,4,2,2,70,0,0
35038,-125,4,2,9,70,0,0
35122,-125,4,2,2,70,0,0
35375,-125,4,2,8,70,0,0
35459,-125,4,2,2,70,0,0
35712,-125,4,2,8,70,0,0
35796,-125,4,2,2,70,0,0
36049,-125,4,2,8,70,0,0
36133,-125,4,2,2,70,0,0
36386,-125,4,2,8,70,0,0
36470,-125,4,2,2,70,0,0
36723,-125,4,2,9,70,0,0
36807,-125,4,2,2,70,0,0
37060,-125,4,2,9,70,0,0
37144,-125,4,2,2,70,0,0
37397,-125,4,2,8,70,0,0
37481,-125,4,2,2,70,0,0
37734,-125,4,2,8,70,0,0
37818,-125,4,2,2,70,0,0
38071,-125,4,2,6,70,0,0
38155,-125,4,2,2,70,0,0
38408,-125,4,2,8,70,0,0
38492,-125,4,2,2,70,0,0
38745,-125,4,2,8,70,0,0
38829,-125,4,2,2,70,0,0
39082,-125,4,2,9,70,0,0
39166,-125,4,2,2,70,0,0
39420,-125,4,2,9,70,0,0
39504,-125,4,2,2,70,0,0
39757,-125,4,2,9,70,0,0
39841,-125,4,2,2,70,0,0
40094,-125,4,2,8,70,0,0
40178,-125,4,2,2,70,0,0
40431,-125,4,2,8,70,0,0
40515,-125,4,2,2,70,0,0
40768,-125,4,2,6,70,0,0
40852,-125,4,2,2,70,0,0
41105,-125,4,2,8,70,0,0
41189,-125,4,2,2,70,0,0
41442,-125,4,2,8,70,0,0
41526,-125,4,2,2,70,0,0
41779,-125,4,2,8,70,0,0
41863,-125,4,2,2,70,0,0
42116,-125,4,2,8,70,0,0
42200,-125,4,2,2,70,0,0
42453,-125,4,2,8,70,0,0
42537,-125,4,2,2,70,0,0
42622,-125,4,2,12,70,0,0
42706,-125,4,2,2,70,0,0
42959,-125,4,2,12,70,0,0
43043,-125,4,2,2,70,0,0
43296,-125,4,2,10,70,0,0
43380,-125,4,2,2,70,0,0
43464,-125,4,2,10,70,0,0
43548,-125,4,2,2,70,0,0
44139,-125,4,2,8,70,0,0
44223,-125,4,2,2,70,0,0
44476,-125,4,2,9,70,0,0
44560,-125,4,2,2,70,0,0
44813,-125,4,2,9,70,0,0
44897,-125,4,2,2,70,0,0
45150,-125,4,2,9,70,0,0
45234,-125,4,2,2,70,0,0
45487,-125,4,2,8,70,0,0
45571,-125,4,2,2,70,0,0
45824,-125,4,2,9,70,0,0
45908,-125,4,2,2,70,0,0
46161,-125,4,2,6,70,0,0
46245,-125,4,2,2,70,0,0
46498,-125,4,2,8,70,0,0
46582,-125,4,2,2,70,0,0
46835,-125,4,2,6,70,0,0
46919,-125,4,2,2,70,0,0
47172,-125,4,2,9,70,0,0
47256,-125,4,2,2,70,0,0
47509,-125,4,2,6,70,0,0
47593,-125,4,2,2,70,0,0
47847,-125,4,2,9,70,0,0
47931,-125,4,2,2,70,0,0
48184,-125,4,2,6,70,0,0
48268,-125,4,2,2,70,0,0
48521,-125,4,2,9,70,0,0
48605,-125,4,2,2,70,0,0
48858,-125,4,2,6,70,0,0
48942,-125,4,2,2,70,0,0
49195,-125,4,2,8,70,0,0
49279,-125,4,2,2,70,0,0
49532,-125,4,2,8,70,0,0
49616,-125,4,2,2,70,0,0
49869,-125,4,2,9,70,0,0
49953,-125,4,2,2,70,0,0
50206,-125,4,2,9,70,0,0
50290,-125,4,2,2,70,0,0
50543,-125,4,2,9,70,0,0
50627,-125,4,2,2,70,0,0
50880,-125,4,2,8,70,0,0
50964,-125,4,2,2,70,0,0
51217,-125,4,2,8,70,0,0
51301,-125,4,2,2,70,0,0
51554,-125,4,2,6,70,0,0
51638,-125,4,2,2,70,0,0
52229,-125,4,2,6,70,0,0
52313,-125,4,2,2,70,0,0
53071,-125,4,2,3,70,0,0
53577,-125,4,2,8,70,0,0
53661,-125,4,2,2,70,0,0
54082,-125,4,2,1,70,0,0
54251,-125,4,2,3,70,0,0
54588,-125,4,2,2,70,0,0
54925,-125,4,2,8,70,0,0
55009,-125,4,2,2,70,0,0
55262,-125,4,2,9,70,0,0
55346,-125,4,2,2,70,0,0
55599,-125,4,2,9,70,0,0
55683,-125,4,2,2,70,0,0
55936,-125,4,2,8,70,0,0
56020,-125,4,2,2,70,0,0
56273,-125,4,2,8,70,0,0
56357,-125,4,2,2,70,0,0
56611,-125,4,2,8,70,0,0
56695,-125,4,2,2,70,0,0
56948,-125,4,2,8,70,0,0
57032,-125,4,2,2,70,0,0
57285,-125,4,2,6,70,0,0
57369,-125,4,2,2,70,0,0
57622,-125,4,2,8,70,0,0
57706,-125,4,2,2,70,0,0
57959,-125,4,2,9,70,0,0
58043,-125,4,2,2,70,0,0
58296,-125,4,2,9,70,0,0
58380,-125,4,2,2,70,0,0
58633,-125,4,2,8,70,0,0
58717,-125,4,2,2,70,0,0
58970,-125,4,2,8,70,0,0
59054,-125,4,2,2,70,0,0
59307,-125,4,2,8,70,0,0
59391,-125,4,2,2,70,0,0
59644,-125,4,2,6,70,0,0
59728,-125,4,2,2,70,0,0
60318,-125,4,2,8,70,0,0
60402,-125,4,2,2,70,0,0
60655,-125,4,2,8,70,0,0
60739,-125,4,2,2,70,0,0
60824,-125,4,2,3,70,0,0
60993,-125,4,2,8,70,0,0
61077,-125,4,2,2,70,0,0
61330,-125,4,2,8,70,0,0
61414,-125,4,2,2,70,0,0
61667,-125,4,2,8,70,0,0
61751,-125,4,2,2,70,0,0
62004,-125,4,2,8,70,0,0
62088,-125,4,2,2,70,0,0
62172,-125,4,2,3,70,0,0
62341,-125,4,2,6,70,0,0
62425,-125,4,2,2,70,0,0
62678,-100,4,2,2,75,0,0
65375,-100,4,2,2,80,0,0
65712,-100,4,2,6,80,0,0
65796,-100,4,2,2,80,0,0
66049,-100,4,2,6,80,0,0
66133,-100,4,2,2,80,0,0
66386,-100,4,2,6,80,0,0
66470,-100,4,2,2,80,0,0
66723,-100,4,2,6,80,0,0
66807,-100,4,2,2,80,0,0
67060,-100,4,2,6,80,0,0
67144,-100,4,2,2,80,0,0
67397,-100,4,2,6,80,0,0
67481,-100,4,2,2,80,0,0
67734,-100,4,2,6,80,0,0
67818,-100,4,2,2,80,0,0
68071,-100,4,2,6,80,0,0
68155,-100,4,2,2,80,0,0
68408,-100,4,2,6,80,0,0
68492,-100,4,2,2,80,0,0
68745,-100,4,2,6,80,0,0
68829,-100,4,2,2,80,0,0
69082,-100,4,2,6,80,0,0
69166,-100,4,2,2,80,0,0
69420,-100,4,2,6,80,0,0
69504,-100,4,2,2,80,0,0
69757,-100,4,2,6,80,0,0
69841,-100,4,2,2,80,0,0
70094,-100,4,2,6,80,0,0
70178,-100,4,2,2,80,0,0
70431,-100,4,2,6,80,0,0
70515,-100,4,2,2,80,0,0
71105,-100,4,2,6,80,0,0
71189,-100,4,2,2,80,0,0
71442,-100,4,2,6,80,0,0
71526,-100,4,2,2,80,0,0
71779,-100,4,2,6,80,0,0
71863,-100,4,2,2,80,0,0
72116,-100,4,2,6,80,0,0
72200,-100,4,2,2,80,0,0
72453,-100,4,2,6,80,0,0
72537,-100,4,2,2,80,0,0
72790,-100,4,2,6,80,0,0
72874,-100,4,2,2,80,0,0
73970,-100,4,2,3,80,0,0
74644,-100,4,2,2,80,0,0
75318,-100,4,2,3,80,0,0
76161,-100,4,2,2,80,0,0
76498,-100,4,2,6,80,0,0
76582,-100,4,2,2,80,0,0
76835,-100,4,2,6,80,0,0
76919,-100,4,2,2,80,0,0
77172,-100,4,2,6,80,0,0
77256,-100,4,2,2,80,0,0
77509,-100,4,2,6,80,0,0
77593,-100,4,2,2,80,0,0
77846,-100,4,2,6,80,0,0
77930,-100,4,2,2,80,0,0
78183,-100,4,2,6,80,0,0
78267,-100,4,2,2,80,0,0
78520,-100,4,2,6,80,0,0
78604,-100,4,2,2,80,0,0
79194,-100,4,2,6,80,0,0
79278,-100,4,2,2,80,0,0
79531,-100,4,2,6,80,0,0
79615,-100,4,2,2,80,0,0
79868,-100,4,2,6,80,0,0
79952,-100,4,2,2,80,0,0
80206,-100,4,2,6,80,0,0
80290,-100,4,2,2,80,0,0
80543,-100,4,2,6,80,0,0
80627,-100,4,2,2,80,0,0
80880,-100,4,2,6,80,0,0
80964,-100,4,2,2,80,0,0
81217,-100,4,2,6,80,0,0
81301,-100,4,2,2,80,0,0
81891,-100,4,2,6,80,0,0
81975,-100,4,2,2,80,0,0
82228,-100,4,2,6,80,0,0
82312,-100,4,2,2,80,0,0
82565,-100,4,2,6,80,0,0
82649,-100,4,2,2,80,0,0
82902,-100,4,2,6,80,0,0
82986,-100,4,2,2,80,0,0
83239,-100,4,2,6,80,0,0
83323,-100,4,2,2,80,0,0
83576,-100,4,2,6,80,0,0
83660,-100,4,2,2,80,0,0
83914,-100,4,2,6,80,0,0
83998,-100,4,2,2,80,0,0
84588,-100,4,2,6,80,0,0
84672,-100,4,2,2,80,0,0
84925,-100,4,2,6,80,0,0
85009,-100,4,2,2,80,0,0
85431,-100,4,2,12,80,0,0
85515,-100,4,2,2,80,0,0
86611,-166.666666666667,4,2,3,80,0,0
86948,-111.111111111111,4,2,2,75,0,0
87453,-111.111111111111,4,2,3,75,0,0
87959,-111.111111111111,4,2,10,75,0,0
88043,-111.111111111111,4,2,2,75,0,0
88296,-111.111111111111,4,2,10,75,0,0
88380,-111.111111111111,4,2,2,75,0,0
88633,-111.111111111111,4,2,10,75,0,0
88717,-111.111111111111,4,2,2,75,0,0
88970,-111.111111111111,4,2,10,75,0,0
89054,-111.111111111111,4,2,2,75,0,0
89307,-111.111111111111,4,2,10,75,0,0
89391,-111.111111111111,4,2,2,75,0,0
89644,-111.111111111111,4,2,3,75,0,0
89981,-111.111111111111,4,2,10,75,0,0
90065,-111.111111111111,4,2,2,75,0,0
90318,-111.111111111111,4,2,11,75,0,0
90402,-111.111111111111,4,2,2,75,0,0
90655,-111.111111111111,4,2,10,75,0,0
90739,-111.111111111111,4,2,2,75,0,0
90993,-111.111111111111,4,2,10,75,0,0
91077,-111.111111111111,4,2,2,75,0,0
91330,-111.111111111111,4,2,5,75,0,0
92088,-111.111111111111,4,2,1,75,0,0
92172,-111.111111111111,4,2,2,75,0,0
92257,-111.111111111111,4,2,3,75,0,0
92847,-111.111111111111,4,2,2,75,0,0
93521,-111.111111111111,4,2,3,75,0,0
94026,-111.111111111111,4,2,10,75,0,0
94110,-111.111111111111,4,2,2,75,0,0
94363,-111.111111111111,4,2,10,75,0,0
94447,-111.111111111111,4,2,2,75,0,0
94700,-111.111111111111,4,2,10,75,0,0
94784,-111.111111111111,4,2,2,75,0,0
95375,-111.111111111111,4,2,3,75,0,0
96217,-111.111111111111,4,2,12,75,0,0
96302,-111.111111111111,4,2,2,75,0,0
97734,-111.111111111111,4,2,2,70,0,0
98071,-111.111111111111,4,2,6,70,0,0
98155,-111.111111111111,4,2,2,70,0,0
98408,-111.111111111111,4,2,6,70,0,0
98492,-111.111111111111,4,2,2,70,0,0
98745,-111.111111111111,4,2,6,70,0,0
98829,-111.111111111111,4,2,2,70,0,0
99082,-111.111111111111,4,2,6,70,0,0
99166,-111.111111111111,4,2,2,70,0,0
99420,-111.111111111111,4,2,6,70,0,0
99504,-111.111111111111,4,2,2,70,0,0
99757,-111.111111111111,4,2,6,70,0,0
99841,-111.111111111111,4,2,2,70,0,0
100094,-111.111111111111,4,2,6,70,0,0
100178,-111.111111111111,4,2,2,70,0,0
100431,-111.111111111111,4,2,6,70,0,0
100515,-111.111111111111,4,2,2,70,0,0
100768,-111.111111111111,4,2,6,70,0,0
100852,-111.111111111111,4,2,2,70,0,0
101105,-111.111111111111,4,2,6,70,0,0
101189,-111.111111111111,4,2,2,70,0,0
101442,-111.111111111111,4,2,6,70,0,0
101526,-111.111111111111,4,2,2,70,0,0
101779,-111.111111111111,4,2,6,70,0,0
101863,-111.111111111111,4,2,2,70,0,0
102116,-111.111111111111,4,2,6,70,0,0
102200,-111.111111111111,4,2,2,70,0,0
102453,-111.111111111111,4,2,6,70,0,0
102537,-111.111111111111,4,2,2,70,0,0
102790,-111.111111111111,4,2,6,70,0,0
102874,-111.111111111111,4,2,2,70,0,0
103464,-111.111111111111,4,2,6,70,0,0
103548,-111.111111111111,4,2,2,70,0,0
103802,-111.111111111111,4,2,6,70,0,0
103886,-111.111111111111,4,2,2,70,0,0
104139,-111.111111111111,4,2,6,70,0,0
104223,-111.111111111111,4,2,2,70,0,0
104476,-111.111111111111,4,2,6,70,0,0
104560,-111.111111111111,4,2,2,70,0,0
104813,-111.111111111111,4,2,6,70,0,0
104897,-111.111111111111,4,2,2,70,0,0
105150,-111.111111111111,4,2,6,70,0,0
105234,-111.111111111111,4,2,2,70,0,0
105487,-111.111111111111,4,2,6,70,0,0
105571,-111.111111111111,4,2,2,70,0,0
105824,-111.111111111111,4,2,3,70,0,0
107172,-111.111111111111,4,2,2,70,0,0
107594,-111.111111111111,4,2,3,70,0,0
107931,-111.111111111111,4,2,1,70,0,0
108099,-111.111111111111,4,2,3,70,0,0
108521,-111.111111111111,4,2,12,70,0,0
108605,-111.111111111111,4,2,2,70,0,0
109195,-111.111111111111,4,2,1,70,0,0
109869,-111.111111111111,4,2,9,70,0,0
109953,-111.111111111111,4,2,2,70,0,0
110206,-111.111111111111,4,2,8,70,0,0
110290,-111.111111111111,4,2,2,70,0,0
110544,-111.111111111111,4,2,9,70,0,0
110628,-111.111111111111,4,2,2,70,0,0
110881,-111.111111111111,4,2,8,70,0,0
110965,-111.111111111111,4,2,2,70,0,0
111218,-111.111111111111,4,2,8,70,0,0
111302,-111.111111111111,4,2,2,70,0,0
111555,-111.111111111111,4,2,8,70,0,0
111639,-111.111111111111,4,2,2,70,0,0
111892,-111.111111111111,4,2,8,70,0,0
111976,-111.111111111111,4,2,2,70,0,0
112229,-111.111111111111,4,2,8,70,0,0
112313,-111.111111111111,4,2,2,70,0,0
112397,-111.111111111111,4,2,12,70,0,0
112481,-111.111111111111,4,2,2,70,0,0
112566,-111.111111111111,4,2,9,70,0,0
112650,-111.111111111111,4,2,2,70,0,0
112903,-111.111111111111,4,2,8,70,0,0
112987,-111.111111111111,4,2,2,70,0,0
113155,-111.111111111111,4,2,17,70,0,0
113240,-111.111111111111,4,2,8,70,0,0
113324,-111.111111111111,4,2,17,70,0,0
113408,-111.111111111111,4,2,2,70,0,0
113577,-111.111111111111,4,2,6,70,0,0
113661,-111.111111111111,4,2,2,70,0,0
113914,-111.111111111111,4,2,8,70,0,0
113998,-111.111111111111,4,2,2,70,0,0
114251,-111.111111111111,4,2,8,70,0,0
114335,-111.111111111111,4,2,2,70,0,0
114588,-111.111111111111,4,2,8,70,0,0
114672,-111.111111111111,4,2,2,70,0,0
114926,-111.111111111111,4,2,8,70,0,0
115010,-111.111111111111,4,2,2,70,0,0
115094,-111.111111111111,4,2,12,70,0,0
115178,-111.111111111111,4,2,2,70,0,0
115263,-111.111111111111,4,2,9,70,0,0
115347,-111.111111111111,4,2,2,70,0,0
115600,-111.111111111111,4,2,8,70,0,0
115684,-111.111111111111,4,2,2,70,0,0
115852,-111.111111111111,4,2,17,70,0,0
115937,-111.111111111111,4,2,8,70,0,0
116021,-111.111111111111,4,2,17,70,0,0
116105,-111.111111111111,4,2,2,70,0,0
116274,-111.111111111111,4,2,6,70,0,0
116358,-111.111111111111,4,2,2,70,0,0
116948,-111.111111111111,4,2,6,70,0,0
117032,-111.111111111111,4,2,2,70,0,0
117285,-111.111111111111,4,2,6,70,0,0
117369,-111.111111111111,4,2,2,70,0,0
117790,-111.111111111111,4,2,12,70,0,0
117874,-111.111111111111,4,2,2,70,0,0
118296,-111.111111111111,4,2,6,70,0,0
118380,-111.111111111111,4,2,2,70,0,0
118689,-111.111111111111,4,2,17,35,0,0
119307,-111.111111111111,4,2,2,60,0,0
119644,-111.111111111111,4,2,11,60,0,0
119700,-111.111111111111,4,2,2,60,0,0
119981,-111.111111111111,4,2,11,60,0,0
120037,-111.111111111111,4,2,2,60,0,0
120318,-111.111111111111,4,2,11,60,0,0
120374,-111.111111111111,4,2,2,60,0,0
120655,-111.111111111111,4,2,10,60,0,0
120711,-111.111111111111,4,2,2,60,0,0
120993,-111.111111111111,4,2,10,60,0,0
121049,-111.111111111111,4,2,2,60,0,0
121330,-111.111111111111,4,2,10,60,0,0
121386,-111.111111111111,4,2,2,60,0,0
121835,-111.111111111111,4,2,3,60,0,0
122004,-111.111111111111,4,2,11,60,0,0
122060,-111.111111111111,4,2,2,60,0,0
122341,-111.111111111111,4,2,11,60,0,0
122397,-111.111111111111,4,2,2,60,0,0
122678,-111.111111111111,4,2,11,60,0,0
122734,-111.111111111111,4,2,2,60,0,0
123015,-111.111111111111,4,2,11,60,0,0
123071,-111.111111111111,4,2,2,60,0,0
123352,-111.111111111111,4,2,10,60,0,0
123408,-111.111111111111,4,2,2,60,0,0
123689,-111.111111111111,4,2,10,60,0,0
123745,-111.111111111111,4,2,2,60,0,0
123858,-111.111111111111,4,2,5,60,0,0
125037,-111.111111111111,4,2,11,60,0,0
125093,-111.111111111111,4,2,2,60,0,0
125375,-111.111111111111,4,2,11,60,0,0
125431,-111.111111111111,4,2,2,60,0,0
125543,-111.111111111111,4,2,17,60,0,0
125712,-111.111111111111,4,2,11,60,0,0
125768,-111.111111111111,4,2,2,60,0,0
126049,-111.111111111111,4,2,10,60,0,0
126105,-111.111111111111,4,2,2,60,0,0
126386,-111.111111111111,4,2,10,60,0,0
126442,-111.111111111111,4,2,2,60,0,0
126723,-111.111111111111,4,2,10,60,0,0
126779,-111.111111111111,4,2,2,60,0,0
127060,-111.111111111111,4,2,10,60,0,0
127116,-111.111111111111,4,2,2,60,0,0
127397,-100,4,2,3,75,0,0
130094,-100,4,2,2,80,0,0
130431,-100,4,2,3,80,0,0
130768,-100,4,2,6,80,0,0
130852,-100,4,2,2,80,0,0
131105,-100,4,2,6,80,0,0
131189,-100,4,2,2,80,0,0
131442,-100,4,2,6,80,0,0
131526,-100,4,2,2,80,0,0
131779,-100,4,2,6,80,0,0
131863,-100,4,2,2,80,0,0
132116,-100,4,2,6,80,0,0
132200,-100,4,2,2,80,0,0
132453,-100,4,2,6,80,0,0
132537,-100,4,2,2,80,0,0
132790,-100,4,2,6,80,0,0
132874,-100,4,2,2,80,0,0
133127,-100,4,2,6,80,0,0
133211,-100,4,2,2,80,0,0
133464,-100,4,2,6,80,0,0
133548,-100,4,2,2,80,0,0
133801,-100,4,2,6,80,0,0
133885,-100,4,2,2,80,0,0
134139,-100,4,2,6,80,0,0
134223,-100,4,2,2,80,0,0
134476,-100,4,2,6,80,0,0
134560,-100,4,2,2,80,0,0
134813,-100,4,2,6,80,0,0
134897,-100,4,2,2,80,0,0
135150,-100,4,2,6,80,0,0
135234,-100,4,2,2,80,0,0
135824,-100,4,2,6,80,0,0
135908,-100,4,2,2,80,0,0
136161,-100,4,2,6,80,0,0
136245,-100,4,2,2,80,0,0
136498,-100,4,2,6,80,0,0
136582,-100,4,2,2,80,0,0
136835,-100,4,2,6,80,0,0
136919,-100,4,2,2,80,0,0
137172,-100,4,2,6,80,0,0
137256,-100,4,2,2,80,0,0
137509,-100,4,2,6,80,0,0
137593,-100,4,2,2,80,0,0
138183,-100,4,2,3,80,0,0
139363,-100,4,2,2,80,0,0
139869,-100,4,2,3,80,0,0
140712,-100,4,2,12,80,0,0
140796,-100,4,2,2,80,0,0
141217,-100,4,2,3,80,0,0
142060,-100,4,2,2,80,0,0
142566,-100,4,2,6,80,0,0
142650,-100,4,2,2,80,0,0
142903,-100,4,2,6,80,0,0
142987,-100,4,2,2,80,0,0
143240,-100,4,2,6,80,0,0
143324,-100,4,2,2,80,0,0
143914,-100,4,2,6,80,0,0
143998,-100,4,2,2,80,0,0
144251,-100,4,2,6,80,0,0
144335,-100,4,2,2,80,0,0
144588,-100,4,2,6,80,0,0
144672,-100,4,2,2,80,0,0
144926,-100,4,2,6,80,0,0
145010,-100,4,2,2,80,0,0
145263,-100,4,2,6,80,0,0
145347,-100,4,2,2,80,0,0
145600,-100,4,2,6,80,0,0
145684,-100,4,2,2,80,0,0
145937,-100,4,2,6,80,0,0
146021,-100,4,2,2,80,0,0
146611,-100,4,2,6,80,0,0
146695,-100,4,2,2,80,0,0
146948,-100,4,2,6,80,0,0
147032,-100,4,2,2,80,0,0
147285,-100,4,2,6,80,0,0
147369,-100,4,2,2,80,0,0
147622,-100,4,2,6,80,0,0
147706,-100,4,2,2,80,0,0
147959,-100,4,2,6,80,0,0
148043,-100,4,2,2,80,0,0
148296,-100,4,2,6,80,0,0
148380,-100,4,2,2,80,0,0
148634,-100,4,2,6,80,0,0
148718,-100,4,2,2,80,0,0
148970,-100,4,2,3,80,0,0
149308,-100,4,2,6,80,0,0
149392,-100,4,2,2,80,0,0
149645,-100,4,2,6,80,0,0
149729,-100,4,2,2,80,0,0
150151,-100,4,2,12,80,0,0
150235,-100,4,2,2,80,0,0
150993,-100,4,2,3,80,0,0
151667,-100,4,2,2,75,0,0
152004,-100,4,2,3,75,0,0
152341,-100,4,2,10,75,0,0
152425,-100,4,2,2,75,0,0
152678,-100,4,2,10,75,0,0
152762,-100,4,2,2,75,0,0
153015,-100,4,2,10,75,0,0
153099,-100,4,2,2,75,0,0
153352,-100,4,2,10,75,0,0
153436,-100,4,2,2,75,0,0
153689,-100,4,2,10,75,0,0
153773,-100,4,2,2,75,0,0
154026,-100,4,2,10,75,0,0
154110,-100,4,2,2,75,0,0
154363,-100,4,2,10,75,0,0
154447,-100,4,2,2,75,0,0
154700,-100,4,2,10,75,0,0
154784,-100,4,2,2,75,0,0
155037,-100,4,2,10,75,0,0
155121,-100,4,2,2,75,0,0
155375,-100,4,2,10,75,0,0
155459,-100,4,2,2,75,0,0
155712,-100,4,2,11,75,0,0
155796,-100,4,2,2,75,0,0
156049,-100,4,2,10,75,0,0
156133,-100,4,2,2,75,0,0
156386,-100,4,2,11,75,0,0
156470,-100,4,2,2,75,0,0
156723,-100,4,2,10,75,0,0
156807,-100,4,2,2,75,0,0
157060,-100,4,2,3,75,0,0
157397,-100,4,2,10,75,0,0
157481,-100,4,2,2,75,0,0
157734,-100,4,2,11,75,0,0
157818,-100,4,2,2,75,0,0
158071,-100,4,2,10,75,0,0
158155,-100,4,2,2,75,0,0
158408,-100,4,2,10,75,0,0
158492,-100,4,2,2,75,0,0
158745,-100,4,2,10,75,0,0
158829,-100,4,2,2,75,0,0
159082,-100,4,2,11,75,0,0
159166,-100,4,2,2,75,0,0
159420,-100,4,2,10,75,0,0
159504,-100,4,2,2,75,0,0
159757,-100,4,2,3,75,0,0
161442,-100,4,2,5,75,0,0
162453,-100,4,2,2,75,0,0
162790,-100,4,2,3,75,0,0
163127,-100,4,2,10,75,0,0
163211,-100,4,2,2,75,0,0
163464,-100,4,2,10,75,0,0
163548,-100,4,2,2,75,0,0
163802,-100,4,2,10,75,0,0
163886,-100,4,2,2,75,0,0
164139,-100,4,2,10,75,0,0
164223,-100,4,2,2,75,0,0
164476,-100,4,2,10,75,0,0
164560,-100,4,2,2,75,0,0
164813,-100,4,2,10,75,0,0
164897,-100,4,2,2,75,0,0
165150,-100,4,2,10,75,0,0
165234,-100,4,2,2,75,0,0
165487,-100,4,2,10,75,0,0
165571,-100,4,2,2,75,0,0
165824,-100,4,2,10,75,0,0
165908,-100,4,2,2,75,0,0
166161,-100,4,2,10,75,0,0
166245,-100,4,2,2,75,0,0
166498,-100,4,2,11,75,0,0
166582,-100,4,2,2,75,0,0
166835,-100,4,2,10,75,0,0
166919,-100,4,2,2,75,0,0
167172,-100,4,2,11,75,0,0
167256,-100,4,2,2,75,0,0
167509,-100,4,2,10,75,0,0
167593,-100,4,2,2,75,0,0
167846,-100,4,2,3,75,0,0
168184,-100,4,2,10,75,0,0
168268,-100,4,2,2,75,0,0
168521,-100,4,2,11,75,0,0
168605,-100,4,2,2,75,0,0
168858,-100,4,2,10,75,0,0
168942,-100,4,2,2,75,0,0
169195,-100,4,2,10,75,0,0
169279,-100,4,2,2,75,0,0
169532,-100,4,2,10,75,0,0
169616,-100,4,2,2,75,0,0
169869,-100,4,2,11,75,0,0
169953,-100,4,2,2,75,0,0
170206,-100,4,2,10,75,0,0
170290,-100,4,2,2,75,0,0
171049,-100,4,2,3,75,0,0
171723,-100,4,2,5,75,0,0
173240,-125,4,2,2,65,0,0
173577,-125,4,2,8,65,0,0
173661,-125,4,2,2,65,0,0
173914,-125,4,2,8,65,0,0
173998,-125,4,2,2,65,0,0
174251,-125,4,2,8,65,0,0
174335,-125,4,2,2,65,0,0
174420,-125,4,2,12,65,0,0
174504,-125,4,2,2,65,0,0
174588,-125,4,2,9,65,0,0
174672,-125,4,2,2,65,0,0
174925,-125,4,2,8,65,0,0
175009,-125,4,2,2,65,0,0
175262,-125,4,2,9,65,0,0
175346,-125,4,2,2,65,0,0
175599,-125,4,2,6,65,0,0
175683,-125,4,2,2,65,0,0
175936,-125,4,2,8,65,0,0
176020,-125,4,2,2,65,0,0
176273,-125,4,2,8,65,0,0
176357,-125,4,2,2,65,0,0
176611,-125,4,2,9,65,0,0
176695,-125,4,2,2,65,0,0
176948,-125,4,2,8,65,0,0
177032,-125,4,2,2,65,0,0
177116,-125,4,2,12,65,0,0
177200,-125,4,2,2,65,0,0
177285,-125,4,2,9,65,0,0
177369,-125,4,2,2,65,0,0
177622,-125,4,2,8,65,0,0
177706,-125,4,2,2,65,0,0
177875,-125,4,2,17,65,0,0
177959,-125,4,2,8,65,0,0
178043,-125,4,2,17,65,0,0
178127,-125,4,2,2,65,0,0
178296,-125,4,2,6,65,0,0
178380,-125,4,2,2,65,0,0
178633,-125,4,2,8,65,0,0
178717,-125,4,2,2,65,0,0
178970,-125,4,2,8,65,0,0
179054,-125,4,2,2,65,0,0
179307,-125,4,2,9,65,0,0
179391,-125,4,2,2,65,0,0
179644,-125,4,2,8,65,0,0
179728,-125,4,2,2,65,0,0
179813,-125,4,2,12,65,0,0
179897,-125,4,2,2,65,0,0
179981,-125,4,2,9,65,0,0
180065,-125,4,2,2,65,0,0
180318,-125,4,2,8,65,0,0
180402,-125,4,2,2,65,0,0
180655,-125,4,2,8,65,0,0
180739,-125,4,2,2,65,0,0
180993,-125,4,2,8,65,0,0
181077,-125,4,2,2,65,0,0
181330,-125,4,2,12,65,0,0
181414,-125,4,2,2,65,0,0
181667,-125,4,2,9,50,0,0
181751,-125,4,2,2,50,0,0
182004,-125,4,2,8,50,0,0
182088,-125,4,2,2,50,0,0
182341,-125,4,2,9,50,0,0
182425,-125,4,2,2,50,0,0
182509,-125,4,2,13,50,0,0
182593,-125,4,2,2,50,0,0

[Colours]
Combo1 : 250,180,240
Combo2 : 120,200,230
Combo3 : 255,230,130
Combo4 : 160,230,150

[HitObjects]
0,305,656,5,10,0:2:0:0:
9,315,1330,1,4,0:3:0:0:
9,315,1414,1,4,0:3:0:0:
9,315,1499,2,0,P|28:311|52:305,1,45,4|8,0:3|0:1,0:0:0:0:
132,259,1667,1,10,0:2:0:0:
200,349,1835,1,10,0:1:0:0:
279,29,3352,5,10,0:2:0:0:
287,37,4026,1,4,0:3:0:0:
287,37,4110,1,4,0:3:0:0:
287,37,4195,2,0,P|306:41|330:46,1,45,4|8,0:3|0:1,0:0:0:0:
410,93,4363,1,10,0:2:0:0:
478,3,4531,1,10,0:1:0:0:
256,192,6049,5,10,0:2:0:0:
263,199,6722,1,8,0:2:0:0:
263,199,6806,1,4,0:3:0:0:
263,199,6891,2,0,P|259:180|253:155,1,45,4|8,0:3|0:1,0:0:0:0:
238,71,7060,1,10,0:2:0:0:
155,188,7229,1,10,0:1:0:0:
155,188,7566,5,8,0:1:0:0:
15,109,7734,2,0,P|65:99|96:92,1,80.9999975280763,8|0,0:2|0:0,0:0:0:0:
117,88,7987,1,8,0:2:0:0:
117,88,8071,2,0,L|129:29,1,40.4999987640381,2|8,0:3|0:2,0:0:0:0:
227,12,8240,2,0,L|218:51,1,40.4999987640381,8|0,0:1|0:0,0:0:0:0:
280,132,8408,2,0,P|339:113|397:135,1,121.499996292114,8|0,0:2|0:0,0:0:0:0:
416,150,8745,5,14,0:1:0:0:
504,111,8914,1,8,0:2:0:0:
504,111,8998,1,8,0:2:0:0:
504,111,9082,2,0,L|515:164,1,40.4999987640381,8|4,0:1|0:3,0:0:0:0:
451,279,9251,2,0,L|440:226,1,40.4999987640381,4|8,0:3|0:1,0:0:0:0:
416,150,9420,1,8,0:2:0:0:
323,250,9588,1,4,0:3:0:0:
280,132,9757,5,4,0:3:0:0:
451,279,9925,1,10,0:1:0:0:
451,279,10262,6,0,L|458:225,2,53.9999983520508,2|2|2,0:2|0:2|0:2,0:0:0:0:
466,365,10768,2,0,P|441:361|412:356,1,53.9999983520508,2|2,0:2|0:2,0:0:0:0:
340,307,11105,1,10,0:2:0:0:
85,96,11442,5,14,0:1:0:0:
15,148,11611,1,0,0:0:0:0:
0,60,11780,1,8,0:2:0:0:
90,104,11948,2,0,B|185:83|144:158|250:133,1,161.999995056153,0|8,0:0|0:1,0:0:0:0:
325,180,12453,1,10,0:2:0:0:
477,80,12622,6,0,P|505:153|467:221,1,161.999995056153,10|8,0:1|0:1,0:0:0:0:
411,148,13127,1,8,0:2:0:0:
401,304,13296,1,0,0:0:0:0:
401,304,13380,1,8,0:2:0:0:
401,304,13464,2,0,L|417:367,2,40.4999987640381,2|8|8,0:3|0:2|0:1,0:0:0:0:
305,266,13802,2,0,P|270:280|227:289,1,80.9999975280763,8|0,0:2|0:0,0:0:0:0:
93,266,14139,5,10,0:1:0:0:
23,214,14308,1,0,0:0:0:0:
8,302,14477,1,8,0:2:0:0:
106,269,14644,2,0,P|143:181|107:105,1,161.999995056153,0|8,0:0|0:1,0:0:0:0:
68,59,15150,1,10,0:2:0:0:
180,199,15318,6,0,B|266:181|245:241|339:218,1,161.999995056153,10|8,0:1|0:1,0:0:0:0:
417,174,15824,1,8,0:2:0:0:
468,265,15993,1,0,0:0:0:0:
468,265,16077,1,8,0:2:0:0:
468,265,16161,2,0,L|455:326,2,40.4999987640381,2|8|8,0:3|0:2|0:1,0:0:0:0:
336,219,16498,2,0,P|320:169|333:134,1,80.9999975280763,8|0,0:2|0:0,0:0:0:0:
402,64,16835,5,10,0:1:0:0:
472,124,17004,1,0,0:0:0:0:
487,36,17173,1,8,0:2:0:0:
397,72,17341,2,0,B|302:51|343:126|236:101,1,161.999995056153,0|8,0:0|0:1,0:0:0:0:
179,53,17847,1,10,0:2:0:0:
15,153,18015,6,0,P|99:144|165:217,1,161.999995056153,10|8,0:1|0:1,0:0:0:0:
246,103,18521,1,8,0:2:0:0:
286,233,18689,1,0,0:0:0:0:
286,233,18773,1,8,0:2:0:0:
286,233,18858,2,0,L|271:301,2,40.4999987640381,2|8|8,0:3|0:2|0:1,0:0:0:0:
413,174,19195,2,0,P|373:162|329:152,1,80.9999975280763,8|8,0:2|0:1,0:0:0:0:
198,197,19532,5,14,0:2:0:0:
110,215,19700,1,10,0:1:0:0:
22,233,19869,1,10,0:1:0:0:
92,127,20038,5,10,0:2:0:0:
110,215,20206,1,2,0:3:0:0:
128,303,20375,2,0,P|117:342|104:393,1,80.9999975280763,10|10,0:1|0:2,0:0:0:0:
286,271,20712,6,0,P|291:191|272:113,1,161.999995056153,14|10,0:1|0:2,0:0:0:0:
272,113,21133,1,8,0:2:0:0:
272,113,21217,1,10,0:2:0:0:
272,113,21302,1,8,0:2:0:0:
272,113,21386,1,10,0:2:0:0:
378,21,21554,1,10,0:2:0:0:
417,12,21638,1,8,0:2:0:0:
455,25,21722,1,10,0:2:0:0:
480,55,21806,1,8,0:2:0:0:
487,95,21891,2,0,L|477:152,3,40.4999987640381,10|8|10|8,0:2|0:2|0:2|0:2,0:0:0:0:
395,181,22229,6,0,P|461:179|511:258,2,161.999995056153,14|8|2,0:1|0:2|0:2,0:0:0:0:
247,259,23071,2,0,P|286:267|325:277,1,80.9999975280763,10|10,0:1|0:2,0:0:0:0:
313,104,23408,2,0,P|295:169|288:201,1,80.9999975280763,10|2,0:1|0:3,0:0:0:0:
148,280,23745,2,0,P|157:240|169:201,1,80.9999975280763,10|10,0:1|0:2,0:0:0:0:
208,109,24082,2,0,P|129:168|66:147,1,161.999995056153,10|10,0:1|0:1,0:0:0:0:
22,59,24588,1,10,0:2:0:0:
82,161,24757,5,2,0:2:0:0:
82,161,24841,1,0,0:0:0:0:
82,161,24925,2,0,L|65:254,1,80.9999975280763,8|8,0:1|0:1,0:0:0:0:
11,348,25262,2,0,L|116:338,1,80.9999975280763,10|8,0:2|0:1,0:0:0:0:
238,320,25599,1,2,0:2:0:0:
146,241,25768,1,10,0:1:0:0:
171,384,25936,1,10,0:2:0:0:
333,356,26105,6,0,L|427:336,1,80.9999975280763,10|2,0:1|0:3,0:0:0:0:
486,268,26442,1,10,0:1:0:0:
387,220,26611,1,8,0:2:0:0:
512,161,26779,2,0,P|464:223|368:205,1,161.999995056153,10|8,0:1|0:1,0:0:0:0:
265,89,27285,2,0,P|266:50|246:15,1,80.9999975280763,14|0,0:2|0:0,0:0:0:0:
98,92,27622,6,0,L|183:73,1,80.9999975280763,14|8,0:1|0:1,0:0:0:0:
177,74,27875,1,0,0:0:0:0:
177,74,27959,1,10,0:2:0:0:
256,180,28127,1,12,0:1:0:0:
368,93,28296,1,2,0:2:0:0:
384,215,28464,2,0,L|397:308,1,80.9999975280763,10|10,0:1|0:2,0:0:0:0:
256,355,28802,6,0,L|165:338,1,80.9999975280763,14|0,0:1|0:0,0:0:0:0:
14,270,29139,2,0,L|105:253,1,80.9999975280763,10|10,0:1|0:2,0:0:0:0:
201,188,29476,2,0,P|188:244|166:373,1,161.999995056153,10|10,0:1|0:1,0:0:0:0:
86,248,29981,2,0,P|78:208|69:168,1,80.9999975280763,10|10,0:2|0:2,0:0:0:0:
34,55,30318,1,14,0:1:0:0:
34,55,30487,1,8,0:1:0:0:
149,82,30655,6,0,P|206:101|272:70,1,121.499996292114,10|0,0:2|0:0,0:0:0:0:
276,67,30993,1,10,0:2:0:0:
393,146,31161,1,10,0:1:0:0:
383,25,31330,1,10,0:1:0:0:
293,168,31498,6,0,P|286:204|273:296,1,121.499996292114,14|0,0:2|0:0,0:0:0:0:
272,307,31835,1,10,0:1:0:0:
378,257,32004,1,8,0:2:0:0:
458,368,32172,1,10,0:2:0:0:
458,368,32257,1,10,0:2:0:0:
458,368,32341,2,0,P|470:306|479:274,1,80.9999975280763,10|10,0:1|0:3,0:0:0:0:
393,177,32678,2,0,P|387:205|377:256,1,80.9999975280763,10|10,0:3|0:2,0:0:0:0:
304,379,33015,6,0,P|248:337|179:346,1,144,14|8,0:1|0:2,0:0:0:0:
103,270,33521,1,2,0:2:0:0:
17,371,33689,2,0,P|10:301|0:228,1,144,2|2,0:2|0:2,0:0:0:0:
83,83,34195,2,0,L|73:11,2,72,8|2|10,0:2|0:2|0:1,0:0:0:0:
32,153,34700,2,0,P|66:163|100:175,1,72,10|0,0:2|0:0,0:0:0:0:
217,233,35038,5,2,0:2:0:0:
217,233,35206,1,10,0:1:0:0:
160,296,35375,2,0,L|179:370,1,72,10|0,0:2|0:0,0:0:0:0:
217,233,35712,5,10,0:1:0:0:
217,233,35880,1,2,0:2:0:0:
300,250,36049,2,0,L|354:196,1,72,10|0,0:2|0:0,0:0:0:0:
217,233,36386,5,10,0:1:0:0:
217,233,36554,1,10,0:1:0:0:
190,152,36723,2,0,L|116:131,1,72,2|8,0:2|0:2,0:0:0:0:
12,194,37060,6,0,L|85:214,1,72,2|10,0:2|0:1,0:0:0:0:
220,234,37397,2,0,P|239:155|253:93,1,144,10|2,0:2|0:3,0:0:0:0:
419,52,37903,2,0,L|496:38,2,72,8|8|0,0:1|0:2|0:0,0:0:0:0:
320,0,38408,6,0,P|334:67|350:165,1,144,10|8,0:1|0:2,0:0:0:0:
405,211,38914,1,2,0:2:0:0:
512,132,39082,2,0,P|502:178|497:212,1,72,2|8,0:2|0:1,0:0:0:0:
421,294,39420,2,0,P|415:258|407:223,1,72,2|10,0:2|0:2,0:0:0:0:
346,141,39757,5,2,0:2:0:0:
288,195,39925,1,10,0:1:0:0:
210,204,40094,1,10,0:2:0:0:
139,175,40262,2,0,P|59:173|61:252,1,144,2|10,0:2|0:1,0:0:0:0:
14,319,40768,2,0,P|48:309|84:304,1,72,8|2,0:2|0:2,0:0:0:0:
248,359,41105,6,0,P|282:349|318:344,2,72,10|2|10,0:1|0:2|0:2,0:0:0:0:
152,366,41611,2,0,P|163:326|170:296,1,72,2|2,0:2|0:3,0:0:0:0:
265,265,41948,2,0,P|273:229|283:195,1,72,10|2,0:1|0:3,0:0:0:0:
214,109,42285,6,0,B|127:101|178:150|63:140,2,144,10|10|10,0:2|0:1|0:1,0:0:0:0:
218,113,43296,1,2,0:3:0:0:
218,113,43465,1,2,0:3:0:0:
497,260,43802,6,0,P|449:307|374:294,1,144,14|8,0:1|0:2,0:0:0:0:
306,243,44307,1,2,0:2:0:0:
238,345,44476,2,0,P|233:304|228:265,1,72,2|10,0:2|0:1,0:0:0:0:
303,167,44813,2,0,P|308:208|313:247,1,72,2|10,0:2|0:2,0:0:0:0:
331,333,45150,1,2,0:2:0:0:
227,266,45318,1,10,0:1:0:0:
140,356,45487,2,0,P|135:320|131:284,1,72,10|0,0:2|0:0,0:0:0:0:
123,158,45824,5,2,0:2:0:0:
123,158,45992,1,10,0:1:0:0:
186,215,46161,2,0,L|260:196,1,72,10|0,0:2|0:0,0:0:0:0:
123,158,46498,5,10,0:1:0:0:
123,158,46666,1,10,0:1:0:0:
140,75,46835,2,0,L|86:20,1,72,10|0,0:2|0:0,0:0:0:0:
123,158,47172,5,2,0:2:0:0:
123,158,47340,1,10,0:1:0:0:
41,185,47509,2,0,L|20:258,1,72,10|10,0:2|0:1,0:0:0:0:
157,298,47847,6,0,L|177:224,1,72,2|10,0:2|0:1,0:0:0:0:
264,168,48184,1,10,0:2:0:0:
340,253,48352,2,0,P|396:264|475:222,1,144,2|8,0:2|0:1,0:0:0:0:
435,86,48858,2,0,P|362:82|326:129,1,108,8|0,0:2|0:0,0:0:0:0:
325,121,49195,6,0,P|248:111|181:104,1,144,10|8,0:1|0:2,0:0:0:0:
103,153,49700,1,2,0:2:0:0:
72,10,49869,2,0,B|104:47|104:47|86:168,1,144,2|2,0:2|0:2,0:0:0:0:
15,232,50375,1,10,0:2:0:0:
109,280,50543,6,0,L|182:258,2,72,2|10|10,0:2|0:1|0:2,0:0:0:0:
41,357,51049,2,0,P|0:300|14:231,1,144,2|10,0:2|0:1,0:0:0:0:
19,125,51554,2,0,P|56:134|89:140,1,72,10|2,0:2|0:2,0:0:0:0:
277,27,51891,6,0,P|241:15|173:49,1,108,14|0,0:1|0:0,0:0:0:0:
168,62,52229,2,0,L|181:154,1,72,10|8,0:2|0:1,0:0:0:0:
277,193,52566,2,0,P|317:184|353:182,2,72,10|10|8,0:2|0:1|0:1,0:0:0:0:
135,285,53071,6,0,B|50:288|88:325|-4:324,1,144,14|10,0:2|0:1,0:0:0:0:
14,245,53577,1,8,0:2:0:0:
220,333,53745,1,10,0:2:0:0:
220,333,53830,1,8,0:2:0:0:
220,333,53914,2,0,L|301:315,1,72,8|8,0:2|0:3,0:0:0:0:
386,297,54251,2,0,P|380:328|370:367,1,72,8|8,0:3|0:2,0:0:0:0:
240,237,54588,6,0,P|254:166|269:95,1,144,14|10,0:1|0:2,0:0:0:0:
269,95,55094,1,8,0:1:0:0:
347,165,55262,2,0,P|388:158|426:153,2,72,2|10|2,0:2|0:2|0:2,0:0:0:0:
178,73,55768,2,0,P|112:108|34:99,2,144,10|10|10,0:1|0:2|0:1,0:0:0:0:
178,73,56779,2,0,L|163:151,2,72,8|2|8,0:2|0:3|0:2,0:0:0:0:
369,15,57285,6,0,P|442:19|471:89,1,144,10|8,0:1|0:2,0:0:0:0:
379,143,57790,1,10,0:1:0:0:
440,236,57959,2,0,P|474:227|510:223,2,72,2|10|2,0:2|0:2|0:2,0:0:0:0:
286,152,58464,2,0,P|293:115|319:-1,2,144,10|8|10,0:1|0:2|0:1,0:0:0:0:
260,250,59307,2,0,P|295:243|331:239,1,72,2|8,0:3|0:2,0:0:0:0:
383,165,59644,1,2,0:3:0:0:
206,325,59981,6,0,P|174:315|136:305,1,72,14|2,0:1|0:2,0:0:0:0:
32,276,60318,2,0,P|40:310|48:346,1,72,10|2,0:2|0:2,0:0:0:0:
192,234,60655,2,0,P|183:199|175:163,1,72,10|10,0:1|0:3,0:0:0:0:
155,77,60993,1,10,0:1:0:0:
280,184,61161,6,0,B|369:169|346:210|422:195,1,144,2|10,0:2|0:2,0:0:0:0:
472,100,61667,2,0,P|436:107|401:113,1,72,8|2,0:1|0:2,0:0:0:0:
280,184,62004,2,0,P|272:219|266:254,1,72,8|8,0:1|0:3,0:0:0:0:
193,122,62341,1,8,0:1:0:0:
193,122,62509,1,0,0:0:0:0:
102,202,62678,6,0,P|39:188|37:122,1,135,14|0,0:1|0:0,0:0:0:0:
54,109,63015,1,10,0:2:0:0:
131,86,63184,1,8,0:2:0:0:
200,133,63352,1,10,0:2:0:0:
258,203,63521,1,8,0:2:0:0:
362,222,63689,1,10,0:2:0:0:
463,157,63858,1,8,0:2:0:0:
453,45,64026,1,2,0:2:0:0:
178,308,65375,6,0,B|66:288|113:361|-3:345,2,180,14|10|10,0:1|0:2|0:1,0:0:0:0:
261,242,66217,1,8,0:1:0:0:
204,149,66386,2,0,P|209:105|244:78,1,90,10|0,0:2|0:0,0:0:0:0:
494,61,66723,5,10,0:1:0:0:
466,149,66891,1,10,0:1:0:0:
382,184,67060,1,10,0:2:0:0:
297,151,67229,1,2,0:2:0:0:
207,243,67397,5,10,0:1:0:0:
122,210,67566,1,10,0:1:0:0:
38,245,67735,1,10,0:2:0:0:
10,333,67903,1,2,0:2:0:0:
207,243,68071,6,0,P|202:187|194:140,1,90,10|10,0:1|0:1,0:0:0:0:
371,94,68408,2,0,P|376:150|384:197,1,90,8|0,0:2|0:0,0:0:0:0:
276,103,68745,2,0,P|269:58|265:13,2,90,8|8|10,0:1|0:1|0:2,0:0:0:0:
421,259,69251,6,0,P|501:256|486:149,1,180,10|10,0:1|0:1,0:0:0:0:
326,232,69757,2,0,P|331:288|339:335,1,90,10|2,0:2|0:2,0:0:0:0:
336,321,70009,1,10,0:2:0:0:
335,321,70094,2,0,P|291:324|246:331,1,90,10|8,0:1|0:1,0:0:0:0:
153,295,70431,1,10,0:2:0:0:
74,362,70599,1,2,0:2:0:0:
0,194,70768,6,0,P|12:103|26:7,2,180,14|10|10,0:1|0:2|0:1,0:0:0:0:
74,270,71611,1,8,0:1:0:0:
150,206,71779,2,0,P|154:161|163:117,1,90,10|0,0:2|0:0,0:0:0:0:
294,29,72116,5,10,0:1:0:0:
384,14,72285,1,10,0:1:0:0:
467,58,72454,1,10,0:2:0:0:
489,144,72622,1,2,0:2:0:0:
438,223,72790,5,10,0:1:0:0:
350,197,72959,1,10,0:1:0:0:
262,232,73128,1,10,0:2:0:0:
240,325,73296,1,2,0:2:0:0:
240,325,73380,1,0,0:0:0:0:
240,325,73465,6,0,P|197:330|150:335,1,90,14|2,0:1|0:2,0:0:0:0:
0,267,73802,1,10,0:2:0:0:
66,384,73970,2,0,P|77:299|89:199,1,180,14|10,0:1|0:1,0:0:0:0:
153,110,74476,1,10,0:2:0:0:
5,58,74644,6,0,P|62:118|170:95,1,180,14|10,0:1|0:1,0:0:0:0:
324,42,75150,2,0,P|313:85|304:129,1,90,10|14,0:2|0:1,0:0:0:0:
226,31,75487,1,10,0:2:0:0:
226,31,75571,1,8,0:2:0:0:
226,31,75655,1,8,0:2:0:0:
232,195,75824,5,10,0:2:0:0:
232,195,75908,1,8,0:2:0:0:
232,195,75993,1,8,0:2:0:0:
232,195,76077,1,8,0:2:0:0:
232,195,76161,2,0,P|300:164|405:229,2,180,14|10|10,0:1|0:2|0:1,0:0:0:0:
131,301,77004,1,8,0:1:0:0:
20,262,77172,2,0,P|5:208|23:163,1,90,10|0,0:2|0:0,0:0:0:0:
9,62,77509,5,10,0:1:0:0:
89,103,77678,1,10,0:1:0:0:
181,87,77847,1,10,0:2:0:0:
229,12,78015,1,2,0:2:0:0:
301,93,78184,5,10,0:1:0:0:
389,77,78353,1,10,0:1:0:0:
471,122,78522,1,10,0:2:0:0:
497,217,78689,1,2,0:2:0:0:
497,217,78773,1,0,0:0:0:0:
497,217,78858,6,0,P|490:260|484:306,1,90,14|10,0:1|0:1,0:0:0:0:
301,345,79195,2,0,P|306:300|313:255,1,90,8|0,0:2|0:0,0:0:0:0:
376,166,79532,2,0,P|381:121|389:76,2,90,8|8|10,0:1|0:1|0:2,0:0:0:0:
387,345,80038,6,0,P|304:295|208:322,1,180,10|10,0:1|0:1,0:0:0:0:
70,355,80543,2,0,L|83:259,1,90,10|2,0:2|0:2,0:0:0:0:
170,236,80880,1,10,0:1:0:0:
226,310,81049,1,8,0:1:0:0:
310,266,81217,2,0,L|323:170,1,90,10|10,0:2|0:2,0:0:0:0:
322,176,81470,1,10,0:2:0:0:
322,176,81554,6,0,B|430:162|393:228|503:212,2,180,14|10|10,0:1|0:2|0:1,0:0:0:0:
214,143,82397,1,8,0:1:0:0:
190,251,82566,2,0,P|141:284|84:273,1,90,10|0,0:2|0:0,0:0:0:0:
2,139,82903,5,10,0:1:0:0:
30,51,83071,1,10,0:1:0:0:
114,16,83240,1,10,0:2:0:0:
199,49,83409,1,2,0:2:0:0:
244,132,83577,5,10,0:1:0:0:
293,209,83745,1,10,0:1:0:0:
384,221,83914,1,10,0:2:0:0:
457,167,84083,1,2,0:2:0:0:
508,243,84251,5,14,0:2:0:0:
373,140,84420,2,0,L|390:41,1,90,8|8,0:1|0:2,0:0:0:0:
207,212,84757,2,0,L|191:300,1,90,10|8,0:1|0:2,0:0:0:0:
150,117,85094,5,8,0:1:0:0:
173,209,85262,1,10,0:1:0:0:
191,300,85431,1,10,0:2:0:0:
191,300,86611,6,0,P|239:299|280:332,1,80.9999975280763,10|0,0:3|0:0,0:0:0:0:
286,332,86948,6,0,P|350:348|425:268,1,161.999995056153,14|10,0:1|0:2,0:0:0:0:
357,147,87453,1,14,0:1:0:0:
512,178,87622,2,0,P|473:186|433:198,1,80.9999975280763,2|10,0:2|0:1,0:0:0:0:
334,256,87959,1,10,0:2:0:0:
260,157,88127,6,0,P|267:118|278:79,1,80.9999975280763,10|2,0:1|0:3,0:0:0:0:
128,0,88464,2,0,P|117:39|109:78,1,80.9999975280763,10|8,0:1|0:2,0:0:0:0:
150,244,88802,2,0,P|167:165|189:87,1,161.999995056153,10|10,0:1|0:1,0:0:0:0:
222,8,89307,1,10,0:2:0:0:
222,8,89476,1,10,0:2:0:0:
109,78,89644,6,0,P|52:66|14:54,1,80.9999975280763,12|10,0:1|0:1,0:0:0:0:
201,174,89981,2,0,P|257:185|295:197,1,80.9999975280763,10|8,0:2|0:1,0:0:0:0:
372,107,90318,2,0,P|368:67|361:21,2,80.9999975280763,2|10|10,0:2|0:1|0:2,0:0:0:0:
488,189,90824,6,0,P|483:148|478:108,1,80.9999975280763,10|2,0:1|0:3,0:0:0:0:
379,196,91161,2,0,P|383:236|388:276,1,80.9999975280763,10|12,0:1|0:2,0:0:0:0:
460,358,91498,5,10,0:2:0:0:
460,358,91582,1,8,0:2:0:0:
361,378,91751,1,8,0:2:0:0:
361,378,91835,1,10,0:2:0:0:
289,321,92004,1,10,0:2:0:0:
289,321,92088,1,8,0:3:0:0:
289,321,92172,1,10,0:3:0:0:
289,321,92257,1,8,0:3:0:0:
289,321,92341,6,0,B|190:305|235:362|129:343,1,161.999995056153,14|10,0:1|0:2,0:0:0:0:
35,273,92847,1,12,0:1:0:0:
133,344,93015,2,0,P|139:298|146:264,1,80.9999975280763,2|10,0:2|0:1,0:0:0:0:
171,165,93352,1,10,0:2:0:0:
83,40,93521,6,0,P|20:50|-4:50,1,80.9999975280763,14|0,0:1|0:0,0:0:0:0:
90,175,93858,2,0,P|153:165|177:165,1,80.9999975280763,10|8,0:1|0:2,0:0:0:0:
344,63,94195,2,0,P|274:69|174:76,1,161.999995056153,10|10,0:1|0:1,0:0:0:0:
83,40,94700,1,10,0:2:0:0:
83,40,94869,1,10,0:2:0:0:
90,175,95038,6,0,P|80:214|72:254,1,80.9999975280763,14|0,0:1|0:0,0:0:0:0:
254,102,95375,2,0,P|263:62|271:22,1,80.9999975280763,14|10,0:2|0:1,0:0:0:0:
179,160,95712,6,0,P|187:199|196:239,1,80.9999975280763,14|10,0:2|0:1,0:0:0:0:
196,239,95964,1,0,0:0:0:0:
196,239,96049,1,10,0:1:0:0:
297,222,96217,2,0,P|374:223|425:290,1,161.999995056153,10|10,0:2|0:2,0:0:0:0:
423,285,96639,1,8,0:2:0:0:
423,285,96723,1,10,0:2:0:0:
423,285,96807,1,8,0:2:0:0:
423,285,96891,1,10,0:2:0:0:
500,225,97060,5,10,0:2:0:0:
500,225,97144,1,8,0:2:0:0:
500,225,97229,2,0,L|511:169,1,40.4999987640381,10|8,0:2|0:2,0:0:0:0:
416,140,97397,1,10,0:2:0:0:
416,140,97481,1,8,0:2:0:0:
416,140,97566,2,0,L|423:100,1,40.4999987640381,10|8,0:1|0:1,0:0:0:0:
475,25,97734,6,0,P|435:20|394:13,1,80.9999975280763,14|8,0:2|0:1,0:0:0:0:
329,167,98071,2,0,P|288:161|248:155,1,80.9999975280763,8|10,0:2|0:1,0:0:0:0:
240,55,98408,2,0,P|200:50|159:43,1,80.9999975280763,10|8,0:2|0:1,0:0:0:0:
94,197,98745,2,0,P|53:191|13:185,1,80.9999975280763,10|10,0:2|0:1,0:0:0:0:
75,110,99082,1,10,0:2:0:0:
75,110,99251,1,2,0:2:0:0:
94,197,99420,2,0,P|88:237|82:277,1,80.9999975280763,10|8,0:2|0:1,0:0:0:0:
249,205,99757,5,10,0:2:0:0:
249,205,99925,1,10,0:1:0:0:
336,186,100094,2,0,P|376:191|416:197,1,80.9999975280763,10|8,0:2|0:1,0:0:0:0:
249,205,100431,5,10,0:2:0:0:
249,205,100599,1,10,0:1:0:0:
189,139,100768,2,0,P|173:101|159:63,1,80.9999975280763,10|8,0:2|0:1,0:0:0:0:
249,205,101105,5,10,0:2:0:0:
249,205,101273,1,10,0:1:0:0:
221,290,101442,2,0,P|196:322|170:353,1,80.9999975280763,10|8,0:2|0:1,0:0:0:0:
170,353,101695,1,8,0:1:0:0:
170,353,101779,1,10,0:2:0:0:
96,285,101948,6,0,P|120:252|146:221,1,80.9999975280763,2|10,0:2|0:2,0:0:0:0:
275,122,102285,1,10,0:1:0:0:
380,193,102453,2,0,L|471:182,1,80.9999975280763,8|8,0:2|0:1,0:0:0:0:
362,96,102790,2,0,L|281:105,1,80.9999975280763,8|8,0:2|0:1,0:0:0:0:
67,32,103127,6,0,P|150:25|249:19,1,161.999995056153,14|8,0:2|0:2,0:0:0:0:
214,152,103633,1,10,0:1:0:0:
362,96,103802,2,0,L|442:86,1,80.9999975280763,10|8,0:2|0:1,0:0:0:0:
511,183,104139,2,0,L|430:192,1,80.9999975280763,10|8,0:2|0:1,0:0:0:0:
339,233,104476,5,10,0:2:0:0:
434,299,104644,1,2,0:2:0:0:
431,193,104813,1,8,0:2:0:0:
341,335,104981,2,0,L|260:344,1,80.9999975280763,10|8,0:1|0:2,0:0:0:0:
226,195,105318,1,10,0:1:0:0:
155,238,105487,2,0,L|74:247,1,80.9999975280763,8|10,0:2|0:1,0:0:0:0:
7,96,105824,6,0,L|26:-3,1,80.9999975280763,14|2,0:2|0:2,0:0:0:0:
22,16,106077,1,10,0:2:0:0:
22,16,106161,1,10,0:2:0:0:
151,128,106330,2,0,L|170:29,1,80.9999975280763,10|8,0:2|0:2,0:0:0:0:
166,48,106583,1,8,0:2:0:0:
166,48,106667,1,10,0:2:0:0:
69,165,106835,6,0,L|50:264,1,80.9999975280763,10|10,0:2|0:2,0:0:0:0:
54,245,107088,1,8,0:2:0:0:
54,245,107172,1,12,0:1:0:0:
153,221,107341,5,10,0:2:0:0:
173,219,107425,1,8,0:2:0:0:
193,222,107509,1,8,0:1:0:0:
211,230,107593,1,8,0:3:0:0:
228,242,107678,1,10,0:2:0:0:
304,319,107847,5,8,0:2:0:0:
328,336,107931,1,8,0:3:0:0:
357,346,108015,1,8,0:1:0:0:
387,347,108099,1,8,0:3:0:0:
417,340,108184,2,0,P|437:335|456:331,3,40.4999987640381,8|8|8|8,0:2|0:2|0:2|0:2,0:0:0:0:
512,262,108521,5,10,0:1:0:0:
386,83,109195,5,10,0:3:0:0:
475,31,109363,1,8,0:2:0:0:
475,31,109448,1,8,0:2:0:0:
475,31,109532,1,10,0:2:0:0:
475,31,109616,1,8,0:2:0:0:
475,31,109700,2,0,L|489:113,1,80.9999975280763,12|2,0:1|0:2,0:0:0:0:
417,180,110038,1,10,0:1:0:0:
324,131,110206,2,0,L|244:144,1,80.9999975280763,10|2,0:2|0:2,0:0:0:0:
119,214,110543,5,2,0:2:0:0:
119,214,110711,1,10,0:1:0:0:
79,134,110880,2,0,P|73:94|68:53,1,80.9999975280763,10|0,0:2|0:0,0:0:0:0:
119,214,111217,5,10,0:1:0:0:
119,214,111385,1,2,0:2:0:0:
71,289,111554,2,0,P|38:314|5:337,1,80.9999975280763,10|0,0:2|0:0,0:0:0:0:
119,214,111891,5,10,0:1:0:0:
119,214,112059,1,10,0:1:0:0:
209,219,112228,2,0,P|246:234|283:251,1,80.9999975280763,10|8,0:2|0:1,0:0:0:0:
282,251,112481,1,0,0:0:0:0:
282,251,112566,1,2,0:2:0:0:
383,205,112734,5,10,0:1:0:0:
469,254,112903,2,0,P|477:335|480:362,1,80.9999975280763,10|0,0:2|0:0,0:0:0:0:
476,334,113155,1,8,0:2:0:0:
476,334,113240,1,2,0:3:0:0:
369,196,113408,2,0,L|357:88,2,80.9999975280763,8|8|0,0:1|0:2|0:0,0:0:0:0:
288,267,113914,6,0,B|195:249|225:311|128:286,1,161.999995056153,10|10,0:1|0:2,0:0:0:0:
72,205,114420,1,2,0:2:0:0:
132,287,114588,2,0,L|114:366,1,80.9999975280763,10|8,0:1|0:1,0:0:0:0:
65,198,114925,2,0,L|83:119,1,80.9999975280763,10|8,0:2|0:1,0:0:0:0:
25,41,115262,5,2,0:2:0:0:
101,19,115431,1,10,0:1:0:0:
166,65,115599,1,10,0:2:0:0:
174,145,115768,2,0,P|220:187|327:149,1,161.999995056153,2|10,0:2|0:1,0:0:0:0:
483,242,116273,2,0,P|494:178|500:152,1,80.9999975280763,8|2,0:2|0:2,0:0:0:0:
419,97,116611,6,0,P|404:175|388:262,2,161.999995056153,14|10|10,0:1|0:2|0:2,0:0:0:0:
333,25,117453,1,10,0:1:0:0:
254,107,117622,1,10,0:1:0:0:
91,54,117790,6,0,P|8:67|20:158,1,161.999995056153,10|10,0:2|0:1,0:0:0:0:
168,107,118296,2,0,P|174:66|183:13,1,80.9999975280763,8|2,0:2|0:2,0:0:0:0:
84,156,118633,6,0,L|76:205,12,26.9999991760254,8|8|8|8|8|8|8|8|8|8|8|8|14,0:2|0:2|0:2|0:2|0:2|0:2|0:2|0:2|0:2|0:2|0:2|0:2|0:1,0:0:0:0:
445,360,127397,6,0,P|508:346|510:280,1,135,14|0,0:2|0:0,0:0:0:0:
493,267,127734,1,10,0:2:0:0:
416,244,127903,1,10,0:2:0:0:
347,291,128071,1,10,0:2:0:0:
289,361,128240,1,8,0:1:0:0:
185,380,128408,1,10,0:2:0:0:
84,315,128577,1,8,0:1:0:0:
69,204,128745,6,0,P|77:154|81:114,1,90,10|8,0:2|0:1,0:0:0:0:
211,17,129082,2,0,P|203:67|198:106,1,90,10|0,0:2|0:0,0:0:0:0:
289,148,129420,1,10,0:2:0:0:
322,142,129504,1,8,0:2:0:0:
355,147,129588,1,8,0:2:0:0:
385,162,129672,1,8,0:2:0:0:
409,185,129757,2,0,L|421:116,3,45,10|8|8|8,0:2|0:2|0:2|0:2,0:0:0:0:
352,274,130094,6,0,P|418:224|508:250,2,180,14|14|10,0:1|0:2|0:1,0:0:0:0:
284,368,130936,1,8,0:1:0:0:
168,346,131105,2,0,P|165:292|157:234,1,90,10|0,0:2|0:0,0:0:0:0:
231,169,131442,5,10,0:1:0:0:
293,236,131611,1,10,0:1:0:0:
383,243,131780,1,10,0:2:0:0:
448,177,131948,1,2,0:2:0:0:
391,23,132116,5,10,0:1:0:0:
300,18,132285,1,10,0:1:0:0:
231,77,132454,1,10,0:2:0:0:
231,169,132622,1,2,0:2:0:0:
383,243,132790,6,0,P|378:281|372:332,1,90,10|10,0:1|0:1,0:0:0:0:
189,369,133127,2,0,P|193:324|200:279,1,90,8|0,0:2|0:0,0:0:0:0:
105,164,133464,2,0,P|109:119|116:74,2,90,8|8|10,0:1|0:1|0:2,0:0:0:0:
45,324,133970,6,0,P|119:267|222:297,1,180,10|10,0:1|0:1,0:0:0:0:
281,215,134476,2,0,P|305:251|306:296,1,90,10|0,0:2|0:0,0:0:0:0:
154,373,134813,2,0,P|97:299|127:195,1,180,10|10,0:1|0:2,0:0:0:0:
177,141,135318,5,2,0:2:0:0:
177,141,135403,1,0,0:0:0:0:
176,141,135487,2,0,P|100:181|7:147,2,180,14|10|10,0:1|0:2|0:1,0:0:0:0:
230,54,136330,1,8,0:1:0:0:
335,48,136498,2,0,P|395:81|402:112,1,90,10|0,0:2|0:0,0:0:0:0:
494,178,136835,5,10,0:1:0:0:
466,266,137003,1,10,0:1:0:0:
382,301,137172,1,10,0:2:0:0:
297,268,137341,1,2,0:2:0:0:
211,337,137509,5,10,0:1:0:0:
126,370,137678,1,10,0:1:0:0:
42,335,137847,1,14,0:2:0:0:
14,247,138015,1,2,0:2:0:0:
14,247,138099,1,0,0:0:0:0:
14,247,138184,6,0,P|63:237|101:228,1,90,14|10,0:2|0:1,0:0:0:0:
169,124,138521,1,10,0:2:0:0:
12,78,138689,2,0,P|87:134|183:115,1,180,14|10,0:1|0:1,0:0:0:0:
252,202,139195,1,10,0:2:0:0:
294,30,139363,6,0,P|280:118|267:208,1,180,14|10,0:1|0:1,0:0:0:0:
360,277,139869,2,0,P|364:232|371:184,1,90,14|10,0:2|0:1,0:0:0:0:
454,100,140206,1,8,0:2:0:0:
454,100,140290,1,8,0:2:0:0:
454,100,140375,1,8,0:2:0:0:
512,205,140543,5,8,0:2:0:0:
512,205,140627,1,8,0:2:0:0:
512,205,140712,2,0,L|448:195,1,45,8|0,0:1|0:0,0:0:0:0:
370,187,140880,1,2,0:2:0:0:
370,187,141217,6,0,P|300:240|209:216,1,180,14|10,0:2|0:2,0:0:0:0:
119,195,141723,1,8,0:1:0:0:
39,257,141891,2,0,P|15:220|20:177,1,90,10|12,0:2|0:1,0:0:0:0:
20,176,142144,1,0,0:0:0:0:
20,176,142229,5,2,0:2:0:0:
55,94,142397,1,10,0:1:0:0:
144,64,142566,1,10,0:2:0:0:
230,93,142735,1,2,0:2:0:0:
337,23,142903,5,10,0:1:0:0:
423,50,143072,1,10,0:1:0:0:
477,126,143241,1,10,0:2:0:0:
457,213,143409,1,2,0:2:0:0:
481,323,143577,6,0,P|437:312|393:304,1,90,14|10,0:1|0:1,0:0:0:0:
272,181,143914,2,0,P|315:191|359:199,1,90,8|0,0:2|0:0,0:0:0:0:
261,301,144251,2,0,P|216:292|173:282,2,90,8|8|10,0:1|0:1|0:2,0:0:0:0:
373,379,144757,6,0,P|365:282|359:197,1,180,10|10,0:1|0:1,0:0:0:0:
414,64,145262,2,0,P|438:133|419:170,1,90,10|2,0:2|0:2,0:0:0:0:
360,200,145599,1,10,0:1:0:0:
269,169,145768,1,8,0:1:0:0:
198,234,145936,1,10,0:2:0:0:
120,179,146105,5,2,0:2:0:0:
120,179,146189,1,0,0:0:0:0:
120,179,146273,2,0,P|135:86|148:1,2,180,14|10|10,0:1|0:2|0:1,0:0:0:0:
31,245,147116,1,8,0:1:0:0:
105,316,147285,2,0,P|150:304|201:293,1,90,10|0,0:2|0:0,0:0:0:0:
307,340,147622,5,10,0:1:0:0:
388,380,147791,1,10,0:1:0:0:
475,354,147960,1,10,0:2:0:0:
512,269,148128,1,2,0:2:0:0:
404,146,148296,5,8,0:1:0:0:
317,174,148465,1,10,0:1:0:0:
274,254,148634,1,10,0:2:0:0:
307,340,148802,1,10,0:2:0:0:
390,384,148970,5,14,0:1:0:0:
218,325,149139,2,0,P|175:330|128:337,1,90,10|10,0:1|0:2,0:0:0:0:
317,174,149476,2,0,P|360:169|406:161,1,90,10|8,0:1|0:2,0:0:0:0:
235,112,149813,5,8,0:1:0:0:
235,112,149897,1,0,0:0:0:0:
235,112,149981,1,10,0:2:0:0:
383,248,150150,1,8,0:1:0:0:
391,256,150487,5,10,0:1:0:0:
391,256,150571,1,10,0:1:0:0:
391,256,150655,2,0,P|402:204|412:158,1,90,14|10,0:2|0:1,0:0:0:0:
493,94,150993,1,14,0:2:0:0:
404,29,151161,5,8,0:2:0:0:
404,29,151245,1,8,0:2:0:0:
404,29,151330,1,10,0:2:0:0:
404,29,151414,1,8,0:2:0:0:
404,29,151498,1,10,0:2:0:0:
404,29,151582,1,8,0:2:0:0:
404,29,151667,6,0,B|296:19|348:84|228:63,1,180,14|12,0:1|0:2,0:0:0:0:
69,42,152172,5,2,0:2:0:0:
161,10,152341,2,0,L|143:116,1,90,10|8,0:1|0:1,0:0:0:0:
131,182,152678,1,10,0:2:0:0:
30,121,152847,2,0,L|12:227,1,90,10|2,0:1|0:3,0:0:0:0:
0,290,153184,1,10,0:1:0:0:
141,190,153352,2,0,L|125:278,1,90,10|10,0:2|0:1,0:0:0:0:
30,384,153689,6,0,L|14:295,1,90,10|10,0:1|0:1,0:0:0:0:
218,246,154026,2,0,L|233:334,1,90,10|2,0:2|0:2,0:0:0:0:
393,376,154363,5,8,0:1:0:0:
478,364,154532,1,10,0:1:0:0:
509,279,154700,1,10,0:2:0:0:
461,203,154869,2,0,L|476:95,2,90,10|2|10,0:1|0:3|0:1,0:0:0:0:
415,288,155375,5,10,0:2:0:0:
371,142,155543,2,0,L|383:52,2,90,10|2|10,0:1|0:2|0:1,0:0:0:0:
311,282,156049,2,0,L|297:374,1,90,10|10,0:2|0:1,0:0:0:0:
233,209,156386,2,0,B|137:193|171:254|58:244,1,180,2|10,0:2|0:2,0:0:0:0:
4,133,156891,5,0,0:0:0:0:
4,133,156976,1,0,0:0:0:0:
4,133,157060,2,0,L|25:24,1,90,14|2,0:1|0:2,0:0:0:0:
92,155,157397,2,0,L|113:46,1,90,10|10,0:2|0:1,0:0:0:0:
160,237,157734,2,0,L|181:346,1,90,2|10,0:2|0:1,0:0:0:0:
248,215,158071,2,0,L|269:324,1,90,10|10,0:2|0:1,0:0:0:0:
351,134,158408,6,0,L|255:116,1,90,2|10,0:3|0:1,0:0:0:0:
343,219,158745,2,0,L|431:235,1,90,10|10,0:2|0:1,0:0:0:0:
262,117,159082,6,0,L|244:213,1,90,2|10,0:2|0:1,0:0:0:0:
431,235,159419,2,0,L|447:146,1,90,10|10,0:2|0:2,0:0:0:0:
373,41,159757,6,0,L|341:230,1,180,14|8,0:1|0:2,0:0:0:0:
204,103,160262,2,0,L|383:36,1,180,14|10,0:1|0:1,0:0:0:0:
372,40,160684,1,0,0:0:0:0:
372,40,160768,1,10,0:2:0:0:
342,218,160936,2,0,L|194:95,1,180,14|10,0:1|0:1,0:0:0:0:
133,0,161442,2,0,L|113:115,1,90,14|8,0:2|0:1,0:0:0:0:
57,203,161779,2,0,L|167:162,1,90,14|8,0:2|0:1,0:0:0:0:
203,103,162116,1,14,0:2:0:0:
250,199,162285,5,10,0:2:0:0:
250,199,162369,1,10,0:2:0:0:
250,199,162453,2,0,L|221:376,1,180,14|12,0:1|0:2,0:0:0:0:
331,301,162959,2,0,L|359:123,1,180,10|8,0:1|0:1,0:0:0:0:
153,272,163464,6,0,L|330:300,1,180,10|2,0:2|0:3,0:0:0:0:
426,225,163970,2,0,L|248:196,1,180,10|0,0:1|0:0,0:0:0:0:
98,96,164476,6,0,L|112:2,1,90,10|8,0:1|0:1,0:0:0:0:
111,6,164729,1,0,0:0:0:0:
111,6,164813,1,8,0:2:0:0:
119,184,164981,6,0,L|25:170,1,90,2|8,0:2|0:1,0:0:0:0:
29,170,165234,1,0,0:0:0:0:
29,170,165318,1,8,0:1:0:0:
206,164,165487,6,0,L|192:258,1,90,10|8,0:2|0:1,0:0:0:0:
192,253,165740,1,0,0:0:0:0:
192,253,165824,1,2,0:3:0:0:
185,76,165993,6,0,L|279:90,1,90,10|8,0:1|0:2,0:0:0:0:
275,90,166245,1,0,0:0:0:0:
275,90,166329,1,8,0:1:0:0:
399,208,166498,6,0,L|488:221,1,90,2|8,0:2|0:1,0:0:0:0:
469,43,166835,2,0,L|455:132,1,90,10|8,0:2|0:1,0:0:0:0:
337,284,167172,2,0,L|369:89,1,180,2|8,0:2|0:2,0:0:0:0:
290,22,167678,5,0,0:0:0:0:
290,22,167762,1,0,0:0:0:0:
290,22,167847,2,0,B|181:3|232:73|114:56,1,180,14|10,0:1|0:2,0:0:0:0:
0,149,168352,2,0,B|109:133|59:198|179:191,1,180,8|8,0:1|0:1,0:0:0:0:
256,139,168858,1,8,0:2:0:0:
243,310,169026,6,0,L|272:127,1,180,10|10,0:1|0:1,0:0:0:0:
193,16,169532,2,0,L|173:124,1,90,10|10,0:2|0:1,0:0:0:0:
343,242,169869,2,0,L|359:153,1,90,2|8,0:2|0:1,0:0:0:0:
374,54,170206,1,8,0:2:0:0:
374,54,170375,1,8,0:2:0:0:
271,132,170543,6,0,L|254:220,1,90,14|10,0:1|0:1,0:0:0:0:
254,220,170796,1,10,0:1:0:0:
254,220,170880,1,10,0:2:0:0:
298,333,171049,2,0,L|200:311,1,90,14|0,0:1|0:0,0:0:0:0:
173,190,171386,2,0,L|85:170,1,90,10|10,0:1|0:2,0:0:0:0:
32,342,171723,6,0,P|118:328|209:313,1,180,14|10,0:2|0:1,0:0:0:0:
348,247,172229,1,10,0:2:0:0:
420,366,172397,1,10,0:1:0:0:
420,366,172481,1,10,0:2:0:0:
420,366,172566,2,0,L|441:273,1,90,10|10,0:2|0:2,0:0:0:0:
339,236,172903,2,0,L|358:148,1,90,10|10,0:2|0:2,0:0:0:0:
502,26,173240,6,0,P|446:62|371:49,1,144,14|8,0:1|0:2,0:0:0:0:
287,4,173745,1,2,0:2:0:0:
223,64,173914,2,0,L|251:217,1,144,10|10,0:1|0:2,0:0:0:0:
170,367,174420,2,0,L|154:267,2,72,8|2|10,0:1|0:2|0:1,0:0:0:0:
261,320,174925,2,0,L|356:337,1,72,10|0,0:2|0:0,0:0:0:0:
416,248,175262,5,2,0:2:0:0:
416,248,175430,1,10,0:1:0:0:
473,311,175599,2,0,L|454:385,1,72,10|0,0:2|0:0,0:0:0:0:
416,248,175936,5,10,0:1:0:0:
416,248,176104,1,2,0:2:0:0:
443,167,176273,2,0,L|512:147,1,72,10|0,0:2|0:0,0:0:0:0:
416,248,176610,5,2,0:2:0:0:
416,248,176778,1,10,0:1:0:0:
333,265,176947,2,0,L|282:214,1,72,10|10,0:2|0:1,0:0:0:0:
205,134,177285,2,0,L|184:236,1,72,2|10,0:2|0:1,0:0:0:0:
93,240,177622,2,0,L|63:388,2,144,10|8|8,0:2|0:1|0:2,0:0:0:0:
0,14,178633,6,0,P|74:71|139:46,1,144,10|8,0:1|0:2,0:0:0:0:
224,30,179139,1,2,0:2:0:0:
224,30,179307,2,0,L|212:109,1,72,2|10,0:2|0:1,0:0:0:0:
294,168,179644,2,0,L|304:96,1,72,10|10,0:2|0:1,0:0:0:0:
441,37,179981,6,0,L|530:26,2,72,2|10|10,0:2|0:1|0:2,0:0:0:0:
313,105,180487,1,10,0:1:0:0:
313,105,180571,1,8,0:1:0:0:
313,105,180655,2,0,L|401:121,1,72,8|10,0:2|0:1,0:0:0:0:
512,186,180993,2,0,L|424:202,1,72,10|10,0:1|0:2,0:0:0:0:
376,264,181330,5,10,0:1:0:0:
