osu file format v14

[General]
AudioFilename: audio.mp3
AudioLeadIn: 0
PreviewTime: 45
Countdown: 0
SampleSet: Soft
StackLeniency: 0.5
Mode: 0
LetterboxInBreaks: 0
WidescreenStoryboard: 1

[Editor]
Bookmarks: 10257,20470,30683,40896,48555,51108,56215,76640
DistanceSpacing: 1.3
BeatDivisor: 4
GridSize: 16
TimelineZoom: 1.8

[Metadata]
Title:Minori no Zokkon Mirai Yohou (TV Size)
TitleUnicode:みのりのぞっこん未来予報♡ (TV Size)
Artist:Nakazawa Minori (CV: Hanazawa Kana)
ArtistUnicode:中沢農 (CV: 花澤香菜)
Creator:reiSevia
Version:Suou's Hard
Source:のうりん
Tags:shirahane_suou shirahane suou no-rin nourin norin japanese pop jpop j-pop anime ending kippu ed female vocal vocals short roda totsuki roda_totsuki
BeatmapID:2930634
BeatmapSetID:1423080

[Difficulty]
HPDrainRate:4
CircleSize:3.8
OverallDifficulty:6
ApproachRate:8
SliderMultiplier:1.4
SliderTickRate:1

[Events]
//Background and Video events
0,0,"minori.jpg",0,0
//Break Periods
//Storyboard Layer 0 (Background)
//Storyboard Layer 1 (Fail)
//Storyboard Layer 2 (Pass)
//Storyboard Layer 3 (Foreground)
//Storyboard Layer 4 (Overlay)
//Storyboard Sound Samples

[TimingPoints]
45,319.148936170213,4,2,1,50,1,0
45,-111.111111111111,4,2,1,50,0,0
9140,-111.111111111111,4,2,1,35,0,0
9938,-111.111111111111,4,2,1,70,0,0
10257,-111.111111111111,4,2,1,65,0,0
19193,-111.111111111111,4,2,1,75,0,0
20470,-133.333333333333,4,2,1,60,0,0
38342,-111.111111111111,4,2,1,60,0,0
40896,-111.111111111111,4,2,1,65,0,0
51108,-111.111111111111,4,2,1,75,0,0
51747,-111.111111111111,4,2,1,65,0,0
52385,-111.111111111111,4,2,1,55,0,0
53023,-111.111111111111,4,2,1,45,0,0
53662,-111.111111111111,4,2,1,55,0,0
54300,-111.111111111111,4,2,1,65,0,0
54938,-111.111111111111,4,2,1,75,0,0
56215,-100,4,2,1,80,0,1
62837,-100,4,2,1,5,0,1
62917,-100,4,2,1,80,0,1
63475,-100,4,2,1,5,0,1
63555,-100,4,2,1,80,0,1
76241,-111.111111111111,4,2,1,80,0,0
76640,-111.111111111111,4,2,1,50,0,0
85736,-111.111111111111,4,2,1,35,0,0
86853,-111.111111111111,4,2,1,45,0,0
88289,-111.111111111111,4,2,1,25,0,0

[Colours]
Combo1 : 250,180,240
Combo2 : 120,200,230
Combo3 : 255,230,130
Combo4 : 160,230,150

[HitObjects]
152,88,45,5,2,3:2:0:0:
319,174,523,2,0,L|373:162,2,31.4999990386963,0|0|2,1:2|1:2|3:2,0:0:0:0:
176,299,1162,2,0,L|122:287,2,31.4999990386963,0|0|2,1:2|1:2|3:2,0:0:0:0:
253,273,1481,2,0,L|265:327,2,31.4999990386963,0|0|8,3:2|3:2|0:0,0:0:0:0:
193,216,1800,2,0,P|172:182|205:98,1,125.999996154785,6|2,3:2|3:2,0:0:0:0:
267,64,2279,2,0,L|345:74,1,62.9999980773926,8|2,0:0|0:0,0:0:0:0:
398,116,2598,5,2,3:2:0:0:
295,287,3076,2,0,L|303:336,2,31.4999990386963,8|8|2,0:3|0:3|3:2,0:0:0:0:
164,153,3715,2,0,L|172:104,2,31.4999990386963,4|4|10,0:3|0:3|0:0,0:0:0:0:
105,210,4034,2,0,L|56:218,2,31.4999990386963,0|0|8,3:2|3:2|0:0,0:0:0:0:
180,242,4353,2,0,L|157:383,1,125.999996154785,6|2,3:2|3:2,0:0:0:0:
79,382,4832,2,0,L|89:319,1,62.9999980773926,10|0,0:0|3:2,0:0:0:0:
74,215,5151,5,2,3:2:0:0:
254,17,5789,1,2,3:2:0:0:
426,209,6427,2,0,L|418:277,2,62.9999980773926,2|8|8,3:2|0:0|0:0,0:0:0:0:
365,153,6906,2,0,L|225:189,1,125.999996154785,6|2,3:2|3:2,0:0:0:0:
185,242,7385,2,0,L|135:234,2,31.4999990386963,10|0|2,3:2|0:0|3:2,0:0:0:0:
249,292,7704,5,2,3:2:0:0:
74,97,8342,2,0,L|6:111,2,62.9999980773926,2|10|10,3:2|0:0|0:0,0:0:0:0:
137,45,8821,5,6,3:2:0:0:
137,45,9938,2,0,L|201:60,1,62.9999980773926,2|0,0:1|0:0,0:0:0:0:
267,103,10257,6,0,P|326:62|401:87,2,125.999996154785,6|10|2,3:2|0:0|3:2,0:0:0:0:
214,166,11055,1,2,0:0:0:0:
271,225,11215,1,10,0:0:0:0:
211,280,11374,6,0,P|179:276|132:272,1,62.9999980773926,14|0,0:0|0:0,0:0:0:0:
75,234,11693,2,0,P|55:199|65:161,1,62.9999980773926,2|8,3:2|0:0,0:0:0:0:
44,95,12013,2,0,B|71:69|105:75|105:75|115:106|145:114,1,125.999996154785,2|0,0:0|0:0,0:0:0:0:
222,84,12491,2,0,P|235:48|227:20,1,62.9999980773926,8|0,0:0|0:0,0:0:0:0:
349,10,12810,6,0,P|324:49|345:129,2,125.999996154785,2|10|2,3:2|0:0|3:2,0:0:0:0:
404,70,13608,1,2,0:0:0:0:
476,30,13768,1,10,0:0:0:0:
509,104,13927,6,0,P|497:166|490:228,1,125.999996154785,14|0,0:0|3:2,0:0:0:0:
501,309,14406,1,8,0:0:0:0:
363,219,14725,2,0,P|331:224|301:233,1,62.9999980773926,0|0,3:2|0:0,0:0:0:0:
252,300,15045,2,0,P|221:291|190:286,1,62.9999980773926,8|2,0:0|0:0,0:0:0:0:
159,259,15284,1,2,0:0:0:0:
159,259,15364,6,0,P|178:220|170:186,1,62.9999980773926,2|0,3:2|0:0,0:0:0:0:
145,125,15683,2,0,P|113:130|83:136,1,62.9999980773926,10|0,0:0|0:0,0:0:0:0:
5,224,16002,6,0,P|36:229|66:235,1,62.9999980773926,2|0,3:2|0:0,0:0:0:0:
94,313,16321,2,0,P|106:348|91:390,1,62.9999980773926,10|0,0:0|0:0,0:0:0:0:
213,383,16640,6,0,P|208:352|220:323,1,62.9999980773926,2|0,3:2|0:0,0:0:0:0:
270,258,16959,2,0,P|300:251|331:246,1,62.9999980773926,10|0,0:0|0:0,0:0:0:0:
433,290,17279,6,0,P|446:256|433:217,1,62.9999980773926,2|0,3:2|0:0,0:0:0:0:
412,155,17598,2,0,P|415:123|419:92,1,62.9999980773926,10|0,0:0|0:0,0:0:0:0:
366,29,17917,6,0,P|328:47|283:36,1,62.9999980773926,2|0,3:2|0:0,0:0:0:0:
248,107,18236,2,0,P|282:130|295:175,1,62.9999980773926,8|0,0:0|0:0,0:0:0:0:
327,222,18555,2,0,L|385:231,2,31.4999990386963,10|2|2,0:0|0:0|0:0,0:0:0:0:
312,302,18874,2,0,L|343:306,2,31.4999990386963,10|2|2,0:0|0:0|0:0,0:0:0:0:
246,252,19193,5,10,0:0:0:0:
185,307,19353,1,10,0:0:0:0:
130,246,19513,1,10,0:0:0:0:
191,191,19672,1,10,0:0:0:0:
191,190,20470,6,0,P|196:138|205:87,1,105.000004005432,2|0,3:2|0:0,0:0:0:0:
150,25,20949,2,0,P|98:34|46:39,1,105.000004005432,2|2,3:2|0:0,0:0:0:0:
0,108,21427,1,2,1:2:0:0:
90,210,21747,6,0,P|80:261|75:313,1,105.000004005432,0|2,3:2|0:0,0:0:0:0:
120,384,22225,1,2,3:2:0:0:
220,291,22545,2,0,P|261:277|324:313,1,105.000004005432,2|2,1:2|1:2,0:0:0:0:
393,340,23023,6,0,P|399:287|407:236,1,105.000004005432,2|0,3:2|1:2,0:0:0:0:
459,173,23502,2,0,P|452:120|444:69,1,105.000004005432,0|0,3:2|0:0,0:0:0:0:
384,12,23981,1,0,1:2:0:0:
315,59,24140,6,0,P|264:49|212:41,1,105.000004005432
156,166,24779,2,0,P|181:161|207:157,1,52.5000020027161,0|0,3:2|0:0,0:0:0:0:
288,190,25098,2,0,P|263:234|277:283,1,105.000004005432,2|2,1:2|1:2,0:0:0:0:
335,344,25576,6,0,P|386:333|438:325,1,105.000004005432,2|0,3:2|1:2,0:0:0:0:
501,271,26055,2,0,P|509:239|472:178,1,105.000004005432,2|2,3:2|0:0,0:0:0:0:
405,136,26534,1,2,1:2:0:0:
288,190,26853,6,0,P|235:183|183:178,1,105.000004005432,0|2,3:2|1:2,0:0:0:0:
105,154,27332,2,0,P|87:127|108:56,1,105.000004005432,2|2,3:2|0:0,0:0:0:0:
158,0,27810,1,2,1:2:0:0:
259,91,28130,6,0,P|310:83|363:78,1,105.000004005432,2|0,3:2|1:2,0:0:0:0:
420,141,28608,2,0,P|445:119|521:130,2,105.000004005432,0|0|0,3:2|0:0|0:0,0:0:0:0:
354,192,29406,5,0,3:2:0:0:
354,192,29566,2,0,L|364:264,1,52.5000020027161,0|0,0:0|1:2,0:0:0:0:
388,322,29885,1,0,3:2:0:0:
252,384,30204,2,0,P|259:332|268:280,1,105.000004005432,10|10,0:0|0:0,0:0:0:0:
213,220,30683,6,0,P|175:211|124:251,1,105.000004005432,2|0,3:2|1:2,0:0:0:0:
49,280,31162,2,0,P|41:228|32:176,1,105.000004005432,2|2,3:2|0:0,0:0:0:0:
1,100,31640,1,2,1:2:0:0:
111,19,31959,6,0,P|127:50|203:52,1,105.000004005432,0|2,3:2|1:2,0:0:0:0:
267,25,32438,1,2,3:2:0:0:
250,160,32757,2,0,P|301:150|353:143,1,105.000004005432,2|2,1:2|1:2,0:0:0:0:
413,84,33236,6,0,P|441:105|450:176,1,105.000004005432,2|0,3:2|1:2,0:0:0:0:
512,279,33715,2,0,P|460:269|408:262,1,105.000004005432,2|0,3:2|0:0,0:0:0:0:
324,343,34193,2,0,L|310:282,1,52.5000020027161,2|0,1:2|0:0,0:0:0:0:
257,227,34513,6,0,P|221:221|164:258,1,105.000004005432,2|0,3:2|1:2,0:0:0:0:
97,302,34991,1,0,3:2:0:0:
8,198,35310,1,2,3:2:0:0:
8,198,35470,2,0,L|21:143,1,52.5000020027161,10|2,0:0|0:0,0:0:0:0:
68,76,35789,6,0,P|96:55|164:66,1,105.000004005432,2|0,3:2|1:2,0:0:0:0:
246,49,36268,2,0,P|250:83|206:137,1,105.000004005432,2|2,3:2|0:0,0:0:0:0:
139,180,36747,1,2,1:2:0:0:
215,293,37066,6,0,P|242:267|314:272,1,105.000004005432,0|2,3:2|1:2,0:0:0:0:
383,307,37545,1,2,3:2:0:0:
383,307,37704,1,0,0:0:0:0:
434,241,37864,2,0,L|407:124,1,105.000004005432,10|6,0:3|0:3,0:0:0:0:
374,62,38342,6,0,L|300:79,1,62.9999980773926,2|0,3:2|3:2,0:0:0:0:
208,103,38662,1,2,3:2:0:0:
466,210,39300,6,0,L|392:227,1,62.9999980773926,2|0,3:2|3:2,0:0:0:0:
300,251,39620,1,2,3:2:0:0:
147,191,39938,6,0,P|177:213|181:277,1,94.499997116089,2|0,0:1|1:2,0:0:0:0:
173,285,40257,1,8,1:2:0:0:
428,372,40896,6,0,P|397:344|414:261,1,125.999996154785,6|0,3:2|0:0,0:0:0:0:
463,207,41374,1,0,3:2:0:0:
463,207,41534,2,0,L|427:67,1,125.999996154785,10|2,0:0|0:0,0:0:0:0:
286,160,42172,6,0,P|254:163|225:152,2,62.9999980773926,2|8|2,0:0|0:0|3:2,0:0:0:0:
338,230,42651,1,2,3:2:0:0:
338,230,42810,2,0,L|325:314,1,62.9999980773926,8|0,0:0|3:2,0:0:0:0:
312,373,43130,1,0,0:0:0:0:
204,249,43449,6,0,P|167:233|87:281,1,125.999996154785,0|0,3:2|0:0,0:0:0:0:
22,305,43927,1,2,3:2:0:0:
22,305,44087,2,0,L|8:231,1,62.9999980773926,10|0,0:0|3:2,0:0:0:0:
56,175,44406,1,10,0:2:0:0:
21,14,44725,6,0,P|79:-3|131:29,1,125.999996154785,2|2,0:0|3:2,0:0:0:0:
198,85,45204,1,2,3:2:0:0:
198,85,45364,1,8,0:0:0:0:
153,153,45523,2,0,L|176:296,1,125.999996154785,0|8,3:2|0:0,0:0:0:0:
233,346,46002,6,0,P|274:307|349:329,1,125.999996154785,0|0,3:2|0:0,0:0:0:0:
412,360,46481,1,0,3:2:0:0:
412,360,46640,2,0,L|427:292,1,62.9999980773926,10|0,0:0|0:0,0:0:0:0:
478,235,46959,2,0,P|451:217|420:215,1,62.9999980773926,10|0,0:0|3:2,0:0:0:0:
341,238,47279,5,2,0:0:0:0:
429,100,47598,2,0,L|366:91,1,62.9999980773926,10|0,0:0|0:0,0:0:0:0:
302,40,47917,2,0,L|294:4,2,31.4999990386963,10|8|8,0:3|0:3|0:3,0:0:0:0:
248,102,48236,2,0,L|240:138,2,31.4999990386963,2|0|0,3:2|3:2|3:2,0:0:0:0:
189,44,48555,6,0,P|149:37|92:100,1,125.999996154785,6|8,3:2|0:0,0:0:0:0:
37,153,49034,1,0,0:0:0:0:
37,153,49193,2,0,L|54:236,1,62.9999980773926,0|0,3:2|0:0,0:0:0:0:
105,275,49513,1,8,0:0:0:0:
182,208,49672,6,0,P|223:195|288:242,1,125.999996154785,8|0,0:0|0:0,0:0:0:0:
346,295,50151,2,0,P|324:317|294:322,1,62.9999980773926,10|0,0:0|0:0,0:0:0:0:
219,287,50470,1,2,3:2:0:0:
219,287,50630,1,2,0:0:0:0:
169,351,50789,2,0,L|104:363,1,62.9999980773926,10|2,0:0|0:0,0:0:0:0:
25,281,51108,6,0,L|53:142,1,125.999996154785,2|8,3:2|0:0,0:0:0:0:
113,105,51587,1,0,0:0:0:0:
113,105,51747,2,0,L|195:125,1,62.9999980773926,0|0,3:2|0:0,0:0:0:0:
235,174,52066,1,8,0:0:0:0:
282,107,52225,6,0,L|265:37,1,62.9999980773926,8|0,0:0|3:2,0:0:0:0:
193,7,52545,1,0,0:0:0:0:
193,7,52704,2,0,L|123:24,1,62.9999980773926,8|0,0:0|0:0,0:0:0:0:
50,8,53023,2,0,P|16:49|54:120,1,125.999996154785,0|8,3:2|0:0,0:0:0:0:
184,188,53662,6,0,L|330:161,1,125.999996154785,2|8,3:2|0:0,0:0:0:0:
363,105,54140,1,0,0:0:0:0:
363,105,54300,2,0,L|449:121,1,62.9999980773926,0|0,3:2|0:0,0:0:0:0:
492,171,54619,1,8,0:0:0:0:
492,171,54779,1,8,0:0:0:0:
432,269,54938,6,0,L|408:199,1,62.9999980773926,6|0,3:2|0:0,0:0:0:0:
337,243,55257,2,0,P|304:254|271:243,1,62.9999980773926,6|0,3:2|0:0,0:0:0:0:
249,224,55497,1,0,0:0:0:0:
249,224,55576,2,0,L|266:150,1,62.9999980773926,14|0,0:0|0:0,0:0:0:0:
281,82,55896,2,0,L|209:66,1,62.9999980773926,14|0,0:0|0:0,0:0:0:0:
113,19,56215,6,0,P|99:51|112:95,1,70,6|0,3:2|0:0,0:0:0:0:
141,168,56534,2,0,P|109:182|65:169,1,70,10|0,0:0|0:0,0:0:0:0:
9,238,56853,1,2,3:2:0:0:
9,238,57013,2,0,L|27:326,1,70,2|8,0:0|0:0,0:0:0:0:
124,359,57332,6,0,P|154:324|244:340,1,140,14|0,0:0|0:0,0:0:0:0:
325,365,57810,2,0,L|341:288,1,70,10|0,0:0|0:0,0:0:0:0:
345,208,58130,1,2,3:2:0:0:
345,208,58289,2,0,L|272:226,1,70,2|8,0:0|0:0,0:0:0:0:
164,229,58608,6,0,L|191:89,1,140,6|0,3:2|0:0,0:0:0:0:
243,17,59087,2,0,L|318:36,1,70,10|0,0:0|0:0,0:0:0:0:
397,5,59406,2,0,P|417:41|413:83,1,70,2|0,3:2|0:0,0:0:0:0:
392,159,59725,1,10,0:0:0:0:
392,159,59885,1,8,0:0:0:0:
431,241,60045,6,0,L|348:241,1,70,2|0,3:2|0:0,0:0:0:0:
296,176,60364,2,0,L|213:176,1,70,10|0,0:0|0:0,0:0:0:0:
180,256,60683,1,10,0:3:0:0:
180,256,60842,2,0,P|169:301|182:336,1,70,6|8,0:3|0:0,0:0:0:0:
55,367,61162,6,0,P|72:309|35:222,1,140,6|0,3:2|0:0,0:0:0:0:
4,155,61640,2,0,L|93:140,1,70,8|0,0:0|0:0,0:0:0:0:
132,74,61959,2,0,L|221:89,1,70,0|0,3:2|3:2,0:0:0:0:
266,157,62279,1,8,0:0:0:0:
266,157,62438,1,8,0:0:0:0:
194,213,62598,6,0,P|174:256|203:313,1,105,2|0,3:2|0:0,0:0:0:0:
204,317,62917,2,0,L|277:312,1,70,10|0,0:0|0:0,0:0:0:0:
377,357,63236,2,0,P|391:323|372:250,1,105,2|0,3:2|0:0,0:0:0:0:
367,248,63555,2,0,L|377:174,1,70,10|0,0:0|0:0,0:0:0:0:
442,78,63874,6,0,P|409:53|310:77,1,140,2|8,3:2|0:0,0:0:0:0:
226,0,64353,2,0,P|201:32|225:132,1,140,2|0,0:0|0:0,0:0:0:0:
266,200,64832,2,0,L|184:221,1,70,8|8,0:0|0:0,0:0:0:0:
109,239,65151,5,8,0:0:0:0:
323,317,65470,1,8,0:0:0:0:
240,356,65630,2,0,L|228:314,2,35,0|8|10,3:2|0:0|0:0,0:0:0:0:
149,366,65949,1,6,3:2:0:0:
149,366,66108,2,0,L|56:357,1,70,2|2,0:0|0:0,0:0:0:0:
64,355,66348,1,2,0:0:0:0:
54,347,66427,6,0,L|63:267,1,70,6|0,3:2|0:0,0:0:0:0:
106,201,66747,2,0,P|117:154|92:125,1,70,10|0,0:0|0:0,0:0:0:0:
68,54,67066,1,2,3:2:0:0:
68,54,67225,2,0,L|154:39,1,70,2|8,0:0|0:0,0:0:0:0:
257,49,67545,6,0,P|225:87|253:191,1,140,14|0,0:0|0:0,0:0:0:0:
300,234,68023,2,0,L|372:220,1,70,10|0,0:0|0:0,0:0:0:0:
431,154,68342,1,2,3:2:0:0:
431,154,68502,2,0,L|503:168,1,70,2|8,0:0|0:0,0:0:0:0:
508,290,68821,6,0,P|467:283|403:368,1,140,6|0,3:2|0:0,0:0:0:0:
318,381,69300,2,0,L|304:301,1,70,10|0,0:0|0:0,0:0:0:0:
230,261,69619,2,0,L|244:181,1,70,2|0,3:2|0:0,0:0:0:0:
308,129,69938,1,10,0:0:0:0:
308,129,70098,1,8,0:0:0:0:
241,66,70257,6,0,L|159:89,1,70,2|0,3:2|0:0,0:0:0:0:
90,46,70576,2,0,B|76:79|76:79|92:123,1,70,10|0,0:0|0:0,0:0:0:0:
31,184,70896,1,2,3:2:0:0:
31,184,71055,2,0,L|98:202,1,70,2|8,0:0|0:0,0:0:0:0:
188,284,71374,6,0,B|213:245|253:251|253:251|270:286|298:291,1,140,6|0,3:2|0:0,0:0:0:0:
380,253,71853,2,0,P|396:198|336:131,1,140,10|0,0:0|3:2,0:0:0:0:
285,71,72332,1,2,0:0:0:0:
242,151,72491,1,8,0:0:0:0:
242,151,72651,1,8,0:0:0:0:
166,100,72810,6,0,L|92:104,1,70,2|0,3:2|0:0,0:0:0:0:
68,191,73130,2,0,L|137:187,1,70,10|0,0:0|0:0,0:0:0:0:
205,248,73449,2,0,P|250:262|289:238,1,70,2|0,3:2|0:0,0:0:0:0:
320,179,73768,2,0,L|302:93,1,70,10|0,0:0|0:0,0:0:0:0:
278,23,74087,5,2,3:2:0:0:
481,113,74406,2,0,B|453:156|453:156|483:244,1,140,8|0,0:0|3:2,0:0:0:0:
468,330,74885,1,0,0:0:0:0:
390,292,75045,1,8,0:0:0:0:
390,292,75204,1,8,0:0:0:0:
325,356,75364,5,10,0:0:0:0:
244,153,75683,1,10,0:0:0:0:
196,229,75842,2,0,L|213:294,2,35,0|8|8,3:2|0:0|0:0,0:0:0:0:
157,111,76162,1,2,3:2:0:0:
25,318,76640,5,2,3:2:0:0:
204,384,77119,2,0,L|244:374,2,31.4999990386963,0|0|2,1:2|1:2|3:2,0:0:0:0:
64,214,77757,2,0,L|24:204,2,31.4999990386963,0|0|2,1:2|1:2|3:2,0:0:0:0:
139,179,78076,2,0,L|179:169,2,31.4999990386963,0|0|8,3:2|3:2|0:0,0:0:0:0:
74,126,78396,2,0,P|53:96|86:11,1,125.999996154785,6|2,3:2|3:2,0:0:0:0:
156,40,78874,2,0,P|186:32|217:27,1,62.9999980773926,8|2,0:0|0:0,0:0:0:0:
303,14,79193,5,2,3:2:0:0:
416,168,79672,2,0,L|425:109,2,31.4999990386963,8|8|2,0:3|0:3|3:2,0:0:0:0:
253,265,80310,2,0,L|244:206,2,31.4999990386963,4|4|10,0:3|0:3|0:0,0:0:0:0:
299,333,80630,2,0,L|290:392,2,31.4999990386963,0|0|8,3:2|3:2|0:0,0:0:0:0:
339,261,80949,2,0,P|373:284|458:247,1,125.999996154785,6|2,3:2|3:2,0:0:0:0:
488,189,81427,2,0,L|483:125,1,62.9999980773926,10|0,0:0|3:2,0:0:0:0:
432,61,81747,5,2,3:2:0:0:
253,265,82385,1,2,3:2:0:0:
135,63,83023,2,0,L|147:-4,2,62.9999980773926,2|8|8,3:2|0:0|0:0,0:0:0:0:
75,119,83502,2,0,B|87:168|87:168|78:191|78:191|95:245,1,125.999996154785,6|2,3:2|3:2,0:0:0:0:
165,279,83981,2,0,L|234:264,1,62.9999980773926,10|2,0:0|0:0,0:0:0:0:
282,205,84300,5,2,3:2:0:0:
135,36,84938,2,0,L|119:117,2,62.9999980773926,2|10|10,3:2|0:0|0:0,0:0:0:0:
214,82,85417,5,6,3:2:0:0:
204,245,85736,1,10,0:0:0:0:
131,283,85896,1,10,0:0:0:0:
93,210,86055,1,2,3:2:0:0:
166,172,86215,1,10,0:0:0:0:
298,267,86534,6,0,L|361:241,1,62.9999980773926,2|0,0:1|0:0,0:0:0:0:
415,186,86853,6,0,B|432:128|432:128|383:59,1,125.999996154785,2|2,0:0|0:0,0:0:0:0:
236,30,87491,2,0,B|219:88|219:88|268:157,1,125.999996154785,2|2,0:0|0:0,0:0:0:0:
339,140,87970,5,2,0:0:0:0:
201,228,88289,2,0,L|124:216,3,62.9999980773926,2|2|2|2,0:0|0:0|0:0|0:0,0:0:0:0:
