osu file format v14

[General]
AudioFilename: audio.mp3
AudioLeadIn: 0
PreviewTime: 45
Countdown: 0
SampleSet: Soft
StackLeniency: 0.5
Mode: 0
LetterboxInBreaks: 0
WidescreenStoryboard: 0

[Editor]
DistanceSpacing: 0.3
BeatDivisor: 4
GridSize: 16
TimelineZoom: 1.8

[Metadata]
Title:Minori no Zokkon Mirai Yohou (TV Size)
TitleUnicode:みのりのぞっこん未来予報♡ (TV Size)
Artist:Nakazawa Minori (CV: Hanazawa Kana)
ArtistUnicode:中沢農 (CV: 花澤香菜)
Creator:reiSevia
Version:Expert
Source:のうりん
Tags:shirahane_suou shirahane suou no-rin nourin norin japanese pop jpop j-pop anime ending kippu ed female vocal vocals short roda totsuki roda_totsuki
BeatmapID:2930631
BeatmapSetID:1423080

[Difficulty]
HPDrainRate:6
CircleSize:4.2
OverallDifficulty:9
ApproachRate:9.2
SliderMultiplier:1.6
SliderTickRate:1

[Events]
//Background and Video events
0,0,"minori.jpg",0,0
//Break Periods
//Storyboard Layer 0 (Background)
//Storyboard Layer 1 (Fail)
//Storyboard Layer 2 (Pass)
//Storyboard Layer 3 (Foreground)
//Storyboard Layer 4 (Overlay)
//Storyboard Sound Samples

[TimingPoints]
45,319.148936170213,4,2,1,50,1,0
1800,-76.9230769230769,4,2,1,50,0,0
2039,-76.9230769230769,4,2,1,5,0,0
2119,-76.9230769230769,4,2,1,50,0,0
2598,-100,4,2,1,50,0,0
4353,-76.9230769230769,4,2,1,50,0,0
5151,-100,4,2,1,50,0,0
6906,-76.9230769230769,4,2,1,50,0,0
7146,-76.9230769230769,4,2,1,5,0,0
7225,-76.9230769230769,4,2,1,50,0,0
9140,-76.9230769230769,4,2,1,35,0,0
9938,-66.6666666666667,4,2,1,70,0,0
9978,-66.6666666666667,4,2,1,5,0,0
10257,-90.9090909090909,4,2,1,65,0,0
11614,-90.9090909090909,4,2,1,5,0,0
11693,-90.9090909090909,4,2,1,65,0,0
15364,-76.9230769230769,4,2,1,65,0,0
15603,-76.9230769230769,4,2,1,5,0,0
15683,-100,4,2,1,65,0,0
16002,-76.9230769230769,4,2,1,65,0,0
16241,-76.9230769230769,4,2,1,5,0,0
16321,-100,4,2,1,65,0,0
16640,-76.9230769230769,4,2,1,65,0,0
16880,-76.9230769230769,4,2,1,5,0,0
16959,-100,4,2,1,65,0,0
19193,-100,4,2,1,75,0,0
20470,-125,4,2,1,60,0,0
24380,-125,4,2,1,5,0,0
24459,-125,4,2,1,60,0,0
39938,-76.9230769230769,4,2,1,60,0,0
40257,-200,4,2,1,60,0,0
40896,-111.111111111111,4,2,1,65,0,0
48555,-100,4,2,1,65,0,0
51108,-100,4,2,1,75,0,0
51747,-100,4,2,1,65,0,0
52385,-100,4,2,1,55,0,0
53023,-100,4,2,1,45,0,0
53662,-100,4,2,1,55,0,0
54300,-100,4,2,1,65,0,0
54938,-100,4,2,1,75,0,0
56215,-90.9090909090909,4,2,1,80,0,1
56454,-90.9090909090909,4,2,1,5,0,1
56534,-90.9090909090909,4,2,1,80,0,1
60284,-90.9090909090909,4,2,1,5,0,1
60364,-90.9090909090909,4,2,1,80,0,1
65151,-76.9230769230769,4,2,1,80,0,0
66427,-90.9090909090909,4,2,1,80,0,1
66667,-90.9090909090909,4,2,1,5,0,1
66747,-90.9090909090909,4,2,1,80,0,1
70497,-90.9090909090909,4,2,1,5,0,1
70576,-90.9090909090909,4,2,1,80,0,1
71853,-76.9230769230769,4,2,1,80,0,1
73050,-76.9230769230769,4,2,1,5,0,1
73130,-90.9090909090909,4,2,1,80,0,1
74007,-90.9090909090909,4,2,1,5,0,1
74087,-90.9090909090909,4,2,1,80,0,1
75364,-66.6666666666667,4,2,1,80,0,0
76640,-100,4,2,1,50,0,0
78396,-76.9230769230769,4,2,1,50,0,0
78635,-76.9230769230769,4,2,1,5,0,0
78715,-76.9230769230769,4,2,1,50,0,0
79193,-100,4,2,1,50,0,0
80949,-76.9230769230769,4,2,1,50,0,0
81747,-100,4,2,1,50,0,0
83502,-76.9230769230769,4,2,1,50,0,0
83741,-76.9230769230769,4,2,1,5,0,0
83821,-76.9230769230769,4,2,1,50,0,0
85736,-76.9230769230769,4,2,1,35,0,0
86853,-76.9230769230769,4,2,1,45,0,0
88289,-76.9230769230769,4,2,1,25,0,0

[Colours]
Combo1 : 250,180,240
Combo2 : 120,200,230
Combo3 : 255,230,130
Combo4 : 160,230,150

[HitObjects]
23,287,45,6,0,P|89:225|163:253,1,160,2|0,3:2|0:0,0:0:0:0:
272,356,523,1,0,1:2:0:0:
277,361,603,1,0,1:2:0:0:
282,366,683,2,0,P|264:266|252:199,1,160,2|0,3:2|0:0,0:0:0:0:
161,76,1162,5,0,1:2:0:0:
154,59,1241,1,0,1:2:0:0:
161,42,1321,1,2,3:2:0:0:
301,0,1481,1,0,3:2:0:0:
301,0,1560,1,0,3:2:0:0:
301,0,1640,1,8,0:0:0:0:
247,181,1800,6,0,B|322:192|333:141|413:160,1,155.999992858887,6|0,3:2|0:0,0:0:0:0:
413,152,2119,1,2,3:2:0:0:
248,65,2279,1,8,0:0:0:0:
348,254,2438,1,2,0:0:0:0:
493,98,2598,6,0,P|461:53|361:65,1,160,2|0,3:2|0:0,0:0:0:0:
224,184,3076,1,8,0:3:0:0:
229,189,3156,1,8,0:3:0:0:
234,193,3236,2,0,P|149:172|68:152,1,160,2|0,3:2|0:0,0:0:0:0:
115,384,3715,5,4,0:3:0:0:
115,384,3795,1,4,0:3:0:0:
115,384,3874,1,10,0:0:0:0:
124,351,3953,1,8,0:0:0:0:
128,317,4033,1,0,3:2:0:0:
127,284,4113,1,0,3:2:0:0:
118,251,4193,1,8,0:0:0:0:
272,353,4353,6,0,B|343:332|343:332|396:370|396:370|462:354,1,207.999990478516,6|2,3:2|3:2,0:0:0:0:
484,339,4752,1,0,3:2:0:0:
477,314,4832,1,10,0:0:0:0:
367,136,4991,1,0,3:2:0:0:
496,200,5151,6,0,P|423:210|311:237,1,160,2|0,3:2|0:0,0:0:0:0:
83,31,5789,2,0,B|125:65|172:59|172:59|186:29|245:12,1,160,2|0,3:2|0:0,0:0:0:0:
221,20,6427,5,2,3:2:0:0:
35,121,6587,1,8,0:0:0:0:
252,180,6747,1,8,0:0:0:0:
109,20,6906,2,0,L|136:182,1,155.999992858887,6|0,3:2|0:0,0:0:0:0:
129,183,7225,1,2,3:2:0:0:
212,47,7385,1,10,0:0:0:0:
24,124,7545,1,2,0:0:0:0:
267,226,7704,5,2,3:2:0:0:
267,226,8342,5,2,3:2:0:0:
116,117,8502,1,10,0:0:0:0:
282,143,8661,1,10,0:0:0:0:
104,201,8821,1,6,3:2:0:0:
104,201,9140,5,2,0:0:0:0:
85,271,9300,1,2,0:0:0:0:
109,339,9459,1,2,0:0:0:0:
167,384,9619,1,2,0:0:0:0:
403,310,9938,6,0,L|394:339,1,30.0000011444092,2|0,0:1|0:0,0:0:0:0:
403,310,10257,6,0,B|416:268|416:268|396:221,1,88.000002685547,6|0,3:2|0:0,0:0:0:0:
256,56,10576,2,0,P|244:100|227:158,1,88.000002685547,10|0,0:0|0:0,0:0:0:0:
343,5,10896,1,2,3:2:0:0:
152,78,11055,1,2,0:0:0:0:
327,166,11215,1,10,0:0:0:0:
99,332,11374,6,0,P|70:284|101:198,1,132.00000402832,14|0,0:0|0:0,0:0:0:0:
96,203,11693,2,0,L|190:217,1,88.000002685547,2|8,3:2|0:0,0:0:0:0:
387,307,12013,1,2,0:0:0:0:
382,302,12092,1,10,0:0:0:0:
377,297,12172,1,2,3:2:0:0:
189,352,12332,1,0,0:0:0:0:
300,191,12491,2,0,L|319:90,1,88.000002685547,8|0,0:0|0:0,0:0:0:0:
55,93,12810,6,0,P|106:108|151:135,1,88.000002685547,2|0,3:2|0:0,0:0:0:0:
345,6,13130,2,0,L|250:29,1,88.000002685547,10|0,0:0|0:0,0:0:0:0:
409,190,13449,1,2,3:2:0:0:
217,123,13608,1,2,0:0:0:0:
421,32,13768,1,10,0:0:0:0:
261,230,13927,6,0,L|78:202,1,176.000005371094,14|0,0:0|3:2,0:0:0:0:
36,312,14406,2,0,P|88:300|127:299,1,88.000002685547,8|0,0:0|0:0,0:0:0:0:
39,104,14725,2,0,P|91:116|130:117,1,88.000002685547,0|0,3:2|0:0,0:0:0:0:
261,230,15045,1,8,0:0:0:0:
181,373,15204,5,2,0:0:0:0:
181,373,15284,1,2,0:0:0:0:
181,372,15364,2,0,B|146:324|146:324|176:228,1,155.999992858887,2|0,3:2|0:0,0:0:0:0:
126,178,15683,2,0,P|170:158|217:171,1,80,10|0,0:0|0:0,0:0:0:0:
400,0,16002,6,0,L|378:160,1,155.999992858887,2|0,3:2|0:0,0:0:0:0:
315,200,16321,2,0,B|296:164|296:164|313:111,1,80,10|0,0:0|0:0,0:0:0:0:
512,336,16640,6,0,B|437:347|426:296|346:315,1,155.999992858887,2|0,3:2|0:0,0:0:0:0:
297,349,16959,2,0,P|331:340|387:339,1,80,10|0,0:0|0:0,0:0:0:0:
85,139,17279,6,0,P|79:186|60:237,1,80,2|0,3:2|0:0,0:0:0:0:
211,371,17598,2,0,P|216:323|236:273,1,80,10|0,0:0|0:0,0:0:0:0:
380,123,17917,6,0,P|403:75|315:39,1,160,2|8,3:2|0:0,0:0:0:0:
325,31,18555,5,10,0:0:0:0:
331,70,18634,1,2,0:0:0:0:
338,109,18714,1,2,0:0:0:0:
344,149,18794,1,2,0:0:0:0:
384,220,18874,5,10,0:0:0:0:
380,243,18953,1,2,0:0:0:0:
376,267,19033,1,2,0:0:0:0:
372,291,19113,1,2,0:0:0:0:
415,359,19193,5,10,0:0:0:0:
194,223,19353,1,10,0:0:0:0:
435,157,19513,1,10,0:0:0:0:
129,365,19672,1,10,0:0:0:0:
129,365,20470,6,0,P|99:309|130:238,1,128,2|0,3:2|0:0,0:0:0:0:
245,294,20949,1,2,3:2:0:0:
245,294,21108,2,0,P|199:300|166:307,1,64,2|2,0:0|0:0,0:0:0:0:
53,153,21427,2,0,P|113:170|205:195,1,128,2|0,1:2|3:2,0:0:0:0:
251,147,21906,1,2,0:0:0:0:
251,147,22066,2,0,P|259:115|255:79,1,64,2|2,0:0|3:2,0:0:0:0:
293,5,22385,1,2,0:0:0:0:
188,29,22545,1,2,1:2:0:0:
340,109,22704,2,0,P|384:101|423:95,1,64,2|2,0:0|1:2,0:0:0:0:
512,205,23023,6,0,B|454:213|446:174|385:188,1,128,2|0,3:2|1:2,0:0:0:0:
321,239,23502,2,0,P|301:288|334:358,1,128,0|0,3:2|0:0,0:0:0:0:
401,289,23981,1,0,1:2:0:0:
240,373,24140,2,0,P|203:349|144:355,1,96
142,361,24459,2,0,L|131:280,1,64,0|0,0:0|1:2,0:0:0:0:
75,236,24779,2,0,P|55:188|88:104,1,128,0|2,3:2|1:2,0:0:0:0:
116,32,25257,1,0,0:0:0:0:
0,73,25417,1,2,1:2:0:0:
149,177,25576,6,0,P|210:167|296:155,1,128,2|0,3:2|1:2,0:0:0:0:
335,99,26055,1,2,3:2:0:0:
335,99,26215,2,0,P|341:61|331:30,1,64,2|2,0:0|0:0,0:0:0:0:
409,145,26534,2,0,P|396:207|379:295,1,128,2|0,1:2|3:2,0:0:0:0:
347,347,27013,1,2,0:0:0:0:
347,347,27172,2,0,P|293:364|273:376,1,64,2|2,1:2|3:2,0:0:0:0:
243,272,27491,2,0,P|274:265|304:252,1,64,2|2,0:0|0:0,0:0:0:0:
185,384,27810,2,0,P|174:350|184:313,1,64,2|2,1:2|0:0,0:0:0:0:
269,182,28130,6,0,P|315:173|382:233,1,128,2|0,3:2|1:2,0:0:0:0:
414,289,28608,2,0,P|426:217|439:138,1,128,0|0,3:2|0:0,0:0:0:0:
493,99,29087,2,0,P|453:76|417:78,1,64,0|0,1:2|0:0,0:0:0:0:
299,57,29406,1,0,3:2:0:0:
436,74,29566,2,0,L|359:89,1,64,0|0,0:0|1:2,0:0:0:0:
226,11,29885,2,0,P|184:9|117:60,1,128,0|10,3:2|0:0,0:0:0:0:
69,149,30364,1,2,0:0:0:0:
37,50,30523,1,10,0:0:0:0:
69,149,30683,6,0,P|84:207|103:284,1,128,2|0,3:2|1:2,0:0:0:0:
175,314,31162,1,2,3:2:0:0:
175,314,31321,2,0,P|182:276|173:244,1,64,2|2,0:0|0:0,0:0:0:0:
236,189,31640,2,0,P|286:201|386:223,1,128,2|0,1:2|3:2,0:0:0:0:
422,360,32119,1,2,0:0:0:0:
484,264,32279,2,0,P|437:274|409:282,1,64,2|2,1:2|3:2,0:0:0:0:
360,217,32598,1,2,0:0:0:0:
433,143,32757,1,2,1:2:0:0:
328,115,32917,1,2,0:0:0:0:
402,41,33076,1,2,1:2:0:0:
360,217,33236,6,0,P|301:230|212:252,1,128,2|0,3:2|1:2,0:0:0:0:
164,345,33715,2,0,B|222:353|230:314|291:328,1,128,2|0,3:2|0:0,0:0:0:0:
169,201,34193,2,0,P|156:247|164:274,1,64,2|0,1:2|0:0,0:0:0:0:
273,174,34513,2,0,P|285:126|256:55,1,128,2|0,3:2|1:2,0:0:0:0:
316,0,34991,2,0,P|357:10|392:19,1,64,0|0,3:2|0:0,0:0:0:0:
465,132,35310,1,2,3:2:0:0:
503,41,35470,1,10,0:0:0:0:
373,104,35630,5,2,0:0:0:0:
373,104,35709,1,2,0:0:0:0:
373,104,35789,2,0,L|393:249,1,128,2|0,3:2|1:2,0:0:0:0:
422,321,36268,1,2,3:2:0:0:
422,321,36427,2,0,P|392:308|360:304,1,64,2|2,0:0|0:0,0:0:0:0:
300,246,36747,2,0,L|157:271,1,128,2|0,1:2|3:2,0:0:0:0:
79,216,37225,1,2,0:0:0:0:
173,268,37385,1,2,1:2:0:0:
73,321,37545,1,2,3:2:0:0:
164,185,37704,5,10,0:0:0:0:
10,264,37864,1,10,0:3:0:0:
158,352,38023,2,0,L|227:340,1,64,2|6,0:0|0:3,0:0:0:0:
221,341,38263,1,0,0:0:0:0:
221,341,38342,5,2,3:2:0:0:
285,238,38502,1,0,3:2:0:0:
234,116,38662,1,2,3:2:0:0:
234,116,39300,5,2,3:2:0:0:
181,58,39459,1,0,3:2:0:0:
229,0,39619,1,2,3:2:0:0:
229,0,40098,6,0,L|221:41,3,25.9999988098145,0|0|0|0,1:2|1:2|1:2|1:2,0:0:0:0:
229,0,40257,6,0,B|261:80|193:68|236:164,1,160,8|6,1:2|3:2,0:0:0:0:
19,243,41374,5,0,3:2:0:0:
19,243,41534,2,0,P|56:231|101:224,1,71.9999978027344,10|0,0:0|0:0,0:0:0:0:
159,370,41853,2,0,P|147:333|161:292,1,71.9999978027344,2|2,0:0|0:0,0:0:0:0:
180,278,42092,1,2,0:0:0:0:
180,278,42172,2,0,L|272:294,1,71.9999978027344,2|8,0:0|0:0,0:0:0:0:
317,167,42491,1,2,3:2:0:0:
227,204,42651,1,2,3:2:0:0:
321,338,42810,6,0,P|336:280|326:253,1,71.9999978027344,8|0,0:0|3:2,0:0:0:0:
215,109,43130,1,0,0:0:0:0:
317,167,43289,1,8,0:0:0:0:
194,236,43449,2,0,P|128:227|42:214,1,143.999995605469,0|0,3:2|0:0,0:0:0:0:
120,314,43927,5,2,3:2:0:0:
120,314,44007,1,2,3:2:0:0:
120,314,44087,2,0,P|131:358|134:392,1,71.9999978027344,10|0,0:0|3:2,0:0:0:0:
283,248,44406,2,0,P|272:204|269:170,1,71.9999978027344,10|0,0:0|3:2,0:0:0:0:
200,132,44725,1,2,0:0:0:0:
353,198,44885,1,8,0:0:0:0:
186,265,45045,1,2,3:2:0:0:
269,177,45204,1,2,3:2:0:0:
357,343,45364,6,0,L|437:331,1,71.9999978027344,8|0,0:0|3:2,0:0:0:0:
512,376,45683,1,0,0:0:0:0:
492,170,45842,1,8,0:0:0:0:
492,170,45922,1,8,0:0:0:0:
492,170,46002,2,0,P|453:197|343:176,1,143.999995605469,0|0,3:2|0:0,0:0:0:0:
292,121,46481,1,0,3:2:0:0:
119,215,46640,6,0,P|76:199|39:196,1,71.9999978027344,10|0,0:0|0:0,0:0:0:0:
207,111,46959,2,0,P|250:127|287:130,1,71.9999978027344,10|0,0:0|3:2,0:0:0:0:
107,120,47279,2,0,L|126:51,1,71.9999978027344,2|0,0:0|3:2,0:0:0:0:
221,209,47598,2,0,L|202:278,1,71.9999978027344,10|0,0:0|0:0,0:0:0:0:
65,383,47917,5,10,0:3:0:0:
62,373,47997,1,8,0:3:0:0:
60,364,48076,1,8,0:3:0:0:
57,354,48156,1,8,0:3:0:0:
55,345,48236,2,0,L|16:350,3,35.9999989013672,2|0|0|0,3:2|3:2|3:2|3:2,0:0:0:0:
201,278,48555,6,0,B|267:269|292:315|370:297,1,160,6|8,3:2|0:0,0:0:0:0:
450,352,49034,1,0,0:0:0:0:
450,352,49193,2,0,P|462:293|455:264,1,80,0|0,3:2|0:0,0:0:0:0:
348,137,49513,1,8,0:0:0:0:
489,193,49672,2,0,P|427:203|317:220,1,160,8|0,0:0|0:0,0:0:0:0:
151,115,50151,6,0,P|163:71|165:19,1,80,10|0,0:0|0:0,0:0:0:0:
64,166,50471,1,2,3:2:0:0:
255,93,50630,1,2,0:0:0:0:
80,5,50790,1,10,0:0:0:0:
181,207,50949,1,2,0:0:0:0:
333,43,51108,5,2,3:2:0:0:
358,31,51187,1,0,0:0:0:0:
385,25,51267,1,0,0:0:0:0:
413,27,51347,1,0,0:0:0:0:
440,36,51428,1,10,0:0:0:0:
463,51,51506,1,0,0:0:0:0:
482,71,51586,1,0,0:0:0:0:
496,95,51666,1,0,0:0:0:0:
503,122,51747,5,2,3:2:0:0:
490,138,51826,1,0,0:0:0:0:
475,151,51906,1,0,0:0:0:0:
458,161,51986,1,0,0:0:0:0:
439,166,52067,1,10,0:0:0:0:
419,168,52145,1,0,0:0:0:0:
399,166,52226,1,10,0:0:0:0:
380,159,52305,1,0,0:0:0:0:
370,155,52385,5,0,3:2:0:0:
361,152,52465,1,0,0:0:0:0:
351,151,52545,1,2,0:0:0:0:
341,152,52625,1,0,0:0:0:0:
331,154,52705,1,10,0:0:0:0:
322,158,52784,1,0,0:0:0:0:
313,163,52864,1,0,0:0:0:0:
305,169,52944,1,0,0:0:0:0:
298,176,53023,5,2,3:2:0:0:
307,180,53102,1,0,0:0:0:0:
316,183,53182,1,0,0:0:0:0:
326,186,53262,1,0,0:0:0:0:
335,187,53343,1,10,0:0:0:0:
345,188,53421,1,0,0:0:0:0:
355,188,53501,1,0,0:0:0:0:
365,187,53581,1,0,0:0:0:0:
375,185,53662,5,2,3:2:0:0:
362,169,53741,1,0,0:0:0:0:
347,156,53821,1,0,0:0:0:0:
330,145,53901,1,0,0:0:0:0:
312,137,53982,1,8,0:0:0:0:
292,132,54060,1,0,0:0:0:0:
272,130,54140,1,0,0:0:0:0:
252,131,54220,1,0,0:0:0:0:
233,135,54300,5,2,3:2:0:0:
208,149,54379,1,0,0:0:0:0:
181,156,54459,1,0,0:0:0:0:
153,155,54539,1,0,0:0:0:0:
127,147,54620,1,10,0:0:0:0:
103,132,54698,1,0,0:0:0:0:
84,111,54779,1,10,0:0:0:0:
71,87,54858,1,0,0:0:0:0:
65,59,54938,5,6,3:2:0:0:
105,66,55017,1,0,0:0:0:0:
138,87,55097,1,0,0:0:0:0:
162,119,55177,1,0,0:0:0:0:
173,157,55257,1,6,3:2:0:0:
169,197,55336,1,0,0:0:0:0:
152,233,55416,1,0,0:0:0:0:
122,259,55496,1,0,0:0:0:0:
75,271,55576,5,14,0:0:0:0:
110,234,55655,1,0,0:0:0:0:
161,225,55735,1,0,0:0:0:0:
209,241,55815,1,0,0:0:0:0:
246,278,55895,5,14,0:0:0:0:
275,321,55974,1,0,0:0:0:0:
313,356,56054,1,0,0:0:0:0:
362,370,56134,1,0,0:0:0:0:
412,359,56215,6,0,P|402:294|386:193,1,132.00000402832,6|0,3:2|0:0,0:0:0:0:
332,176,56534,2,0,P|310:220|328:270,1,88.000002685547,10|0,0:0|0:0,0:0:0:0:
500,123,56853,1,2,3:2:0:0:
345,20,57013,2,0,L|231:43,1,88.000002685547,2|8,0:0|0:0,0:0:0:0:
29,82,57332,6,0,B|67:49|67:49|21:118|61:194,1,176.000005371094,14|0,0:0|0:0,0:0:0:0:
196,346,57810,2,0,P|209:283|180:240,1,88.000002685547,10|0,0:0|0:0,0:0:0:0:
125,214,58130,1,2,3:2:0:0:
293,311,58289,1,2,0:0:0:0:
104,384,58449,1,8,0:0:0:0:
235,177,58608,6,0,P|242:104|252:-10,1,176.000005371094,6|0,3:2|0:0,0:0:0:0:
342,65,59087,2,0,P|354:113|374:153,1,88.000002685547,10|0,0:0|0:0,0:0:0:0:
170,319,59406,2,0,P|158:271|138:231,1,88.000002685547,2|0,3:2|0:0,0:0:0:0:
270,131,59725,1,10,0:0:0:0:
132,77,59885,1,8,0:0:0:0:
300,260,60045,6,0,B|358:268|367:228|430:243,1,132.00000402832,2|0,3:2|0:0,0:0:0:0:
499,280,60364,2,0,P|465:271|409:270,1,88.000002685547,10|0,0:0|0:0,0:0:0:0:
222,375,60683,1,10,0:3:0:0:
185,388,60762,1,8,0:3:0:0:
146,382,60842,1,6,0:3:0:0:
114,360,60922,1,4,0:3:0:0:
96,325,61002,1,8,0:0:0:0:
210,129,61162,6,0,L|175:320,1,176.000005371094,6|0,3:2|0:0,0:0:0:0:
373,384,61640,2,0,B|339:342|345:295|345:295|375:281|392:222,1,176.000005371094,8|0,0:0|3:2,0:0:0:0:
498,98,62119,1,0,3:2:0:0:
296,178,62279,1,8,0:0:0:0:
512,251,62438,1,8,0:0:0:0:
360,17,62598,6,0,P|368:60|383:101,1,88.000002685547,2|0,3:2|0:0,0:0:0:0:
152,367,62917,2,0,P|143:323|128:282,1,88.000002685547,10|0,0:0|0:0,0:0:0:0:
389,257,63236,6,0,P|350:281|303:277,1,88.000002685547,2|0,3:2|0:0,0:0:0:0:
123,127,63555,2,0,P|162:103|209:107,1,88.000002685547,10|0,0:0|0:0,0:0:0:0:
211,270,63874,6,0,B|131:281|119:227|37:247,1,176.000005371094,2|8,3:2|0:0,0:0:0:0:
218,18,64353,2,0,P|206:60|205:132,1,88.000002685547,2|0,0:0|3:2,0:0:0:0:
113,40,64672,1,0,0:0:0:0:
314,79,64832,1,8,0:0:0:0:
86,214,64991,5,8,0:0:0:0:
86,214,65071,1,0,3:2:0:0:
86,214,65151,2,0,P|68:148|104:91,1,103.999995239258,8|0,0:0|3:2,0:0:0:0:
153,165,65390,1,0,3:2:0:0:
163,170,65470,2,0,L|308:151,1,103.999995239258,8|0,0:0|3:2,0:0:0:0:
339,146,65709,1,8,0:0:0:0:
351,144,65789,1,10,0:0:0:0:
171,361,65949,5,6,3:2:0:0:
164,336,66029,1,0,0:0:0:0:
171,311,66108,2,0,L|182:357,6,25.9999988098145,2|0|2|0|2|0|2,0:0|0:0|0:0|0:0|0:0|0:0|0:0,0:0:0:0:
258,343,66427,6,0,B|316:351|325:311|388:326,1,132.00000402832,6|0,3:2|0:0,0:0:0:0:
455,370,66747,2,0,P|466:317|443:264,1,88.000002685547,10|0,0:0|0:0,0:0:0:0:
279,164,67066,1,2,3:2:0:0:
451,45,67225,2,0,P|437:93|421:149,1,88.000002685547,2|8,0:0|0:0,0:0:0:0:
346,358,67545,6,0,P|263:372|194:305,1,176.000005371094,14|0,0:0|0:0,0:0:0:0:
80,169,68023,2,0,P|94:210|101:255,1,88.000002685547,10|0,0:0|0:0,0:0:0:0:
172,133,68342,1,2,3:2:0:0:
1,232,68502,1,2,0:0:0:0:
197,315,68662,1,8,0:0:0:0:
294,95,68821,6,0,L|477:67,1,176.000005371094,6|0,3:2|0:0,0:0:0:0:
196,34,69300,2,0,P|177:86|202:143,1,88.000002685547,10|0,0:0|0:0,0:0:0:0:
316,350,69619,2,0,P|335:298|310:241,1,88.000002685547,2|0,3:2|0:0,0:0:0:0:
272,89,69938,1,10,0:0:0:0:
387,166,70098,1,8,0:0:0:0:
203,268,70257,6,0,P|143:258|57:246,1,132.00000402832,2|0,3:2|0:0,0:0:0:0:
10,283,70576,2,0,B|-10:243|-10:243|18:197,1,88.000002685547,10|0,0:0|0:0,0:0:0:0:
179,124,70896,1,2,3:2:0:0:
13,70,71055,1,2,0:0:0:0:
195,128,71215,1,8,0:0:0:0:
0,368,71374,6,0,P|37:324|164:350,1,176.000005371094,6|0,3:2|0:0,0:0:0:0:
411,271,71853,2,0,B|424:299|424:299|385:353|320:366|252:313,1,207.999990478516,10|0,0:0|3:2,0:0:0:0:
185,165,72332,1,2,0:0:0:0:
293,218,72491,1,8,0:0:0:0:
113,277,72651,1,8,0:0:0:0:
257,99,72810,2,0,P|302:68|392:107,1,155.999992858887,2|0,3:2|0:0,0:0:0:0:
399,110,73130,6,0,P|357:99|311:87,1,88.000002685547,10|0,0:0|0:0,0:0:0:0:
112,65,73449,2,0,P|154:53|194:36,1,88.000002685547,2|0,3:2|0:0,0:0:0:0:
388,243,73768,2,0,P|348:197|257:224,1,132.00000402832,10|0,0:0|0:0,0:0:0:0:
269,210,74087,6,0,L|293:387,1,176.000005371094,2|8,3:2|0:0,0:0:0:0:
292,384,74725,1,0,3:2:0:0:
193,338,74885,1,0,0:0:0:0:
356,260,75045,1,8,0:0:0:0:
159,197,75204,5,8,0:0:0:0:
159,197,75284,1,0,3:2:0:0:
159,197,75364,2,0,B|136:144|136:144|170:77,1,120.000004577637,10|0,0:0|0:0,0:0:0:0:
352,162,75683,2,0,B|375:109|375:109|341:42,1,120.000004577637,10|0,0:0|3:2,0:0:0:0:
254,17,75922,1,8,0:0:0:0:
241,20,76002,1,8,0:0:0:0:
448,235,76162,5,2,3:2:0:0:
448,235,76640,6,0,P|422:193|311:186,1,160,2|0,3:2|0:0,0:0:0:0:
201,271,77118,1,0,1:2:0:0:
206,276,77198,1,0,1:2:0:0:
211,281,77278,2,0,P|289:266|368:252,1,160,2|0,3:2|0:0,0:0:0:0:
447,104,77757,5,0,1:2:0:0:
454,87,77836,1,0,1:2:0:0:
447,70,77916,1,2,3:2:0:0:
327,189,78076,1,0,3:2:0:0:
327,189,78155,1,0,3:2:0:0:
327,189,78235,1,8,0:0:0:0:
164,145,78396,6,0,B|109:153|109:153|75:190|75:190|14:199,1,155.999992858887,6|0,3:2|0:0,0:0:0:0:
15,191,78714,1,2,3:2:0:0:
199,74,78874,1,8,0:0:0:0:
145,276,79033,1,2,0:0:0:0:
0,68,79193,6,0,P|32:23|132:35,1,160,2|0,3:2|0:0,0:0:0:0:
269,154,79671,1,8,0:3:0:0:
264,159,79751,1,8,0:3:0:0:
259,163,79832,2,0,P|344:142|425:122,1,160,2|0,3:2|0:0,0:0:0:0:
337,370,80310,5,4,0:3:0:0:
337,370,80390,1,4,0:3:0:0:
337,370,80470,1,10,0:0:0:0:
341,338,80550,1,8,0:0:0:0:
344,306,80630,1,0,3:2:0:0:
348,274,80708,1,0,3:2:0:0:
351,242,80788,1,8,0:0:0:0:
12,278,80949,6,0,B|114:314|91:173|219:245,1,207.999990478516,6|2,3:2|3:2,0:0:0:0:
223,244,81347,1,0,3:2:0:0:
230,269,81427,1,10,0:0:0:0:
116,367,81586,1,0,3:2:0:0:
25,184,81747,6,0,P|12:92|55:50,1,160,2|0,3:2|0:0,0:0:0:0:
346,159,82385,2,0,P|282:175|176:212,1,160,2|0,3:2|0:0,0:0:0:0:
193,206,83023,5,2,3:2:0:0:
379,105,83183,1,8,0:0:0:0:
162,46,83343,1,8,0:0:0:0:
305,206,83502,2,0,P|291:138|269:41,1,155.999992858887,6|0,3:2|0:0,0:0:0:0:
280,39,83820,1,2,3:2:0:0:
202,179,83980,1,10,0:0:0:0:
390,102,84140,1,2,0:0:0:0:
147,0,84299,5,2,3:2:0:0:
208,355,84937,5,2,3:2:0:0:
119,145,85097,1,10,0:0:0:0:
269,203,85256,1,10,0:0:0:0:
84,295,85416,1,6,3:2:0:0:
84,295,85735,5,10,0:0:0:0:
161,251,85896,1,10,0:0:0:0:
63,307,86054,1,2,3:2:0:0:
237,362,86214,1,10,0:0:0:0:
362,79,86853,5,2,0:0:0:0:
350,108,87013,1,2,0:0:0:0:
352,138,87172,1,2,0:0:0:0:
368,164,87332,1,2,0:0:0:0:
449,221,87491,5,2,0:0:0:0:
465,195,87651,1,2,0:0:0:0:
467,165,87810,1,2,0:0:0:0:
455,136,87970,1,2,0:0:0:0:
289,360,88289,5,2,0:0:0:0:
366,339,88449,1,2,0:0:0:0:
268,282,88608,1,2,0:0:0:0:
345,262,88768,1,2,0:0:0:0:
