osu file format v14

[General]
AudioFilename: audio.mp3
AudioLeadIn: 0
PreviewTime: 45
Countdown: 0
SampleSet: Soft
StackLeniency: 0.7
Mode: 0
LetterboxInBreaks: 0
WidescreenStoryboard: 1

[Editor]
DistanceSpacing: 1
BeatDivisor: 4
GridSize: 4
TimelineZoom: 1.3

[Metadata]
Title:Minori no Zokkon Mirai Yohou (TV Size)
TitleUnicode:みのりのぞっこん未来予報♡ (TV Size)
Artist:Nakazawa Minori (CV: Hanazawa Kana)
ArtistUnicode:中沢農 (CV: 花澤香菜)
Creator:EnuHQ
Version:Normal
Source:のうりん
Tags:no-rin nourin norin japanese pop jpop j-pop anime ending kippu ed female vocal vocals short Pache Knowledge Roda Totsuki reiSevia Swann Kuki1537
BeatmapID:2895947
BeatmapSetID:1404019

[Difficulty]
HPDrainRate:3
CircleSize:3
OverallDifficulty:4
ApproachRate:5.5
SliderMultiplier:0.999999999999999
SliderTickRate:1

[Events]
//Background and Video events
0,0,"image.jpg",0,0
//Break Periods
//Storyboard Layer 0 (Background)
//Storyboard Layer 1 (Fail)
//Storyboard Layer 2 (Pass)
//Storyboard Layer 3 (Foreground)
//Storyboard Layer 4 (Overlay)
//Storyboard Sound Samples

[TimingPoints]
45,319.148936170213,4,2,1,50,1,0
10257,-100,4,2,1,65,0,0
19193,-100,4,2,1,75,0,0
20470,-100,4,2,1,60,0,0
40896,-100,4,2,1,65,0,0
51108,-100,4,2,1,75,0,0
51746,-100,4,2,1,65,0,0
52385,-100,4,2,1,55,0,0
53023,-100,4,2,1,45,0,0
53662,-100,4,2,1,55,0,0
54300,-100,4,2,1,65,0,0
54938,-100,4,2,1,75,0,0
56215,-95.2380952380952,4,2,1,80,0,0
76640,-100,4,2,1,50,0,0
86853,-100,4,2,1,45,0,0

[Colours]
Combo1 : 250,180,240
Combo2 : 120,200,230
Combo3 : 255,230,130
Combo4 : 160,230,150

[HitObjects]
117,142,45,6,0,L|104:37,2,99.9999999999999,2|0|2,3:2|2:0|3:2,2:0:0:0:
190,210,1002,1,0,2:0:0:0:
251,130,1321,2,0,P|254:100|257:75,2,50,2|0|8,3:2|3:2|2:0,2:0:0:0:
282,168,1800,2,0,B|342:159|342:159|376:171|376:171|427:159,1,150,6|8,3:2|2:0,2:0:0:0:
491,236,2598,5,2,3:2:0:0:
409,294,2917,2,0,L|356:288,1,50,0|8,2:0|2:3,2:0:0:0:
318,317,3236,1,2,3:2:0:0:
238,255,3555,1,0,2:0:0:0:
173,178,3874,2,0,L|166:123,2,50,10|0|8,2:0|3:2|2:0,2:0:0:0:
138,213,4353,2,0,L|129:325,1,99.9999999999999,6|2,3:2|3:2,2:0:0:0:
155,355,4832,1,10,2:0:0:0:
251,330,5151,6,0,B|317:338|317:338|350:322,2,99.9999999999999,2|0|2,3:2|2:0|3:2,2:0:0:0:
299,242,6108,1,0,2:0:0:0:
396,219,6427,2,0,L|406:278,2,50,2|8|8,3:2|2:0|2:0,2:0:0:0:
369,176,6906,2,0,L|360:74,1,99.9999999999999,6|2,3:2|3:2,2:0:0:0:
325,41,7385,1,10,2:0:0:0:
235,86,7704,5,2,3:2:0:0:
302,274,8342,2,0,L|311:322,2,50,2|10|10,3:2|2:0|2:0,2:0:0:0:
269,235,8821,1,6,3:2:0:0:
78,265,10257,6,0,L|65:165,1,99.9999999999999,6|10,3:2|2:0,2:0:0:0:
154,120,10896,2,0,L|149:175,2,50,2|2|10,3:2|2:0|2:0,2:0:0:0:
190,85,11374,1,14,2:0:0:0:
244,169,11693,1,2,3:2:0:0:
244,169,11853,2,0,L|346:161,1,99.9999999999999,8|2,2:0|3:2,2:0:0:0:
427,106,12491,1,8,2:0:0:0:
375,20,12810,6,0,B|311:12|311:12|276:23,1,99.9999999999999,2|10,3:2|2:0,2:0:0:0:
216,102,13449,2,0,L|211:157,2,50,2|2|10,3:2|2:0|2:0,2:0:0:0:
179,67,13927,2,0,P|107:68|73:131,1,150,14|8,2:0|2:0,2:0:0:0:
25,218,14725,1,0,3:2:0:0:
87,296,15045,2,0,L|82:354,1,50,8|2,2:0|2:0,2:0:0:0:
118,380,15364,5,2,3:2:0:0:
201,325,15683,2,0,L|209:220,1,99.9999999999999,10|2,2:0|3:2,2:0:0:0:
297,178,16321,1,10,2:0:0:0:
376,237,16640,1,2,3:2:0:0:
463,188,16959,2,0,P|482:138|474:86,1,99.9999999999999,10|2,2:0|3:2,2:0:0:0:
396,32,17598,6,0,P|343:43|295:39,1,99.9999999999999,10|2,2:0|3:2,2:0:0:0:
203,5,18236,1,8,2:0:0:0:
135,78,18555,2,0,L|129:129,2,50,10|2|10,2:0|2:0|2:0,2:0:0:0:
214,138,19193,2,0,L|219:187,2,50,10|10|10,2:0|2:0|2:0,2:0:0:0:
230,91,19672,1,10,2:0:0:0:
384,287,20470,6,0,P|337:270|287:279,1,99.9999999999999,2|0,3:2|2:0,2:0:0:0:
269,326,20949,1,2,3:2:0:0:
269,326,21108,2,0,L|260:224,1,99.9999999999999,2|2,2:0|1:2,2:0:0:0:
190,154,21747,1,0,3:2:0:0:
98,194,22066,2,0,L|93:92,1,99.9999999999999,2|2,2:0|2:0,2:0:0:0:
148,10,22704,1,2,2:0:0:0:
222,76,23023,6,0,P|273:79|325:55,1,99.9999999999999,2|0,3:2|1:2,2:0:0:0:
416,49,23662,2,0,L|421:-6,2,50,0|0|0,2:0|2:0|1:2,2:0:0:0:
461,137,24300,1,0,3:2:0:0:
461,137,24459,1,0,2:0:0:0:
429,232,24779,1,0,3:2:0:0:
343,283,25098,2,0,B|278:291|278:291|246:277,1,99.9999999999999,2|2,1:2|1:2,2:0:0:0:
198,240,25576,5,2,3:2:0:0:
94,130,26055,2,0,B|157:118|157:118|184:130|184:130|255:117,1,150,2|2,3:2|1:2,2:0:0:0:
309,49,26853,2,0,L|312:0,2,50,0|2|2,3:2|2:0|1:2,2:0:0:0:
375,123,27491,2,0,L|387:224,1,99.9999999999999,2|2,2:0|1:2,2:0:0:0:
394,322,28130,6,0,B|331:307|331:307|295:328,1,99.9999999999999,2|0,3:2|1:2,2:0:0:0:
259,355,28608,1,0,3:2:0:0:
192,279,28927,1,0,2:0:0:0:
105,326,29247,1,0,2:0:0:0:
105,326,29406,2,0,L|94:226,1,99.9999999999999,0|0,3:2|1:2,2:0:0:0:
111,179,29885,2,0,L|121:79,1,99.9999999999999,0|10,3:2|2:0,2:0:0:0:
148,37,30364,1,2,2:0:0:0:
239,77,30683,6,0,L|345:69,1,99.9999999999999,2|0,3:2|1:2,2:0:0:0:
425,122,31321,2,0,P|432:180|410:230,1,99.9999999999999,2|2,2:0|1:2,2:0:0:0:
349,291,31959,1,0,3:2:0:0:
299,204,32279,1,2,1:2:0:0:
214,256,32598,2,0,L|208:305,1,50,2|2,2:0|1:2,2:0:0:0:
162,327,32917,2,0,L|167:376,1,50,2|2,2:0|1:2,2:0:0:0:
117,380,33236,5,2,3:2:0:0:
51,311,33555,1,0,1:2:0:0:
51,311,33715,2,0,L|41:201,1,99.9999999999999,2|0,3:2|2:0,2:0:0:0:
71,171,34193,1,2,1:2:0:0:
126,87,34513,1,2,3:2:0:0:
192,158,34832,1,0,1:2:0:0:
192,158,34991,2,0,P|242:164|291:154,1,99.9999999999999,0|2,3:2|3:2,2:0:0:0:
324,118,35470,1,10,2:0:0:0:
406,177,35789,5,2,3:2:0:0:
359,318,36268,1,2,3:2:0:0:
359,318,36427,2,0,B|296:332|296:332|262:312,1,99.9999999999999,2|2,2:0|1:2,2:0:0:0:
200,237,37066,2,0,P|151:224|99:236,1,99.9999999999999,0|2,3:2|1:2,2:0:0:0:
39,313,37704,1,10,2:0:0:0:
127,358,38023,1,2,2:0:0:0:
220,317,38342,6,0,L|212:261,2,50,2|0|2,3:2|3:2|3:2,2:0:0:0:
340,157,39300,2,0,L|348:101,2,50,2|0|2,3:2|3:2|3:2,2:0:0:0:
467,310,40257,1,8,1:2:0:0:
340,157,40896,6,0,P|292:169|237:160,1,99.9999999999999,6|0,3:2|2:0,2:0:0:0:
189,77,41534,2,0,P|140:71|92:85,1,99.9999999999999,10|2,2:0|2:0,2:0:0:0:
53,177,42172,1,2,2:0:0:0:
94,267,42491,1,2,3:2:0:0:
193,258,42810,2,0,L|295:251,1,99.9999999999999,8|0,2:0|2:0,2:0:0:0:
330,292,43289,1,8,2:0:0:0:
330,292,43449,6,0,L|429:298,1,99.9999999999999,0|0,3:2|2:0,2:0:0:0:
498,225,44087,1,10,2:0:0:0:
446,139,44406,1,10,2:0:0:0:
361,86,44725,2,0,P|312:73|263:82,1,99.9999999999999,2|2,2:0|3:2,2:0:0:0:
228,116,45204,1,2,3:2:0:0:
228,116,45364,2,0,P|179:124|130:112,1,99.9999999999999,8|0,2:0|2:0,2:0:0:0:
44,63,46002,6,0,L|24:264,1,200,0|10,3:2|2:0,2:0:0:0:
78,346,46959,1,10,2:0:0:0:
159,288,47279,2,0,P|210:276|264:285,1,99.9999999999999,2|10,2:0|2:0,2:0:0:0:
322,357,47917,2,0,P|371:363|419:351,1,99.9999999999999,10|2,2:3|3:2,2:0:0:0:
473,266,48555,5,6,3:2:0:0:
410,188,48874,1,8,2:0:0:0:
464,104,49193,2,0,L|362:91,1,99.9999999999999,0|8,3:2|2:0,2:0:0:0:
329,126,49672,1,8,2:0:0:0:
329,126,49832,2,0,L|227:135,1,99.9999999999999,0|10,3:2|2:0,3:2:0:0:
153,70,50470,1,2,3:2:0:0:
75,132,50789,1,10,2:0:0:0:
112,224,51108,6,0,L|99:325,2,99.9999999999999,2|10|2,3:2|2:0|3:2,2:0:0:0:
200,177,52066,1,10,2:0:0:0:
276,241,52385,1,0,3:2:0:0:
362,190,52704,2,0,L|374:90,2,99.9999999999999,10|2|10,2:0|3:2|2:0,2:0:0:0:
447,246,53662,6,0,L|459:345,2,99.9999999999999,2|8|2,3:2|2:0|3:2,2:0:0:0:
500,161,54619,1,10,2:0:0:0:
437,82,54938,2,0,L|387:76,1,50,6|0,3:2|2:0,2:0:0:0:
356,37,55257,2,0,L|306:42,1,50,6|0,3:2|2:0,2:0:0:0:
264,70,55576,1,14,2:0:0:0:
175,23,55896,1,14,2:0:0:0:
95,82,56215,6,0,L|85:195,1,105,6|10,3:2|2:0,2:0:0:0:
136,278,56853,1,2,3:2:0:0:
136,278,57013,1,2,2:0:0:0:
213,348,57332,2,0,L|322:334,1,105,14|0,2:0|2:0,2:0:0:0:
352,295,57810,1,10,2:0:0:0:
429,365,58130,1,2,3:2:0:0:
429,365,58289,1,2,2:0:0:0:
494,282,58608,6,0,L|505:178,1,105,6|0,3:2|2:0,2:0:0:0:
464,144,59087,1,10,2:0:0:0:
419,54,59406,2,0,P|369:45|318:59,1,105,2|10,3:2|2:0,2:0:0:0:
293,107,59885,1,8,2:0:0:0:
293,107,60045,1,2,3:2:0:0:
234,194,60364,1,10,2:0:0:0:
325,244,60683,2,0,L|379:237,2,52.5,10|6|8,2:3|2:3|2:0,2:0:0:0:
299,289,61162,6,0,L|191:276,1,105,6|0,3:2|2:0,2:0:0:0:
157,315,61640,1,8,2:0:0:0:
54,291,61959,1,0,3:2:0:0:
8,196,62279,1,8,2:0:0:0:
56,103,62598,2,0,L|160:94,1,105,2|10,3:2|2:0,2:0:0:0:
249,37,63236,1,2,3:2:0:0:
308,123,63555,1,10,2:0:0:0:
222,183,63874,6,0,L|238:294,1,105,2|8,3:2|2:0,2:0:0:0:
285,266,64353,2,0,L|269:377,1,105,2|0,2:0|2:0,2:0:0:0:
321,382,64832,2,0,L|378:374,1,52.5,8|8,2:0|2:0,2:0:0:0:
404,339,65151,1,8,2:0:0:0:
480,267,65470,1,8,2:0:0:0:
393,207,65789,1,10,2:0:0:0:
393,207,65949,2,0,L|409:96,1,105,6|2,3:2|2:0,2:0:0:0:
377,60,66427,6,0,P|328:51|276:67,1,105,6|10,3:2|2:0,2:0:0:0:
194,9,67066,1,2,3:2:0:0:
194,9,67225,1,2,2:0:0:0:
167,109,67545,2,0,L|153:221,1,105,14|0,2:0|2:0,2:0:0:0:
191,249,68023,2,0,L|202:357,1,105,10|2,2:0|3:2,2:0:0:0:
246,380,68502,1,2,2:0:0:0:
335,325,68821,6,0,P|385:337|445:315,1,105,6|0,3:2|2:0,2:0:0:0:
476,289,69300,1,10,2:0:0:0:
399,216,69619,2,0,P|388:145|401:106,1,105,2|10,3:2|2:0,2:0:0:0:
442,85,70098,1,8,2:0:0:0:
442,85,70257,1,2,3:2:0:0:
363,14,70576,1,10,2:0:0:0:
285,85,70896,2,0,L|294:138,2,52.5,2|2|8,3:2|2:0|2:0,2:0:0:0:
265,44,71374,6,0,P|216:36|156:53,1,105,6|0,3:2|2:0,2:0:0:0:
143,98,71853,2,0,L|155:213,1,105,10|0,2:0|3:2,2:0:0:0:
189,241,72332,2,0,P|240:232|289:249,1,105,2|8,2:0|2:0,2:0:0:0:
327,284,72810,1,2,3:2:0:0:
421,237,73130,1,10,2:0:0:0:
403,133,73449,1,2,3:2:0:0:
481,63,73768,1,10,2:0:0:0:
387,14,74087,6,0,B|340:-18|280:5|294:31|239:46|182:2,1,210,2|0,3:2|3:2,2:0:0:0:
111,77,75045,2,0,L|102:133,1,52.5,8|8,2:0|2:0,2:0:0:0:
138,170,75364,1,10,2:0:0:0:
131,275,75683,1,10,2:0:0:0:
221,339,76002,1,8,2:0:0:0:
221,339,76162,2,0,L|334:325,1,105,2|0,3:2|2:0,2:0:0:0:
360,291,76640,6,0,L|371:187,2,99.9999999999999,2|0|2,3:2|2:0|3:2,2:0:0:0:
279,230,77598,1,0,2:0:0:0:
229,143,77917,2,0,L|234:93,2,50,2|0|8,3:2|3:2|2:0,2:0:0:0:
183,164,78396,2,0,B|82:184|82:184|31:160,1,150,6|8,3:2|2:0,2:0:0:0:
9,72,79193,5,2,3:2:0:0:
97,24,79513,2,0,L|159:18,1,50,0|8,2:0|2:3,2:0:0:0:
192,39,79832,1,2,3:2:0:0:
263,112,80151,1,0,2:0:0:0:
341,49,80470,2,0,L|335:-4,2,50,10|0|8,2:0|3:2|2:0,2:0:0:0:
379,79,80949,2,0,P|382:129|365:176,1,99.9999999999999,6|2,3:2|3:2,2:0:0:0:
321,198,81427,1,10,2:0:0:0:
253,271,81747,6,0,L|152:263,2,99.9999999999999,2|0|2,3:2|2:0|3:2,2:0:0:0:
316,347,82704,1,0,2:0:0:0:
400,292,83023,2,0,L|455:282,2,50,2|8|8,3:2|2:0|2:0,2:0:0:0:
363,257,83502,2,0,P|351:208|353:158,1,99.9999999999999,6|2,3:2|3:2,2:0:0:0:
368,110,83981,1,10,2:0:0:0:
284,54,84300,5,2,3:2:0:0:
130,181,84938,2,0,L|127:128,2,50,2|10|10,3:2|2:0|2:0,2:0:0:0:
130,231,85417,1,6,3:2:0:0:
353,384,86853,6,0,L|340:282,1,99.9999999999999,2|2,2:0|2:0,2:0:0:0:
280,204,87491,2,0,L|215:208,2,50,2|2|2,2:0|2:0|2:0,2:0:0:0:
309,163,87970,1,2,2:0:0:0:
