osu file format v14

[General]
AudioFilename: audio.mp3
AudioLeadIn: 0
PreviewTime: 57511
Countdown: 0
SampleSet: Normal
StackLeniency: 0.7
Mode: 1
LetterboxInBreaks: 0
WidescreenStoryboard: 1

[Editor]
Bookmarks: 4475,13405,22335,31265,40196,49126,58056,66986
DistanceSpacing: 0.3
BeatDivisor: 3
GridSize: 8
TimelineZoom: 1.3

[Metadata]
Title:Poppin' Up! (TV Size)
TitleUnicode:Poppin' Up! (TV Size)
Artist:Nakasu Kasumi (CV: Sagara Mayu)
ArtistUnicode:中須かすみ (CV: 相良茉優)
Creator:-Maruko-
Version:Sammu's Kantan
Source:ラブライブ!虹ヶ咲学園スクールアイドル同好会
Tags:LoveLive! Love Live! Nijigasaki High School Idol Club project Gakuen Doukoukai Dokokai nijigaku ニジガク insert song solo pop jpop j-pop anime japanese TVサイズ Kasumin かすみん Ayaka Miyake クボナオキ Kubo Naoki 縄田寿志 Nawata Hisashi Sammu arcpotato 中須かすみ(CV.相良茉優) Nakasu Kasumi(CV.Sagara Mayu) tv edit female vocal ラブライブ!スクールアイドルフェスティバルALL STARS Love Live! School Idol Festival ALL STARS LLSIFAS SIFAS LLSIF video mobile rhythm game bushiroad mynet games inc.
BeatmapID:3855019
BeatmapSetID:1872077

[Difficulty]
HPDrainRate:8
CircleSize:5
OverallDifficulty:3
ApproachRate:5
SliderMultiplier:1.4
SliderTickRate:1

[Events]
//Background and Video events
0,0,"bg.jpg",0,100
//Break Periods
//Storyboard Layer 0 (Background)
//Storyboard Layer 1 (Fail)
//Storyboard Layer 2 (Pass)
//Storyboard Layer 3 (Foreground)
//Storyboard Layer 4 (Overlay)
//Storyboard Sound Samples

[TimingPoints]
25,279.06976744186,4,1,0,60,1,0
4397,-125,4,1,0,70,0,0
22164,-125,4,1,0,65,0,0
40118,-125,4,1,0,60,0,0
55745,-125,4,1,0,65,0,0
56304,-125,4,1,0,70,0,0
56862,-125,4,1,0,75,0,0
57420,-125,4,1,0,80,0,0
58071,-125,4,1,0,80,0,1
75931,-125,4,1,0,70,0,0
87092,-125,4,1,0,60,0,0
87371,-125,4,1,0,50,0,0
87650,-125,4,1,0,40,0,0
87929,-125,4,1,0,30,0,0

[HitObjects]
260,189,25,5,0,0:0:0:0:
260,189,862,1,8,0:0:0:0:
260,189,1141,1,0,0:0:0:0:
260,189,1978,1,8,0:0:0:0:
260,189,2257,1,0,0:0:0:0:
260,189,3094,1,8,0:0:0:0:
330,254,3373,1,0,0:0:0:0:
326,255,4490,1,4,0:0:0:0:
326,255,4769,1,8,0:0:0:0:
323,254,5048,1,8,0:0:0:0:
322,253,5606,1,0,0:0:0:0:
212,151,6071,1,8,0:0:0:0:
261,198,7001,1,8,0:0:0:0:
261,198,7280,1,8,0:0:0:0:
261,198,7838,1,0,0:0:0:0:
261,198,8304,1,8,0:0:0:0:
261,198,9234,1,8,0:0:0:0:
261,198,9513,1,8,0:0:0:0:
261,198,10071,1,0,0:0:0:0:
261,198,10536,1,8,0:0:0:0:
310,195,11094,1,4,0:0:0:0:
261,198,11745,1,0,0:0:0:0:
261,198,12304,1,12,0:0:0:0:
261,198,12862,1,8,0:0:0:0:
261,198,13327,1,4,0:0:0:0:
316,356,13699,1,8,0:0:0:0:
323,254,13978,1,8,0:0:0:0:
322,253,14536,1,0,0:0:0:0:
261,198,15001,1,8,0:0:0:0:
261,198,15931,1,8,0:0:0:0:
261,198,16211,1,8,0:0:0:0:
261,198,16769,1,0,0:0:0:0:
261,198,17234,1,8,0:0:0:0:
261,198,18164,1,8,0:0:0:0:
261,198,18443,1,8,0:0:0:0:
261,198,19001,1,0,0:0:0:0:
261,198,19466,1,8,0:0:0:0:
310,195,20024,1,4,0:0:0:0:
261,198,20676,1,8,0:0:0:0:
353,194,21234,1,8,0:0:0:0:
331,140,21792,1,2,0:0:0:0:
294,115,22257,1,4,0:0:0:0:
245,203,24024,1,8,0:0:0:0:
245,203,24862,1,8,0:0:0:0:
245,203,25141,1,8,0:0:0:0:
245,203,25699,1,0,0:0:0:0:
245,203,26815,1,0,0:0:0:0:
270,203,27373,1,8,0:0:0:0:
270,203,27931,1,0,0:0:0:0:
270,203,28490,1,8,0:0:0:0:
270,203,28769,1,0,0:0:0:0:
270,203,29048,1,8,0:0:0:0:
358,166,30164,1,0,0:0:0:0:
67,288,30722,1,0,0:0:0:0:
324,177,31187,1,12,0:0:0:0:
270,203,31838,1,8,0:0:0:0:
270,203,32397,1,0,0:0:0:0:
190,210,32955,1,0,0:0:0:0:
270,203,33234,1,8,0:0:0:0:
197,83,33792,1,8,0:0:0:0:
261,204,34071,1,8,0:0:0:0:
223,175,34629,1,0,0:0:0:0:
335,148,35745,1,8,0:0:0:0:
242,152,36304,1,0,0:0:0:0:
251,198,36862,1,8,0:0:0:0:
251,198,37420,1,8,0:0:0:0:
385,124,37699,1,0,0:0:0:0:
271,187,37978,1,8,0:0:0:0:
130,122,39094,1,0,0:0:0:0:
251,198,39652,1,8,0:0:0:0:
251,198,40211,1,0,0:0:0:0:
251,198,40769,1,8,0:0:0:0:
251,198,41234,1,0,0:0:0:0:
251,198,42443,1,0,0:0:0:0:
251,198,43001,1,8,0:0:0:0:
251,198,43466,1,8,0:0:0:0:
105,256,44118,1,0,0:0:0:0:
18,54,45234,1,8,0:0:0:0:
251,198,45699,1,0,0:0:0:0:
382,149,46908,1,8,0:0:0:0:
251,198,47466,1,0,0:0:0:0:
297,205,47931,1,0,0:0:0:0:
251,198,48583,1,8,0:0:0:0:
251,198,49699,1,12,0:0:0:0:
251,198,50164,1,0,0:0:0:0:
249,211,51373,1,0,0:0:0:0:
249,211,51931,1,8,0:0:0:0:
249,211,52397,1,8,0:0:0:0:
249,211,53048,1,0,0:0:0:0:
249,211,53606,1,8,0:0:0:0:
249,211,55838,1,8,0:0:0:0:
249,211,56397,1,8,0:0:0:0:
249,211,56955,1,0,0:0:0:0:
249,211,57513,5,4,0:0:0:0:
464,38,58071,1,8,0:0:0:0:
257,204,58629,1,0,0:0:0:0:
257,204,59094,1,8,0:0:0:0:
257,204,59745,1,0,0:0:0:0:
311,119,60211,1,8,0:0:0:0:
257,204,60862,1,0,0:0:0:0:
257,204,61141,1,0,0:0:0:0:
257,204,61420,1,8,0:0:0:0:
388,204,61978,1,0,0:0:0:0:
257,204,62536,1,8,0:0:0:0:
257,204,63094,1,0,0:0:0:0:
257,204,63559,1,8,0:0:0:0:
393,229,64211,1,8,0:0:0:0:
330,171,64676,1,0,0:0:0:0:
295,197,65885,1,12,0:0:0:0:
236,182,66443,1,0,0:0:0:0:
236,182,67001,1,8,0:0:0:0:
147,273,67559,1,0,0:0:0:0:
147,273,68024,1,8,0:0:0:0:
147,273,68676,1,8,0:0:0:0:
201,188,69141,1,8,0:0:0:0:
147,273,69792,1,0,0:0:0:0:
147,273,70071,1,0,0:0:0:0:
147,273,70350,1,8,0:0:0:0:
362,132,70908,1,0,0:0:0:0:
147,273,71466,1,8,0:0:0:0:
147,273,72024,1,0,0:0:0:0:
147,273,72490,1,8,0:0:0:0:
185,269,73141,1,8,0:0:0:0:
269,210,73606,1,0,0:0:0:0:
247,170,74815,1,8,0:0:0:0:
355,197,75094,1,0,0:0:0:0:
504,244,75373,1,8,0:0:0:0:
338,245,75931,1,4,0:0:0:0:
247,170,76490,1,8,0:0:0:0:
247,170,76955,1,8,0:0:0:0:
247,170,77606,1,0,0:0:0:0:
247,170,78164,1,8,0:0:0:0:
247,170,78722,1,0,0:0:0:0:
68,183,79187,1,8,0:0:0:0:
247,170,80118,1,0,0:0:0:0:
111,193,80397,1,8,0:0:0:0:
377,185,80955,1,0,0:0:0:0:
280,188,81420,1,8,0:0:0:0:
280,188,82071,1,0,0:0:0:0:
149,172,82350,1,8,0:0:0:0:
287,189,82629,1,0,0:0:0:0:
202,166,83745,1,12,0:0:0:0:
465,240,84304,1,12,0:0:0:0:
206,167,84862,1,12,0:0:0:0:
93,170,85420,1,0,0:0:0:0:
256,192,85885,1,8,0:0:0:0:
259,166,86815,1,4,0:0:0:0:
256,192,87094,12,0,88211,0:0:0:0:
