osu file format v14

[General]
AudioFilename: audio.mp3
AudioLeadIn: 1730
PreviewTime: 59931
Countdown: 0
SampleSet: Soft
StackLeniency: 0.4
Mode: 0
LetterboxInBreaks: 0
EpilepsyWarning: 1
WidescreenStoryboard: 1

[Editor]
DistanceSpacing: 1.2
BeatDivisor: 4
GridSize: 16
TimelineZoom: 1.5

[Metadata]
Title:Diamond
TitleUnicode:ダイアモンド
Artist:Nakasu Kasumi (CV: Sagara Mayu)
ArtistUnicode:中須かすみ (CV: 相良茉優)
Creator:STCapricorn
Version:Shining
Source:ラブライブ!スクールアイドルフェスティバル ALL STARS
Tags:game size short ver. 虹ヶ咲学園スクールアイドル同好会 LoveLive! Love Live! Nijigasaki High School Idol Club Gakuen Doukoukai Dokokai NijiGaku ニジガク festival llsif sifas llas オールスターズ スクスタ sukusuta PDP Perfect Dream Project TOKIMEKI Runners 1st Album Kasumin かすみん Video Game Anime pop Jpop J-pop Japanese solo female vocalist caps 鈴木エレカ Suzuki Ereca JOE tasuku
BeatmapID:2313705
BeatmapSetID:901878

[Difficulty]
HPDrainRate:5
CircleSize:4
OverallDifficulty:8.4
ApproachRate:9
SliderMultiplier:1.7
SliderTickRate:1

[Events]
//Background and Video events
0,0,"kasumi2.jpg",0,0
Video,-1730,"video.m4v"
//Break Periods
//Storyboard Layer 0 (Background)
//Storyboard Layer 1 (Fail)
//Storyboard Layer 2 (Pass)
//Storyboard Layer 3 (Foreground)
//Storyboard Layer 4 (Overlay)
//Storyboard Sound Samples

[TimingPoints]
360,342.857142857143,4,2,1,60,1,0
1088,-100,4,2,1,58,0,0
1131,-100,4,2,1,56,0,0
1174,-100,4,2,1,54,0,0
1217,-100,4,2,1,52,0,0
1260,-100,4,2,1,50,0,0
1302,-100,4,2,1,48,0,0
1345,-100,4,2,1,46,0,0
1388,-100,4,2,1,44,0,0
1431,-100,4,2,1,42,0,0
1474,-100,4,2,1,40,0,0
1517,-100,4,2,1,38,0,0
1560,-100,4,2,1,36,0,0
1602,-100,4,2,1,34,0,0
1645,-100,4,2,1,32,0,0
1731,-100,4,2,1,80,0,0
3788,-100,4,2,1,70,0,0
4474,-100,4,2,1,80,0,0
9274,-100,4,2,1,70,0,0
9960,-100,4,2,1,80,0,0
12188,-200,4,2,1,80,0,0
12702,-200,4,2,1,50,0,0
15274,-166.666666666667,4,2,1,70,0,0
18188,-166.666666666667,4,2,1,60,0,0
18531,-142.857142857143,4,2,1,65,0,0
18874,-125,4,2,1,70,0,0
19217,-111.111111111111,4,2,1,75,0,0
19560,-111.111111111111,4,2,1,80,0,0
20588,-166.666666666667,4,2,1,80,0,0
20845,-166.666666666667,4,2,1,5,0,0
20931,-66.6666666666667,4,2,1,80,0,0
21274,-100,4,2,1,70,0,0
26417,-166.666666666667,4,2,1,70,0,0
26760,-125,4,2,1,70,0,0
27102,-100,4,2,1,70,0,0
27445,-83.3333333333333,4,2,1,70,0,0
27788,-100,4,2,1,80,0,0
31217,-83.3333333333333,4,2,1,70,0,0
31902,-100,4,2,1,80,0,0
34645,-500,4,2,1,80,0,0
37388,-100,4,2,1,80,0,0
48360,-100,4,2,1,30,0,0
49302,-100,4,2,1,5,0,0
49731,-125,4,2,1,60,0,0
56588,-125,4,2,1,70,0,0
57960,-125,4,2,1,80,0,0
60017,-100,4,2,1,60,0,0
60360,-90.9090909090909,4,2,1,70,0,0
60702,-83.3333333333333,4,2,1,80,0,1
70988,-100,4,2,1,70,0,0
71674,-83.3333333333333,4,2,1,80,0,1
78617,-83.3333333333333,4,2,1,5,0,1
78702,-83.3333333333333,4,2,1,80,0,1
79388,-83.3333333333333,4,2,1,80,0,1
79560,-250,4,2,1,80,0,1
79817,-250,4,2,1,5,0,1
79902,-83.3333333333333,4,2,1,80,0,1
81274,-100,4,2,1,80,0,0
81960,-500,4,2,1,80,0,0
82645,-333.333333333333,4,2,1,60,0,0
82988,-333.333333333333,4,2,1,5,0,0
83160,-250,4,2,1,70,0,0
85302,-250,4,2,1,5,0,0
85388,-100,4,2,1,80,0,0
96360,-133.333333333333,4,2,1,80,0,0
99102,-125,4,2,1,5,0,0

[Colours]
Combo1 : 129,141,254
Combo2 : 142,214,35
Combo3 : 255,228,28
Combo4 : 252,134,3

[HitObjects]
313,63,360,5,8,2:0:0:0:
228,278,531,1,8,2:0:0:0:
95,169,874,5,4,3:0:0:0:
99,173,960,1,4,3:0:0:0:
103,177,1045,2,0,L|98:208,14,21.25,10|2|2|2|10|2|2|2|10|2|2|2|2|2|2,2:3|2:0|2:0|2:0|2:3|2:0|2:0|2:0|2:3|2:0|2:0|2:0|2:0|2:0|2:0,2:0:0:0:
164,117,1731,37,6,1:2:0:0:
313,154,1902,1,2,2:0:0:0:
207,265,2074,1,10,2:0:0:0:
370,86,2245,2,0,P|331:66|287:68,1,85,4|0,1:2|2:0,2:0:0:0:
126,204,2588,5,0,1:2:0:0:
311,178,2760,1,10,2:0:0:0:
45,169,2931,2,0,P|69:135|108:117,1,85,4|0,1:2|2:0,2:0:0:0:
217,164,3274,37,2,1:2:0:0:
14,317,3445,1,10,2:2:0:0:
166,302,3617,1,2,2:0:0:0:
45,169,3788,6,0,L|130:162,1,85,2|0,1:2|2:0,2:0:0:0:
307,74,4131,2,0,L|222:67,1,85,10|0,2:0|2:0,2:0:0:0:
498,68,4474,37,6,1:2:0:0:
494,64,4560,1,2,2:0:0:0:
490,60,4645,2,0,L|486:8,1,42.5,2|2,2:0|2:0,2:0:0:0:
379,216,4817,1,10,2:0:0:0:
383,220,4902,1,2,2:0:0:0:
387,224,4988,2,0,L|383:276,1,42.5,2|2,2:0|2:0,2:0:0:0:
323,93,5160,5,2,1:2:0:0:
482,226,5331,1,2,1:2:0:0:
277,282,5502,1,10,2:0:0:0:
323,93,5674,2,0,P|366:113|395:149,1,85,6|0,1:2|2:0,2:0:0:0:
357,352,6017,1,0,1:2:0:0:
300,189,6188,1,8,2:0:0:0:
456,316,6360,2,0,P|490:283|503:241,1,85,2|0,1:2|2:0,2:0:0:0:
400,81,6702,1,2,1:2:0:0:
277,282,6874,2,0,L|362:270,1,85,10|0,2:0|2:0,2:0:0:0:
117,214,7217,37,4,1:2:0:0:
247,83,7388,1,0,2:0:0:0:
261,182,7560,1,10,2:0:0:0:
155,38,7731,2,0,P|200:38|237:56,1,85,4|0,1:2|2:0,2:0:0:0:
362,196,8074,5,2,1:2:0:0:
172,137,8245,1,10,2:0:0:0:
411,3,8417,2,0,P|366:3|329:21,1,85,4|0,1:2|2:0,2:0:0:0:
493,108,8760,37,2,1:2:0:0:
373,283,8931,1,10,2:0:0:0:
392,95,9102,1,2,2:0:0:0:
474,296,9274,6,0,L|466:381,1,85,2|0,1:2|2:0,2:0:0:0:
302,212,9617,2,0,L|293:127,1,85,10|0,2:0|2:0,2:0:0:0:
91,280,9960,38,0,P|127:311|178:320,1,85,4|0,1:2|2:0,2:0:0:0:
81,187,10302,2,0,P|36:202|2:242,1,85,8|0,2:2|2:0,2:0:0:0:
168,226,10645,5,0,1:2:0:0:
277,65,10817,1,2,1:2:0:0:
260,271,10988,1,10,2:0:0:0:
151,97,11160,2,0,L|160:13,1,85,6|0,1:2|2:0,2:0:0:0:
248,167,11502,1,2,1:2:0:0:
43,115,11674,1,8,2:0:0:0:
361,52,11845,2,0,L|277:64,1,85,2|0,1:2|2:0,2:0:0:0:
0,16,12188,38,0,P|37:35|79:30,1,85,2|0,1:2|2:0,2:0:0:0:
162,213,12702,5,2,2:0:0:0:
228,265,13045,1,2,2:0:0:0:
306,233,13388,1,2,2:0:0:0:
318,149,13731,37,2,2:0:0:0:
318,149,13902,1,2,2:0:0:0:
252,97,14245,1,2,2:0:0:0:
175,130,14588,5,2,2:0:0:0:
82,111,14760,1,2,2:0:0:0:
194,37,14931,1,2,2:0:0:0:
101,18,15102,1,2,2:0:0:0:
164,152,15274,38,0,L|169:253,1,101.999996887207,6|0,1:2|2:0,2:0:0:0:
273,361,15960,1,6,1:2:0:0:
273,361,16131,2,0,P|298:330|362:334,1,101.999996887207,2|0,2:0|2:0,2:0:0:0:
478,289,16645,1,14,2:0:0:0:
482,293,16731,1,8,2:0:0:0:
486,297,16817,2,0,P|511:263|513:239,1,50.9999984436036,8|0,2:0|2:0,2:0:0:0:
485,168,17331,5,6,3:0:0:0:
489,172,17417,1,6,3:0:0:0:
493,176,17502,1,10,2:0:0:0:
446,67,17674,1,6,3:0:0:0:
390,162,17845,1,6,3:0:0:0:
317,106,18017,1,2,2:0:0:0:
281,182,18188,38,0,P|284:206|302:243,1,50.9999984436036,6|0,1:2|2:0,2:0:0:0:
154,104,18531,2,0,P|180:116|217:115,1,59.4999981842042,2|0,1:2|2:0,2:0:0:0:
19,185,18874,2,0,P|45:161|63:131,1,68,2|0,1:2|2:0,2:0:0:0:
24,349,19217,2,0,P|16:308|-6:269,1,76.4999976654053,2|0,1:2|2:0,2:0:0:0:
258,346,19560,5,2,1:2:0:0:
95,286,19731,1,0,1:0:0:0:
241,260,19902,1,2,1:2:0:0:
111,370,20074,1,0,1:0:0:0:
160,231,20245,37,10,2:0:0:0:
322,289,20417,1,0,1:0:0:0:
292,120,20588,2,0,P|258:104|222:115,1,76.4999976654053,10|0,2:0|2:0,2:0:0:0:
319,104,20931,6,0,P|281:75|205:88,1,127.5,4|0,1:2|2:0,2:0:0:0:
5,63,21274,38,0,P|70:94|84:122,1,85,10|0,2:0|2:0,2:0:0:0:
110,226,21617,2,0,P|141:161|168:143,1,85,2|0,1:2|1:2,2:0:0:0:
208,233,21960,1,10,2:0:0:0:
35,268,22131,2,0,P|24:229|34:186,1,85,2|0,1:2|2:0,2:0:0:0:
195,320,22474,6,0,P|238:315|273:293,1,85,2|8,1:2|0:2,2:0:0:0:
313,94,22817,1,2,1:2:0:0:
139,176,22988,2,0,P|122:216|123:257,1,85,2|0,1:2|1:2,2:0:0:0:
272,293,23331,1,10,2:0:0:0:
233,114,23502,38,0,P|270:94|314:94,1,85,6|0,1:2|2:0,2:0:0:0:
469,143,23845,1,0,1:2:0:0:
251,202,24017,1,8,2:0:0:0:
391,16,24188,1,6,1:2:0:0:
391,16,24360,2,0,P|386:59|402:106,1,85,2|0,2:0|1:2,2:0:0:0:
469,246,24702,1,10,2:0:0:0:
233,114,24874,2,0,P|190:108|143:125,1,85,6|0,1:2|2:0,2:0:0:0:
287,38,25217,2,0,P|331:33|377:49,1,85,2|8,1:2|2:0,2:0:0:0:
512,169,25560,5,2,1:2:0:0:
401,122,25731,1,2,2:0:0:0:
348,186,25902,1,2,1:2:0:0:
380,264,26074,1,10,2:0:0:0:
327,329,26245,1,2,2:0:0:0:
128,293,26417,38,0,P|150:305|193:301,1,50.9999984436036,6|0,1:2|2:0,2:0:0:0:
109,139,26760,2,0,P|114:175|140:213,1,68,10|0,0:2|2:0,2:0:0:0:
241,34,27102,2,0,P|202:59|186:103,1,85,2|0,1:2|2:0,2:0:0:0:
407,105,27445,2,0,P|359:73|304:89,1,101.999996887207,10|0,0:2|2:0,2:0:0:0:
105,208,27788,5,6,1:2:0:0:
227,190,27960,1,0,1:2:0:0:
122,330,28131,1,10,2:0:0:0:
244,313,28302,1,0,1:2:0:0:
105,208,28474,37,10,2:0:0:0:
318,180,28645,1,0,1:2:0:0:
122,330,28817,1,10,2:0:0:0:
156,122,28988,1,0,1:2:0:0:
340,296,29160,5,4,1:2:0:0:
318,180,29331,1,2,2:0:0:0:
455,237,29502,1,10,2:0:0:0:
218,337,29674,2,0,P|227:289|269:234,1,85,6|0,1:2|2:0,2:0:0:0:
213,166,30017,37,2,1:2:0:0:
121,298,30188,1,10,2:0:0:0:
79,57,30360,2,0,P|90:95|123:134,1,85,6|0,1:2|2:0,2:0:0:0:
294,202,30702,5,2,1:2:0:0:
206,40,30874,1,10,2:0:0:0:
137,212,31045,1,2,2:0:0:0:
380,116,31217,38,0,L|278:102,1,101.999996887207,2|0,1:2|2:0,2:0:0:0:
101,34,31560,2,0,L|203:22,1,101.999996887207,10|0,2:0|2:0,2:0:0:0:
383,73,31902,5,6,1:2:0:0:
383,73,31988,1,2,2:0:0:0:
383,73,32074,2,0,L|377:138,1,42.5,2|0,2:0|2:0,2:0:0:0:
264,256,32245,1,10,2:0:0:0:
264,256,32331,1,2,2:0:0:0:
264,256,32417,2,0,L|270:191,1,42.5,2|2,2:0|2:0,2:0:0:0:
279,40,32588,37,2,1:2:0:0:
355,203,32760,1,2,1:2:0:0:
167,126,32931,1,10,2:0:0:0:
379,115,33102,2,0,P|416:133|440:168,1,85,6|0,1:2|2:0,2:0:0:0:
279,40,33445,5,0,1:2:0:0:
267,213,33617,1,10,2:0:0:0:
376,3,33788,2,0,P|420:-3|471:21,1,85,6|0,1:2|2:0,2:0:0:0:
431,252,34131,1,2,2:0:0:0:
279,40,34302,2,0,L|268:149,1,85,8|0,2:0|2:0,2:0:0:0:
140,319,34645,38,0,L|133:217,1,102,6|0,2:0|2:0,2:0:0:0:
42,163,36017,5,0,1:2:0:0:
41,173,36102,1,0,1:2:0:0:
40,183,36188,1,2,1:2:0:0:
39,193,36274,1,0,1:2:0:0:
38,203,36360,1,2,1:2:0:0:
37,213,36445,1,0,1:2:0:0:
36,223,36531,1,0,1:2:0:0:
35,233,36617,1,0,1:2:0:0:
34,243,36702,1,2,1:2:0:0:
33,253,36788,1,0,1:2:0:0:
32,263,36874,1,0,1:2:0:0:
31,273,36960,1,0,1:2:0:0:
30,283,37045,37,8,2:1:0:0:
164,331,37388,22,0,P|154:283|185:239,1,85,6|0,1:2|0:0,0:0:0:0:
294,268,37645,1,2,0:0:0:0:
294,268,37731,2,0,L|229:261,1,42.5,8|0,0:0|0:0,0:0:0:0:
345,194,37902,2,0,L|410:187,1,42.5,2|0,0:0|0:0,0:0:0:0:
459,86,38074,2,0,L|452:149,3,42.5,2|0|0|0,1:2|0:0|0:0|0:0,0:0:0:0:
383,42,38417,2,0,L|376:-21,3,42.5,8|0|0|0,0:0|0:0|0:0|0:0,0:0:0:0:
311,101,38760,6,0,P|255:115|210:81,1,85,2|0,1:2|0:0,0:0:0:0:
164,9,39017,1,2,0:0:0:0:
164,9,39102,2,0,L|159:60,1,42.5,8|0,0:0|0:0,0:0:0:0:
109,161,39274,2,0,L|104:110,1,42.5,2|0,0:0|0:0,0:0:0:0:
39,248,39445,2,0,P|90:243|122:299,1,85,2|0,1:2|0:0,0:0:0:0:
115,355,39702,1,0,0:0:0:0:
115,355,39788,2,0,L|178:348,1,42.5,8|0,2:0|0:0,0:0:0:0:
278,294,39960,2,0,L|215:287,1,42.5,2|0,0:0|0:0,0:0:0:0:
332,217,40131,38,0,P|384:209|415:281,1,127.5,2|0,1:2|0:0,0:0:0:0:
408,332,40474,2,0,L|401:263,1,42.5,10|0,0:0|0:0,0:0:0:0:
444,128,40645,2,0,L|330:116,1,85,2|0,0:0|1:2,0:0:0:0:
156,22,40988,2,0,L|270:10,1,85,2|8,0:0|0:0,0:0:0:0:
114,234,41331,2,0,L|0:222,1,85,2|0,0:0|1:2,0:0:0:0:
223,244,41674,6,0,L|217:297,1,42.5,2|0,0:0|0:0,0:0:0:0:
298,172,41845,2,0,L|292:119,1,42.5,10|0,0:0|0:0,0:0:0:0:
352,258,42017,2,0,L|346:311,1,42.5,2|0,0:0|0:0,0:0:0:0:
440,193,42188,1,2,1:2:0:0:
442,172,42273,1,2,0:0:0:0:
444,151,42359,1,2,0:0:0:0:
446,130,42445,1,2,0:0:0:0:
448,109,42531,38,0,P|436:81|329:85,1,127.5,10|0,0:0|0:0,0:0:0:0:
286,141,42874,2,0,P|344:108|349:69,1,85,6|0,1:2|0:0,0:0:0:0:
197,49,43217,2,0,L|202:100,1,42.5,10|0,0:2|0:2,0:0:0:0:
125,249,43388,6,0,P|117:212|160:151,1,85,2|0,0:0|1:2,0:0:0:0:
279,332,43731,2,0,P|251:357|176:350,1,85,2|8,0:0|0:2,0:0:0:0:
274,158,44074,2,0,P|309:169|341:237,1,85,2|0,0:0|1:2,0:0:0:0:
125,249,44417,1,2,0:0:0:0:
197,33,44588,1,10,0:0:0:0:
218,31,44673,1,2,0:0:0:0:
239,29,44759,1,2,0:2:0:0:
260,27,44845,1,2,0:0:0:0:
281,25,44931,38,0,P|278:71|303:106,1,85,2|0,1:2|0:0,0:0:0:0:
405,198,45274,2,0,P|408:152|383:117,1,85,10|0,0:0|0:0,0:0:0:0:
252,274,45617,2,0,L|361:263,1,85,2|0,1:2|0:0,0:0:0:0:
176,154,45960,2,0,L|181:197,1,42.5,10|0,0:0|0:0,0:0:0:0:
144,384,46131,2,0,L|154:288,1,85,2|0,0:0|1:2,0:0:0:0:
49,189,46474,2,0,L|59:285,1,85,2|8,0:0|0:2,0:0:0:0:
61,92,46817,5,10,2:0:0:0:
427,39,47160,1,10,2:0:0:0:
290,383,47502,1,10,2:0:0:0:
258,170,47674,1,10,2:0:0:0:
397,43,48360,5,2,2:0:0:0:
374,124,48531,1,2,2:0:0:0:
191,81,48960,6,0,B|187:108|173:135|173:135|205:158|205:158|156:210|202:280,1,212.5,2|0,2:0|2:0,2:0:0:0:
396,232,49731,38,0,L|250:217,1,136,6|0,1:2|2:0,2:0:0:0:
205,158,50245,1,2,1:2:0:0:
205,158,50417,2,0,P|166:147|93:220,1,136,10|0,2:0|2:0,2:0:0:0:
134,274,50931,5,2,1:2:0:0:
134,274,51102,2,0,L|201:262,1,68,2|0,0:2|1:2,2:0:0:0:
75,338,51445,1,0,0:0:0:0:
153,384,51617,1,2,1:2:0:0:
153,384,51788,1,10,2:0:0:0:
313,384,52302,37,2,2:0:0:0:
386,347,52474,2,0,L|397:206,1,136,6|2,1:2|2:0,2:0:0:0:
363,133,52988,2,0,P|334:116|300:112,1,68,2|8,1:2|2:0,2:0:0:0:
240,213,53331,2,0,P|274:213|305:199,1,68,2|0,2:0|2:0,2:0:0:0:
274,30,53674,2,0,P|245:46|224:73,1,68,2|0,1:2|2:0,2:0:0:0:
240,213,54017,1,2,1:2:0:0:
138,88,54188,5,2,2:0:0:0:
304,113,54360,1,2,1:2:0:0:
235,280,54531,2,0,L|240:213,1,68,10|0,2:0|2:0,2:0:0:0:
138,88,54874,2,0,L|133:20,1,68,2|0,1:2|2:0,2:0:0:0:
31,331,55217,38,0,L|114:323,1,68,12|0,2:0|2:0,2:0:0:0:
98,162,55560,2,0,L|91:229,1,68,8|0,2:0|2:0,2:0:0:0:
253,229,55902,2,0,L|185:222,1,68,8|0,2:0|2:0,2:0:0:0:
200,384,56245,2,0,L|192:301,1,68,8|0,2:0|2:0,2:0:0:0:
325,182,56588,5,4,1:2:0:0:
134,152,56760,1,8,2:0:0:0:
264,280,56931,1,8,2:0:0:0:
233,89,57102,1,8,2:0:0:0:
155,266,57274,37,8,2:0:0:0:
360,165,57445,1,8,2:0:0:0:
122,130,57617,1,8,2:0:0:0:
281,293,57788,1,8,2:0:0:0:
257,34,57960,5,6,1:2:0:0:
398,214,58131,1,2,2:0:0:0:
398,214,58474,37,8,3:0:0:0:
279,384,58645,1,4,3:0:0:0:
246,374,58731,1,4,3:0:0:0:
217,355,58817,1,4,3:0:0:0:
196,330,58902,1,4,3:0:0:0:
184,298,58988,1,4,3:0:0:0:
181,264,59074,1,4,3:0:0:0:
189,231,59160,1,4,1:2:0:0:
189,231,59502,5,2,1:2:0:0:
125,36,59674,1,2,1:2:0:0:
125,36,60017,38,0,P|85:47|56:78,1,85,2|0,2:0|1:2,2:0:0:0:
101,254,60360,2,0,P|140:308|175:317,1,93.5000028533936,2|0,2:0|2:0,2:0:0:0:
415,155,60702,6,0,B|269:175|269:175|301:183|319:208,1,203.999993774414,6|8,1:2|2:0,2:0:0:0:
291,290,61217,1,2,2:0:0:0:
180,91,61388,2,0,B|249:39|331:72|331:72|305:74|280:87,1,203.999993774414,2|8,1:2|2:0,2:0:0:0:
138,160,61902,37,2,1:2:0:0:
336,213,62074,2,0,B|379:232|388:295|388:295|410:236|457:225,1,203.999993774414,2|8,0:2|2:0,2:0:0:0:
483,318,62588,1,2,2:0:0:0:
405,135,62760,5,2,1:2:0:0:
260,285,62931,1,0,1:2:0:0:
220,47,63102,1,8,2:0:0:0:
336,213,63274,1,2,2:0:0:0:
146,113,63445,38,0,P|121:48|130:6,1,101.999996887207,2|0,1:2|2:0,2:0:0:0:
126,209,63788,1,10,2:0:0:0:
220,47,63960,2,0,P|268:37|315:57,1,101.999996887207,2|0,2:0|1:2,2:0:0:0:
302,216,64302,2,0,P|270:178|259:129,1,101.999996887207,2|8,1:2|2:0,2:0:0:0:
389,184,64645,6,0,P|369:280|274:305,1,203.999993774414,2|2,1:2|1:2,2:0:0:0:
206,232,65074,1,2,0:0:0:0:
206,232,65160,2,0,P|262:210|302:216,1,101.999996887207,10|0,2:0|2:0,2:0:0:0:
140,303,65502,37,0,1:2:0:0:
236,108,65674,1,2,1:2:0:0:
235,320,65845,1,8,2:0:0:0:
145,90,66017,1,2,2:0:0:0:
399,0,66188,2,0,L|386:114,1,101.999996887207,4|0,1:2|2:0,2:0:0:0:
327,262,66531,6,0,P|311:213|313:162,1,101.999996887207,10|0,2:0|2:0,2:0:0:0:
424,285,66874,2,0,P|439:333|437:384,1,101.999996887207,2|0,1:2|1:2,2:0:0:0:
311,249,67217,1,10,2:0:0:0:
489,106,67388,2,0,L|387:101,1,101.999996887207,2|0,1:2|2:0,2:0:0:0:
222,142,67731,1,2,1:2:0:0:
334,19,67902,2,0,P|383:5|433:13,1,101.999996887207,10|0,2:0|2:0,2:0:0:0:
456,276,68245,2,0,P|419:241|401:194,1,101.999996887207,2|0,1:2|1:2,2:0:0:0:
311,249,68588,2,0,L|322:367,1,101.999996887207,10|0,2:0|2:0,2:0:0:0:
222,142,68931,38,0,L|233:24,1,101.999996887207,6|0,1:2|2:0,2:0:0:0:
326,142,69274,1,10,2:0:0:0:
209,243,69445,2,0,P|174:232|126:178,1,101.999996887207,2|0,1:2|2:0,2:0:0:0:
133,75,69788,1,0,1:2:0:0:
212,255,69960,1,10,2:0:0:0:
319,40,70131,2,0,L|326:142,1,101.999996887207,6|0,1:2|2:0,2:0:0:0:
328,284,70474,5,2,1:2:0:0:
125,233,70645,1,10,2:0:0:0:
326,142,70817,1,2,2:0:0:0:
78,147,70988,38,0,P|48:117|36:77,1,85,2|0,1:2|1:2,2:0:0:0:
0,268,71331,1,10,2:0:0:0:
1,281,71417,1,2,1:2:0:0:
2,294,71502,1,2,1:2:0:0:
3,307,71588,1,2,1:2:0:0:
4,320,71674,6,0,P|78:383|174:361,1,203.999993774414,6|8,1:2|2:0,2:0:0:0:
279,211,72188,1,2,2:0:0:0:
279,211,72360,2,0,B|259:337|259:337|246:298|208:280,1,203.999993774414,2|8,1:2|2:0,2:0:0:0:
299,128,72874,1,2,1:2:0:0:
405,347,73045,2,0,P|445:319|419:175,1,203.999993774414,2|8,0:2|2:2,2:0:0:0:
279,211,73560,1,2,0:0:0:0:
467,275,73731,37,2,1:2:0:0:
395,100,73902,1,0,1:2:0:0:
405,347,74074,1,8,2:0:0:0:
430,182,74245,1,2,0:0:0:0:
225,365,74417,6,0,P|270:386|320:379,1,101.999996887207,2|0,1:2|2:0,2:0:0:0:
467,275,74760,1,10,2:0:0:0:
392,108,74931,2,0,P|352:141|341:189,1,101.999996887207,2|0,2:0|1:0,2:0:0:0:
511,358,75274,2,0,P|493:293|449:270,1,101.999996887207,2|8,1:2|2:0,2:0:0:0:
239,159,75617,38,0,P|232:203|351:299,1,203.999993774414,2|2,1:2|1:2,2:0:0:0:
247,362,76045,1,2,0:0:0:0:
247,362,76131,2,0,P|199:330|164:273,1,101.999996887207,10|0,2:0|2:0,2:0:0:0:
123,126,76474,2,0,P|101:172|67:209,1,101.999996887207,2|0,1:2|1:2,2:0:0:0:
0,82,76817,1,10,2:0:0:0:
151,40,76988,1,2,2:0:0:0:
45,297,77160,6,0,P|75:381|152:335,1,203.999993774414,6|8,1:2|2:0,2:0:0:0:
129,151,77674,1,2,2:0:0:0:
308,51,77845,1,2,1:2:0:0:
106,70,78017,1,2,1:2:0:0:
297,137,78188,1,10,2:0:0:0:
144,0,78360,38,0,P|71:-2|27:76,1,152.999995330811,6|0,1:2|2:0,2:0:0:0:
47,112,78702,2,0,P|47:61|76:20,1,101.999996887207,2|8,1:2|2:0,2:0:0:0:
115,161,79045,2,0,P|76:193|26:197,1,101.999996887207,2|0,1:2|0:0,2:0:0:0:
173,89,79388,1,2,1:2:0:0:
202,278,79560,6,0,L|207:328,1,50.9999984436036,10|0,2:0|2:0,2:0:0:0:
179,355,79902,38,0,L|171:230,1,101.999996887207,6|0,1:2|2:0,2:0:0:0:
129,179,80160,1,2,0:0:0:0:
129,179,80245,1,8,0:2:0:0:
57,338,80417,1,2,1:2:0:0:
262,193,80588,6,0,P|308:174|355:191,1,101.999996887207,14|0,0:2|0:0,0:0:0:0:
409,259,80845,1,2,0:0:0:0:
409,259,80931,1,8,0:0:0:0:
213,120,81102,1,2,1:2:0:0:
463,85,81274,38,0,P|386:114|354:190,1,170,14|0,2:0|2:0,2:0:0:0:
137,75,81960,6,0,L|133:109,1,34,2|2,0:0|0:0,0:0:0:0:
257,118,82645,38,0,L|265:177,1,50.9999984436036,2|0,2:0|2:0,2:0:0:0:
253,282,83160,6,0,P|294:257|346:262,1,101.999996887207,2|0,2:0|2:0,2:0:0:0:
439,329,83845,37,8,2:0:0:0:
439,329,83931,1,8,2:0:0:0:
439,329,84017,1,8,2:0:0:0:
512,155,84188,1,8,2:0:0:0:
512,155,84531,5,0,1:2:0:0:
508,151,84617,1,0,1:2:0:0:
504,147,84702,1,8,2:0:0:0:
370,193,84874,1,0,1:2:0:0:
332,44,85045,2,0,P|309:34|277:31,1,51,0|0,2:0|2:0,2:0:0:0:
194,45,85388,37,6,1:2:0:0:
27,169,85560,1,2,2:0:0:0:
75,59,85731,1,10,2:0:0:0:
162,237,85902,2,0,P|157:194|145:154,1,85,6|0,1:2|2:0,2:0:0:0:
51,280,86245,5,0,1:2:0:0:
240,335,86417,1,10,2:0:0:0:
214,146,86588,2,0,P|175:129|133:118,1,85,6|0,1:2|2:0,2:0:0:0:
12,367,86931,37,2,1:2:0:0:
224,242,87102,1,10,2:0:0:0:
41,139,87274,1,2,2:0:0:0:
142,301,87445,6,0,P|153:350|155:392,1,85,2|0,1:2|2:0,2:0:0:0:
214,146,87788,2,0,P|190:111|160:80,1,85,10|0,2:0|2:0,2:0:0:0:
325,236,88131,38,0,L|427:252,1,85,4|0,1:2|2:0,2:0:0:0:
298,136,88474,2,0,L|213:146,1,85,8|0,2:0|2:0,2:0:0:0:
432,87,88817,1,0,1:2:0:0:
263,37,88988,5,2,1:2:0:0:
313,154,89160,1,10,2:0:0:0:
417,3,89331,2,0,L|435:105,1,85,6|0,1:2|2:0,2:0:0:0:
420,230,89674,37,0,1:2:0:0:
313,154,89845,1,8,2:0:0:0:
353,306,90017,2,0,P|421:332|458:325,1,85,2|0,1:2|2:0,2:0:0:0:
474,145,90360,1,2,1:2:0:0:
249,218,90531,2,0,L|236:314,1,85,10|0,2:0|2:0,2:0:0:0:
149,159,90874,5,6,1:2:0:0:
49,316,91045,1,2,2:0:0:0:
32,144,91217,1,10,2:0:0:0:
164,332,91388,2,0,L|155:238,1,85,6|0,1:2|2:0,2:0:0:0:
145,70,91731,37,0,1:2:0:0:
40,232,91902,1,10,2:0:0:0:
239,109,92074,2,0,P|241:167|252:214,1,85,6|0,1:2|2:0,2:0:0:0:
318,50,92417,5,2,1:2:0:0:
417,162,92588,1,10,2:0:0:0:
253,217,92760,1,2,2:0:0:0:
420,256,92931,38,0,P|471:280|502:305,1,85,2|0,1:2|2:0,2:0:0:0:
245,318,93274,2,0,P|202:314|160:319,1,85,10|0,2:0|2:0,2:0:0:0:
425,384,93617,5,6,1:2:0:0:
425,384,93702,1,2,2:0:0:0:
425,384,93788,2,0,L|419:330,1,42.5,2|2,2:0|2:0,2:0:0:0:
416,132,93960,2,0,P|371:166|336:179,1,85,10|0,2:0|2:0,2:0:0:0:
198,168,94302,1,0,1:2:0:0:
346,54,94474,37,2,1:2:0:0:
279,253,94645,1,10,2:0:0:0:
206,60,94817,2,0,P|151:33|104:26,1,85,6|0,1:2|2:0,2:0:0:0:
273,0,95160,5,2,1:2:0:0:
117,122,95331,1,8,2:0:0:0:
358,144,95502,2,0,P|316:154|279:174,1,85,6|0,1:2|2:0,2:0:0:0:
196,320,95845,1,2,1:2:0:0:
385,354,96017,2,0,L|394:257,1,85,8|0,2:0|2:0,2:0:0:0:
320,43,96360,38,0,B|205:-15|205:-15|134:20|134:20|196:321|196:321|476:194|476:194|462:115|462:115|348:57,1,1020.00003890991,6|0,1:2|2:0,2:0:0:0:
