osu file format v14

[General]
AudioFilename: audio.mp3
AudioLeadIn: 1730
PreviewTime: 59931
Countdown: 0
SampleSet: Soft
StackLeniency: 0.6
Mode: 0
LetterboxInBreaks: 0
EpilepsyWarning: 1
WidescreenStoryboard: 1

[Editor]
DistanceSpacing: 1
BeatDivisor: 4
GridSize: 8
TimelineZoom: 2

[Metadata]
Title:Diamond
TitleUnicode:ダイアモンド
Artist:Nakasu Kasumi (CV: Sagara Mayu)
ArtistUnicode:中須かすみ (CV: 相良茉優)
Creator:STCapricorn
Version:Normal
Source:ラブライブ!スクールアイドルフェスティバル ALL STARS
Tags:game size short ver. 虹ヶ咲学園スクールアイドル同好会 LoveLive! Love Live! Nijigasaki High School Idol Club Gakuen Doukoukai Dokokai NijiGaku ニジガク festival llsif sifas llas オールスターズ スクスタ sukusuta PDP Perfect Dream Project TOKIMEKI Runners 1st Album Kasumin かすみん Video Game Anime pop Jpop J-pop Japanese solo female vocalist caps 鈴木エレカ Suzuki Ereca JOE tasuku
BeatmapID:2313717
BeatmapSetID:901878

[Difficulty]
HPDrainRate:3
CircleSize:3.4
OverallDifficulty:4
ApproachRate:5.5
SliderMultiplier:1.3
SliderTickRate:1

[Events]
//Background and Video events
0,0,"kasumi1.jpg",0,0
Video,-1730,"video.m4v"
//Break Periods
//Storyboard Layer 0 (Background)
//Storyboard Layer 1 (Fail)
//Storyboard Layer 2 (Pass)
//Storyboard Layer 3 (Foreground)
//Storyboard Layer 4 (Overlay)
//Storyboard Sound Samples

[TimingPoints]
360,342.857142857143,4,2,1,60,1,0
1559,-100,4,2,1,36,0,0
1731,-100,4,2,1,80,0,0
3788,-100,4,2,1,70,0,0
4474,-100,4,2,1,80,0,0
9274,-100,4,2,1,70,0,0
9960,-100,4,2,1,80,0,0
12702,-100,4,2,1,50,0,0
15274,-100,4,2,1,70,0,0
18187,-100,4,2,1,60,0,0
18531,-100,4,2,1,65,0,0
18874,-100,4,2,1,70,0,0
19217,-100,4,2,1,75,0,0
19560,-100,4,2,1,80,0,0
21274,-100,4,2,1,70,0,0
27788,-100,4,2,1,80,0,0
31217,-100,4,2,1,70,0,0
31902,-100,4,2,1,80,0,0
37388,-100,4,2,1,80,0,0
49731,-100,4,2,1,60,0,0
56588,-100,4,2,1,70,0,0
57960,-100,4,2,1,80,0,0
60017,-100,4,2,1,60,0,0
60359,-100,4,2,1,70,0,0
60702,-100,4,2,1,80,0,1
70988,-100,4,2,1,70,0,0
71674,-100,4,2,1,80,0,1
81274,-100,4,2,1,80,0,0
84017,-100,4,2,1,70,0,0
85388,-100,4,2,1,80,0,0
96360,-111.111111111111,4,2,1,80,0,0
99102,-100,4,2,1,5,0,0

[Colours]
Combo1 : 129,141,254
Combo2 : 142,214,35
Combo3 : 255,228,28
Combo4 : 252,134,3

[HitObjects]
113,86,360,6,0,L|108:162,1,65,8|8,2:0|2:0,2:0:0:0:
110,280,874,1,4,3:0:0:0:
110,280,1045,2,0,P|121:332|185:261,1,195,10|2,2:3|2:0,2:0:0:0:
213,230,1731,6,0,L|197:137,2,65,6|2|10,1:2|2:0|2:0,2:0:0:0:
258,234,2245,1,4,1:2:0:0:
314,116,2588,2,0,L|407:102,1,65,0|10,1:2|2:0,2:0:0:0:
423,115,2931,1,4,1:2:0:0:
450,242,3274,2,0,P|496:226|530:227,2,65,2|10|2,1:2|2:0|2:0,2:0:0:0:
431,283,3788,1,2,1:2:0:0:
302,260,4131,1,10,2:0:0:0:
173,237,4474,38,0,P|145:184|290:177,1,260,6|2,1:2|1:2,2:0:0:0:
308,183,5331,2,0,L|314:263,1,65,2|10,1:2|2:0,2:0:0:0:
302,292,5674,2,0,P|367:312|453:295,1,130,6|0,1:2|1:2,2:0:0:0:
511,205,6360,2,0,P|477:144|476:56,1,130,2|2,1:2|1:2,2:0:0:0:
479,40,6874,1,10,2:0:0:0:
351,64,7217,6,0,L|355:-1,2,65,4|0|10,1:2|2:0|2:0,2:0:0:0:
319,97,7731,1,4,1:2:0:0:
189,97,8074,2,0,L|194:182,1,65,2|10,1:2|2:0,2:0:0:0:
196,207,8417,1,4,1:2:0:0:
198,337,8760,2,0,P|167:349|135:355,2,65,2|10|2,1:2|2:0|2:0,2:0:0:0:
241,350,9274,1,2,1:2:0:0:
366,314,9617,1,10,2:0:0:0:
423,197,9960,38,0,B|393:140|427:86|427:86|347:123|272:72,1,260,4|0,1:2|1:2,2:0:0:0:
269,41,10817,2,0,P|235:28|194:31,1,65,2|10,1:2|2:0,2:0:0:0:
161,20,11160,2,0,P|126:56|44:74,1,130,6|2,1:2|1:2,2:0:0:0:
5,196,11845,2,0,P|52:239|115:250,1,130,2|2,1:2|1:2,2:0:0:0:
284,149,12702,6,0,P|331:105|393:87,2,130,2|2|2,2:0|2:0|2:0,2:0:0:0:
302,278,13731,1,2,2:0:0:0:
302,278,13902,2,0,P|223:273|168:298,1,130,2|2,2:0|2:0,2:0:0:0:
47,309,14588,1,2,2:0:0:0:
47,309,14760,2,0,L|52:387,2,65,2|2|2,2:0|2:0|2:0,2:0:0:0:
63,266,15274,37,6,1:2:0:0:
296,380,15960,1,6,1:2:0:0:
367,130,16645,2,0,P|423:102|403:149,1,130,14|0,2:0|2:0,2:0:0:0:
474,257,17331,5,6,3:0:0:0:
474,257,17502,2,0,L|403:263,1,65,10|6,2:0|3:0,2:0:0:0:
378,295,17845,2,0,P|343:263|245:258,1,130,6|6,3:0|1:2,2:0:0:0:
151,319,18531,1,2,1:2:0:0:
52,233,18874,1,2,1:2:0:0:
103,112,19217,1,2,1:2:0:0:
232,121,19560,38,0,P|269:112|348:175,1,130,2|2,1:2|1:2,2:0:0:0:
460,212,20245,2,0,P|433:184|448:84,1,130,10|10,2:0|2:0,2:0:0:0:
512,0,20931,1,4,1:2:0:0:
376,28,21274,5,10,2:0:0:0:
334,151,21617,1,2,1:2:0:0:
213,103,21960,1,10,2:0:0:0:
213,103,22131,1,2,1:2:0:0:
92,55,22474,2,0,P|65:90|80:178,1,130,2|2,1:2|1:2,2:0:0:0:
116,189,22988,1,2,2:0:0:0:
111,322,23331,1,10,2:0:0:0:
111,322,23502,38,0,P|185:281|239:303,1,130,6|0,1:2|1:2,2:0:0:0:
339,364,24188,1,6,1:2:0:0:
339,364,24360,2,0,P|407:382|485:355,1,130,2|10,0:2|0:2,2:0:0:0:
471,323,24874,2,0,P|446:261|480:193,1,130,6|2,1:2|1:2,2:0:0:0:
353,140,25560,6,0,L|363:61,2,65,2|2|2,1:2|2:0|1:2,2:0:0:0:
310,157,26074,2,0,L|320:236,1,65,10|2,2:0|2:0,2:0:0:0:
291,258,26417,37,6,1:2:0:0:
412,304,26760,1,10,2:0:0:0:
512,222,27102,1,2,1:2:0:0:
492,95,27445,1,10,2:0:0:0:
363,73,27788,6,0,L|374:148,1,65,6|0,1:2|1:2,2:0:0:0:
373,182,28131,2,0,P|324:181|293:206,1,65,10|0,2:0|1:2,2:0:0:0:
284,225,28474,2,0,P|252:236|221:231,1,65,10|0,2:0|1:2,2:0:0:0:
182,208,28817,1,10,2:0:0:0:
54,231,29160,38,0,L|49:166,2,65,4|2|10,1:2|2:0|2:0,2:0:0:0:
66,275,29674,1,6,1:2:0:0:
197,265,30017,2,0,P|204:300|221:343,1,65,2|10,1:2|2:0,2:0:0:0:
254,348,30360,1,6,1:2:0:0:
367,269,30702,2,0,P|401:258|442:236,2,65,2|10|2,1:2|2:0|2:0,2:0:0:0:
336,234,31217,5,2,1:2:0:0:
373,109,31560,1,10,2:0:0:0:
476,186,31902,2,0,P|503:234|360:282,1,260,6|0,1:2|1:2,2:0:0:0:
361,244,32760,38,0,P|322:245|278:238,1,65,2|10,1:2|2:0,2:0:0:0:
252,254,33102,2,0,P|183:244|128:297,1,130,6|0,1:2|1:2,2:0:0:0:
96,269,33617,1,10,2:0:0:0:
96,269,33788,2,0,P|61:216|73:154,1,130,6|2,1:2|2:0,2:0:0:0:
108,125,34302,1,8,2:0:0:0:
234,153,34645,1,6,2:0:0:0:
468,96,36017,6,0,B|404:80|404:80|336:92,1,130,0|2,1:2|1:2,2:0:0:0:
255,189,36702,2,0,B|191:200|191:200|127:184,1,130,2|8,1:2|2:1,2:0:0:0:
64,58,37388,6,0,P|134:37|179:42,2,97.5,6|2|2,1:2|2:0|2:0,2:0:0:0:
55,102,38074,2,0,L|71:256,1,130,2|8,1:2|2:0,2:0:0:0:
154,330,38760,6,0,P|84:351|39:346,2,97.5,2|2|2,1:2|2:0|2:0,2:0:0:0:
171,288,39445,2,0,L|155:134,1,130,2|8,1:2|2:0,2:0:0:0:
159,116,39960,37,2,2:0:0:0:
159,116,40131,2,0,P|221:157|297:148,1,130,2|10,1:2|2:0,2:0:0:0:
302,120,40645,1,2,2:0:0:0:
429,93,40988,1,2,2:0:0:0:
456,220,41331,2,0,P|442:282|393:322,1,130,2|2,2:0|2:0,2:0:0:0:
352,316,41845,1,10,2:0:0:0:
352,316,42017,1,2,2:0:0:0:
202,190,42531,5,10,2:0:0:0:
121,292,42874,2,0,P|51:278|14:215,1,130,6|8,1:2|2:0,2:0:0:0:
14,187,43388,1,2,2:0:0:0:
28,57,43731,1,2,2:0:0:0:
145,0,44074,2,0,P|215:20|205:142,1,195,2|10,2:0|2:0,2:0:0:0:
303,228,44931,38,0,P|294:171|341:111,1,130,2|10,1:2|2:0,2:0:0:0:
461,87,45617,2,0,L|477:227,1,130,2|10,1:2|2:0,2:0:0:0:
481,261,46131,2,0,P|426:256|358:299,1,130,2|2,0:2|2:0,2:0:0:0:
273,197,46817,5,10,2:0:0:0:
147,231,47160,1,10,2:0:0:0:
113,105,47502,1,10,2:0:0:0:
113,105,47674,1,10,2:0:0:0:
120,90,49731,6,0,P|183:68|242:105,1,130,6|0,1:2|2:0,2:0:0:0:
181,214,50417,2,0,P|150:240|130:334,1,130,10|0,2:0|2:0,2:0:0:0:
251,364,51102,2,0,P|305:323|364:297,1,130,2|0,2:0|2:0,2:0:0:0:
482,346,51788,1,10,2:0:0:0:
512,159,52302,1,2,2:0:0:0:
512,159,52474,6,0,P|455:187|388:153,1,130,6|2,1:2|2:0,2:0:0:0:
382,120,52988,2,0,P|315:114|245:131,1,130,2|2,1:2|2:0,2:0:0:0:
138,66,53674,1,2,1:2:0:0:
104,191,54017,2,0,L|109:265,2,65,2|2|2,1:2|2:0|1:2,2:0:0:0:
74,155,54531,1,10,2:0:0:0:
18,37,54874,1,2,1:2:0:0:
144,5,55217,38,0,P|215:-13|295:13,1,130,12|8,2:0|2:0,2:0:0:0:
217,116,55902,2,0,P|153:127|92:110,1,130,8|8,2:0|2:0,2:0:0:0:
128,233,56588,6,0,L|260:244,1,130,4|8,1:2|2:0,2:0:0:0:
305,365,57274,2,0,L|173:354,1,130,8|8,2:0|2:0,2:0:0:0:
128,233,57960,37,6,1:2:0:0:
128,233,58131,1,2,2:0:0:0:
259,159,58474,2,0,P|350:174|259:258,1,260,8|4,3:0|1:2,2:0:0:0:
354,371,59502,1,2,1:2:0:0:
403,368,59674,1,2,1:2:0:0:
441,243,60017,5,2,2:0:0:0:
364,137,60360,1,2,2:0:0:0:
238,168,60702,2,0,P|171:132|103:117,1,130,6|8,1:2|2:0,2:0:0:0:
74,142,61217,1,2,2:0:0:0:
74,142,61388,1,2,1:2:0:0:
16,258,61731,1,8,0:2:0:0:
45,307,61902,37,2,1:2:0:0:
45,307,62074,2,0,P|109:298|169:276,1,130,2|8,1:2|2:0,2:0:0:0:
215,248,62588,1,2,2:0:0:0:
215,248,62760,1,2,1:2:0:0:
329,306,63102,1,8,0:2:0:0:
336,362,63274,5,2,2:0:0:0:
336,362,63445,2,0,P|404:380|475:355,1,130,2|10,1:2|2:0,2:0:0:0:
487,319,63960,1,2,2:0:0:0:
416,209,64302,1,2,1:2:0:0:
487,100,64645,38,0,P|434:63|370:66,1,130,2|2,1:2|1:2,2:0:0:0:
347,112,65160,1,10,2:0:0:0:
430,211,65502,1,0,1:2:0:0:
384,332,65845,1,8,2:0:0:0:
270,268,66188,1,4,1:2:0:0:
165,344,66531,6,0,L|34:330,1,130,10|2,2:0|1:2,2:0:0:0:
13,201,67217,2,0,L|92:208,1,65,10|2,2:0|1:2,2:0:0:0:
165,110,67731,2,0,L|229:104,1,65,2|10,1:2|2:0,2:0:0:0:
349,52,68245,1,2,1:2:0:0:
469,100,68588,37,10,2:0:0:0:
426,222,68931,2,0,P|375:261|312:275,1,130,6|10,1:2|2:0,2:0:0:0:
272,240,69445,2,0,P|210:219|146:227,1,130,2|0,1:2|1:2,2:0:0:0:
110,263,69960,1,10,2:0:0:0:
110,263,70131,1,6,1:2:0:0:
232,306,70474,6,0,L|226:373,2,65,2|10|2,1:2|2:0|2:0,2:0:0:0:
275,277,70988,1,2,1:2:0:0:
198,171,71331,1,10,2:0:0:0:
81,228,71674,38,0,P|39:171|39:112,1,130,6|8,1:2|2:0,2:0:0:0:
88,92,72188,1,2,2:0:0:0:
88,92,72360,1,2,1:2:0:0:
166,194,72702,1,8,0:2:0:0:
206,236,72874,5,2,1:2:0:0:
206,236,73045,2,0,P|287:198|335:185,1,130,2|8,2:0|2:0,2:0:0:0:
382,191,73560,1,2,2:0:0:0:
382,191,73731,1,2,1:2:0:0:
466,91,74074,1,8,0:2:0:0:
452,46,74245,37,2,2:0:0:0:
452,46,74417,2,0,P|385:64|351:133,1,130,2|10,1:2|2:0,2:0:0:0:
352,164,74931,1,2,2:0:0:0:
247,241,75274,1,2,1:2:0:0:
128,190,75617,6,0,P|124:127|172:86,1,130,2|2,1:2|1:2,2:0:0:0:
222,95,76131,1,10,2:0:0:0:
293,204,76474,2,0,P|338:232|413:224,1,130,2|10,1:2|2:0,2:0:0:0:
445,185,76988,1,2,2:0:0:0:
445,185,77160,2,0,P|414:125|374:75,1,130,6|8,1:2|2:0,2:0:0:0:
323,68,77674,38,0,P|298:88|277:114,1,65,2|2,2:0|1:2,2:0:0:0:
296,162,78017,2,0,P|309:200|312:241,1,65,2|10,1:2|2:0,2:0:0:0:
309,276,78360,2,0,P|266:290|183:259,1,130,6|2,1:2|1:2,2:0:0:0:
75,199,79045,2,0,P|95:157|75:52,1,130,2|2,1:2|1:2,2:0:0:0:
64,28,79560,1,10,2:0:0:0:
218,12,79902,6,0,P|239:9|311:59,2,97.5,6|2|2,1:2|0:0|1:2,0:0:0:0:
207,63,80588,2,0,L|192:170,2,97.5,14|2|2,2:0|0:0|1:2,0:0:0:0:
169,26,81274,1,14,2:0:0:0:
299,101,84017,37,8,2:0:0:0:
398,249,84702,1,8,2:0:0:0:
201,317,85388,6,0,L|191:394,2,65,6|2|10,1:2|2:0|2:0,2:0:0:0:
177,270,85902,1,6,1:2:0:0:
62,209,86245,2,0,P|43:162|40:137,1,65,0|10,1:2|2:0,2:0:0:0:
49,96,86588,1,6,1:2:0:0:
175,63,86931,2,0,P|175:30|169:-1,2,65,2|10|2,1:2|2:0|2:0,2:0:0:0:
201,108,87445,1,2,1:2:0:0:
149,227,87788,1,10,2:0:0:0:
180,353,88131,38,0,P|123:367|35:340,2,130,4|8|0,1:2|2:0|1:2,2:0:0:0:
221,321,88988,2,0,L|240:405,1,65,2|10,1:2|2:0,2:0:0:0:
285,371,89331,2,0,P|319:331|397:316,1,130,6|0,1:2|1:2,2:0:0:0:
492,231,90017,2,0,L|458:76,1,130,2|2,1:2|1:2,2:0:0:0:
453,52,90531,1,10,2:0:0:0:
323,67,90874,6,0,L|333:-9,2,65,6|2|10,1:2|2:0|2:0,2:0:0:0:
296,111,91388,1,6,1:2:0:0:
195,28,91731,2,0,L|120:19,1,65,0|10,1:2|2:0,2:0:0:0:
86,47,92074,1,6,1:2:0:0:
139,165,92417,2,0,L|214:156,2,65,2|10|2,1:2|2:0|2:0,2:0:0:0:
102,202,92931,1,2,1:2:0:0:
156,319,93274,1,10,2:0:0:0:
258,239,93617,38,0,P|331:224|396:260,2,130,6|10|0,1:2|2:0|1:2,2:0:0:0:
208,222,94474,2,0,P|193:176|199:135,1,65,2|10,1:2|2:0,2:0:0:0:
219,114,94817,2,0,P|293:136|345:104,1,130,6|2,1:2|1:2,2:0:0:0:
427,20,95502,2,0,L|281:-4,1,130,6|2,1:2|1:2,2:0:0:0:
249,16,96017,1,8,2:0:0:0:
151,80,96360,6,0,B|45:26|45:26|-21:58|-21:58|36:335|36:335|294:218|294:218|281:145|281:145|176:92,1,935.999971435548,6|0,1:2|2:0,2:0:0:0:
