osu file format v14

[General]
AudioFilename: audio.mp3
AudioLeadIn: 1730
PreviewTime: 59931
Countdown: 0
SampleSet: Soft
StackLeniency: 0.5
Mode: 0
LetterboxInBreaks: 0
EpilepsyWarning: 1
WidescreenStoryboard: 1

[Editor]
DistanceSpacing: 1.2
BeatDivisor: 4
GridSize: 4
TimelineZoom: 2

[Metadata]
Title:Diamond
TitleUnicode:ダイアモンド
Artist:Nakasu Kasumi (CV: Sagara Mayu)
ArtistUnicode:中須かすみ (CV: 相良茉優)
Creator:STCapricorn
Version:Hard
Source:ラブライブ!スクールアイドルフェスティバル ALL STARS
Tags:game size short ver. 虹ヶ咲学園スクールアイドル同好会 LoveLive! Love Live! Nijigasaki High School Idol Club Gakuen Doukoukai Dokokai NijiGaku ニジガク festival llsif sifas llas オールスターズ スクスタ sukusuta PDP Perfect Dream Project TOKIMEKI Runners 1st Album Kasumin かすみん Video Game Anime pop Jpop J-pop Japanese solo female vocalist caps 鈴木エレカ Suzuki Ereca JOE tasuku
BeatmapID:2313716
BeatmapSetID:901878

[Difficulty]
HPDrainRate:4
CircleSize:3.6
OverallDifficulty:6
ApproachRate:7.6
SliderMultiplier:1.6
SliderTickRate:1

[Events]
//Background and Video events
0,0,"kasumi1.jpg",0,0
Video,-1730,"video.m4v"
//Break Periods
//Storyboard Layer 0 (Background)
//Storyboard Layer 1 (Fail)
//Storyboard Layer 2 (Pass)
//Storyboard Layer 3 (Foreground)
//Storyboard Layer 4 (Overlay)
//Storyboard Sound Samples

[TimingPoints]
360,342.857142857143,4,2,1,60,1,0
1088,-100,4,2,1,58,0,0
1131,-100,4,2,1,56,0,0
1174,-100,4,2,1,54,0,0
1217,-100,4,2,1,52,0,0
1260,-100,4,2,1,50,0,0
1302,-100,4,2,1,48,0,0
1345,-100,4,2,1,46,0,0
1388,-100,4,2,1,44,0,0
1431,-100,4,2,1,42,0,0
1474,-100,4,2,1,40,0,0
1517,-100,4,2,1,38,0,0
1560,-100,4,2,1,36,0,0
1602,-100,4,2,1,34,0,0
1645,-100,4,2,1,32,0,0
1731,-100,4,2,1,80,0,0
3788,-100,4,2,1,70,0,0
4474,-100,4,2,1,80,0,0
9274,-100,4,2,1,70,0,0
9960,-100,4,2,1,80,0,0
12702,-125,4,2,1,50,0,0
15274,-100,4,2,1,70,0,0
18188,-100,4,2,1,60,0,0
18530,-100,4,2,1,65,0,0
18874,-100,4,2,1,70,0,0
19216,-100,4,2,1,75,0,0
19560,-100,4,2,1,80,0,0
21274,-100,4,2,1,70,0,0
26674,-100,4,2,1,5,0,0
26760,-100,4,2,1,70,0,0
27017,-100,4,2,1,5,0,0
27102,-100,4,2,1,70,0,0
27359,-100,4,2,1,5,0,0
27445,-100,4,2,1,70,0,0
27702,-100,4,2,1,5,0,0
27788,-100,4,2,1,80,0,0
31217,-100,4,2,1,70,0,0
31902,-100,4,2,1,80,0,0
37388,-100,4,2,1,80,0,0
49731,-125,4,2,1,60,0,0
56588,-125,4,2,1,70,0,0
57960,-125,4,2,1,80,0,0
60017,-100,4,2,1,60,0,0
60360,-100,4,2,1,70,0,0
60702,-100,4,2,1,80,0,1
70988,-100,4,2,1,70,0,0
71674,-100,4,2,1,80,0,1
79817,-100,4,2,1,5,0,1
79902,-100,4,2,1,80,0,1
81274,-100,4,2,1,80,0,0
83331,-125,4,2,1,70,0,0
85388,-100,4,2,1,80,0,0
96360,-125,4,2,1,80,0,0
99102,-200,4,2,1,5,0,0

[Colours]
Combo1 : 129,141,254
Combo2 : 142,214,35
Combo3 : 255,228,28
Combo4 : 252,134,3

[HitObjects]
111,123,360,5,8,2:0:0:0:
132,216,531,1,8,2:0:0:0:
244,60,874,5,4,3:0:0:0:
248,64,960,1,4,3:0:0:0:
252,68,1045,2,0,P|318:31|307:163,1,280,10|2,2:3|2:0,2:0:0:0:
265,168,1731,38,0,L|281:278,1,80,6|2,1:2|2:0,2:0:0:0:
231,332,2074,1,10,2:0:0:0:
139,242,2245,1,4,1:2:0:0:
5,378,2588,5,0,1:2:0:0:
86,326,2760,1,10,2:0:0:0:
40,206,2931,1,4,1:2:0:0:
184,61,3274,37,2,1:2:0:0:
270,101,3445,1,10,2:0:0:0:
343,38,3617,1,2,2:0:0:0:
435,64,3788,2,0,P|469:89|492:129,1,80,2|0,1:2|2:0,2:0:0:0:
401,160,4131,2,0,P|417:198|417:244,1,80,10|0,2:0|2:0,2:0:0:0:
322,225,4474,6,0,P|317:266|215:338,2,160,6|10|2,1:2|2:0|1:2,2:0:0:0:
232,188,5331,1,2,1:2:0:0:
169,260,5502,1,10,2:0:0:0:
89,206,5674,2,0,P|84:128|138:71,1,160,6|0,1:2|1:2,2:0:0:0:
230,96,6188,1,8,2:0:0:0:
300,29,6360,2,0,P|353:-12|456:15,1,160,2|2,1:2|1:2,2:0:0:0:
383,82,6874,1,10,2:0:0:0:
210,63,7217,38,0,L|205:160,1,80,4|0,1:2|2:0,2:0:0:0:
146,219,7560,1,10,2:0:0:0:
232,313,7731,1,4,1:2:0:0:
40,303,8074,5,2,1:2:0:0:
113,364,8245,1,10,2:0:0:0:
221,294,8417,1,4,1:2:0:0:
380,261,8760,37,2,1:2:0:0:
434,182,8931,1,10,2:0:0:0:
412,88,9102,1,2,2:0:0:0:
316,79,9274,2,0,P|312:120|299:168,1,80,2|0,1:2|2:0,2:0:0:0:
209,183,9617,2,0,P|185:216|149:251,1,80,10|0,2:0|2:0,2:0:0:0:
119,155,9960,6,0,P|50:114|0:52,2,160,4|8|0,1:2|2:0|1:2,2:0:0:0:
186,86,10817,1,2,1:2:0:0:
253,17,10988,1,10,2:0:0:0:
346,40,11160,2,0,P|354:102|320:197,1,160,6|2,1:2|1:2,2:0:0:0:
227,206,11674,1,8,2:0:0:0:
155,269,11845,2,0,P|184:286|248:296,1,80,2|0,1:2|2:0,2:0:0:0:
156,359,12188,2,0,P|100:339|72:238,1,160,2|0,1:2|2:0,2:0:0:0:
71,156,12702,38,0,P|131:151|196:108,2,128,2|2|2,2:0|2:0|2:0,2:0:0:0:
230,250,13731,1,2,2:0:0:0:
230,250,13902,2,0,B|245:386,1,128,2|2,2:0|2:0,2:0:0:0:
390,228,14588,2,0,P|440:199|472:192,2,64,2|2|2,2:0|2:0|2:0,2:0:0:0:
339,302,15102,1,2,2:0:0:0:
278,207,15274,6,0,L|267:38,1,160,6|0,1:2|2:0,2:0:0:0:
148,198,15960,2,0,L|137:357,1,160,6|0,1:2|2:0,2:0:0:0:
304,264,16645,2,0,B|298:209|298:209|316:155|316:155|311:107,1,160,14|0,2:0|2:0,2:0:0:0:
90,167,17331,37,6,3:0:0:0:
90,167,17417,1,6,3:0:0:0:
90,167,17502,2,0,P|129:161|168:151,1,80,10|6,2:0|3:0,2:0:0:0:
222,71,17845,1,6,3:0:0:0:
315,47,18017,1,2,2:0:0:0:
408,24,18188,6,0,P|448:87|440:172,1,160,6|2,1:2|1:2,2:0:0:0:
254,217,18874,2,0,P|214:154|222:69,1,160,2|2,1:2|1:2,2:0:0:0:
376,176,19560,38,0,L|364:291,1,80,2|0,1:2|1:0,2:0:0:0:
278,291,19902,2,0,L|269:211,1,80,2|0,1:2|1:0,2:0:0:0:
376,176,20245,2,0,L|491:188,1,80,10|0,2:0|1:0,2:0:0:0:
367,255,20588,1,10,2:0:0:0:
271,88,20931,5,4,1:2:0:0:
96,168,21274,38,0,P|94:194|105:277,1,80,10|0,2:0|2:0,2:0:0:0:
185,288,21617,2,0,P|187:314|176:397,1,80,2|0,1:2|1:2,2:0:0:0:
273,335,21960,1,10,2:0:0:0:
340,265,22131,2,0,P|326:217|323:174,1,80,2|0,1:2|2:0,2:0:0:0:
338,92,22474,2,0,P|282:108|241:102,1,80,2|8,1:2|1:2,2:0:0:0:
176,59,22817,1,2,1:2:0:0:
176,59,22988,2,0,P|167:136|158:161,1,80,2|0,2:0|1:2,2:0:0:0:
224,214,23331,5,10,2:0:0:0:
278,292,23502,1,6,1:2:0:0:
354,115,23845,37,0,1:2:0:0:
258,128,24017,1,8,2:0:0:0:
319,201,24188,2,0,P|396:197|483:169,1,160,6|0,1:2|1:2,2:0:0:0:
509,262,24702,1,10,2:0:0:0:
425,309,24874,2,0,P|348:313|261:341,1,160,6|2,1:2|1:2,2:0:0:0:
178,369,25388,1,8,2:0:0:0:
86,338,25560,5,2,1:2:0:0:
65,244,25731,1,2,2:0:0:0:
134,178,25902,1,2,1:2:0:0:
225,206,26074,1,10,2:0:0:0:
247,299,26245,1,2,2:0:0:0:
338,327,26417,38,0,L|484:313,1,120,6|0,1:2|2:0,2:0:0:0:
492,282,26760,2,0,P|459:223|447:162,1,120,10|0,2:0|2:0,2:0:0:0:
441,125,27102,2,0,L|296:142,1,120,2|0,1:2|2:0,2:0:0:0:
273,142,27445,2,0,P|244:72|288:27,1,120,10|0,2:0|2:0,2:0:0:0:
300,8,27788,6,0,L|389:15,1,80,6|0,1:2|1:2,2:0:0:0:
335,99,28131,2,0,L|246:106,1,80,10|0,2:0|1:2,2:0:0:0:
220,194,28474,2,0,L|300:201,1,80,10|0,2:0|1:2,2:0:0:0:
268,292,28817,2,0,L|189:299,1,80,10|0,2:0|1:2,2:0:0:0:
92,301,29160,38,0,P|61:279|21:223,1,80,4|2,1:2|2:0,2:0:0:0:
37,151,29502,1,10,2:0:0:0:
151,209,29674,1,6,1:2:0:0:
155,17,30017,5,2,1:2:0:0:
209,95,30188,1,10,2:0:0:0:
319,28,30360,1,6,1:2:0:0:
466,76,30702,37,2,1:2:0:0:
425,145,30874,1,10,2:0:0:0:
346,129,31045,1,2,2:0:0:0:
289,186,31217,2,0,P|295:239|281:293,1,80,2|0,1:2|2:0,2:0:0:0:
211,279,31560,2,0,P|204:318|209:358,1,80,10|0,2:0|2:0,2:0:0:0:
117,268,31902,6,0,P|101:166|107:90,2,160,6|10|2,1:2|2:0|1:2,2:0:0:0:
118,364,32760,1,2,1:2:0:0:
32,319,32931,1,10,2:0:0:0:
32,223,33102,2,0,B|94:233|94:233|218:200,1,160,6|0,1:2|1:2,2:0:0:0:
273,163,33617,1,10,2:0:0:0:
191,113,33788,2,0,B|88:141|88:141|36:132,1,160,6|2,1:2|2:0,2:0:0:0:
3,41,34302,1,8,2:0:0:0:
193,17,34645,37,6,2:0:0:0:
380,84,36017,6,0,L|386:136,3,40,0|0|2|0,1:2|1:2|1:2|1:2,2:0:0:0:
347,154,36360,2,0,L|341:206,3,40,2|0|0|0,1:2|1:2|1:2|1:2,2:0:0:0:
375,228,36702,2,0,L|381:280,3,40,2|0|0|0,1:2|1:2|1:2|1:2,2:0:0:0:
347,303,37045,1,8,2:1:0:0:
193,283,37388,6,0,L|68:273,1,120,6|2,1:2|2:0,2:0:0:0:
30,252,37731,1,8,2:0:0:0:
13,157,37902,1,2,2:0:0:0:
105,129,38074,2,0,L|157:132,3,40,2|0|0|0,1:2|2:0|2:0|2:0,2:0:0:0:
170,90,38417,2,0,L|209:87,3,40,8|0|0|0,2:0|2:0|2:0|2:0,2:0:0:0:
230,130,38760,6,0,P|224:171|243:249,1,120,2|2,1:2|2:0,2:0:0:0:
275,280,39102,1,8,2:0:0:0:
358,231,39274,1,2,2:0:0:0:
339,137,39445,38,0,L|393:131,3,40,2|0|0|2,1:2|2:0|2:0|2:0,2:0:0:0:
418,105,39788,1,8,2:0:0:0:
489,169,39960,1,2,2:0:0:0:
439,251,40131,6,0,L|432:387,1,120,2|0,1:2|2:0,2:0:0:0:
386,383,40474,1,10,2:0:0:0:
331,304,40645,2,0,L|233:297,1,80,2|0,2:0|1:2,2:0:0:0:
222,206,40988,2,0,L|301:211,1,80,2|8,2:0|2:0,2:0:0:0:
366,139,41331,38,0,P|315:86|240:82,1,120,2|0,2:0|2:0,2:0:0:0:
233,105,41674,1,2,2:0:0:0:
158,45,41845,1,10,2:0:0:0:
83,105,42017,1,2,2:0:0:0:
9,43,42188,2,0,L|11:82,3,40,2|2|2|2,1:2|2:0|2:0|2:0,2:0:0:0:
8,131,42531,2,0,L|-1:263,1,120,10|0,2:0|2:0,2:0:0:0:
27,290,42874,6,0,P|74:260|154:243,1,120,6|0,1:2|2:0,2:0:0:0:
166,281,43217,1,8,2:0:0:0:
240,221,43388,38,0,P|234:162|212:136,1,80,2|0,2:0|1:2,2:0:0:0:
160,73,43731,2,0,L|265:58,1,80,2|8,2:0|2:0,2:0:0:0:
326,101,44074,2,0,P|339:146|374:175,1,80,2|0,2:0|1:2,2:0:0:0:
455,192,44417,1,2,2:0:0:0:
446,96,44588,2,0,L|439:45,3,40,10|2|2|2,2:0|2:0|2:0|2:0,2:0:0:0:
483,35,44931,6,0,P|426:0|394:1,1,80,2|0,1:2|2:0,2:0:0:0:
340,60,45274,2,0,P|280:59|249:39,1,80,10|0,2:0|2:0,2:0:0:0:
179,2,45617,2,0,L|37:-2,1,120,2|0,1:2|2:0,2:0:0:0:
31,38,45960,1,10,2:0:0:0:
17,132,46131,2,0,L|114:125,1,80,2|0,0:2|1:2,2:0:0:0:
158,199,46474,2,0,L|237:204,1,80,2|8,2:0|2:0,2:0:0:0:
329,173,46817,37,10,2:0:0:0:
208,23,47160,1,10,2:0:0:0:
399,10,47502,1,10,2:0:0:0:
403,14,47674,1,10,2:0:0:0:
138,307,49731,22,0,P|220:291|333:300,1,192,6|2,1:2|1:2,2:0:0:0:
402,317,50417,2,0,L|395:123,1,192,10|2,2:0|1:2,2:0:0:0:
371,52,51102,2,0,P|397:12|464:98,1,192,2|2,2:0|1:2,2:0:0:0:
475,161,51788,1,10,2:0:0:0:
288,96,52302,1,2,2:0:0:0:
288,96,52474,6,0,L|141:106,1,128,6|2,1:2|2:0,2:0:0:0:
92,142,52988,2,0,P|129:192|142:255,1,128,2|2,1:2|2:0,2:0:0:0:
142,255,53674,1,2,1:2:0:0:
25,320,54017,37,2,1:2:0:0:
29,324,54188,2,0,L|110:337,1,64,2|2,2:0|1:2,2:0:0:0:
151,383,54531,2,0,L|227:353,1,64,10|0,2:0|2:0,2:0:0:0:
286,373,54874,2,0,L|337:309,1,64,2|0,1:2|2:0,2:0:0:0:
306,248,55217,5,12,2:0:0:0:
261,100,55560,1,8,2:0:0:0:
113,146,55902,1,8,2:0:0:0:
159,293,56245,1,8,2:0:0:0:
306,248,56588,38,0,L|393:240,1,64,4|8,1:2|2:0,2:0:0:0:
315,170,56931,2,0,L|351:90,1,64,8|8,2:0|2:0,2:0:0:0:
251,123,57274,2,0,L|200:51,1,64,8|8,2:0|2:0,2:0:0:0:
178,154,57617,2,0,L|91:162,1,64,8|8,2:0|2:0,2:0:0:0:
86,245,57960,1,6,1:2:0:0:
172,267,58131,1,2,2:0:0:0:
235,153,58474,5,8,3:0:0:0:
249,77,58645,2,0,L|254:30,5,32,4|4|4|4|4|4,3:0|3:0|3:0|3:0|3:0|3:0,2:3:0:0:
227,24,59160,1,4,1:2:0:0:
129,188,59502,37,2,1:2:0:0:
79,97,59674,1,2,1:2:0:0:
22,280,60017,6,0,L|106:270,1,80,2|0,2:0|1:2,2:0:0:0:
153,351,60360,2,0,L|205:284,1,80,2|0,2:0|2:0,2:0:0:0:
214,192,60702,38,0,P|176:133|74:129,1,160,6|8,1:2|2:0,2:0:0:0:
14,62,61217,1,2,2:0:0:0:
103,26,61388,2,0,P|173:30|255:81,1,160,2|8,1:2|2:0,2:0:0:0:
331,125,61902,5,2,1:2:0:0:
328,28,62074,2,0,P|359:3|483:23,1,160,2|8,1:2|2:0,2:0:0:0:
500,105,62588,1,2,2:0:0:0:
414,148,62760,1,2,1:2:0:0:
410,164,62931,1,0,1:2:0:0:
488,206,63102,1,8,2:0:0:0:
492,222,63274,1,2,2:0:0:0:
413,264,63445,38,0,P|352:246|243:244,1,160,2|10,1:2|2:0,2:0:0:0:
162,267,63960,2,0,P|191:314|248:326,1,80,2|0,2:0|1:2,2:0:0:0:
298,365,64302,2,0,P|345:336|357:279,1,80,2|8,1:2|2:0,2:0:0:0:
419,243,64645,6,0,P|376:180|267:177,1,160,2|2,1:2|1:2,2:0:0:0:
253,177,65074,1,2,0:0:0:0:
253,177,65160,2,0,P|265:130|363:78,1,160,10|0,2:0|1:2,2:0:0:0:
360,184,65674,1,2,1:2:0:0:
360,184,65845,2,0,L|461:187,1,80,8|2,2:0|2:0,2:0:0:0:
460,108,66188,38,0,P|454:61|458:15,1,80,4|0,1:2|2:0,2:0:0:0:
363,4,66531,1,10,2:0:0:0:
465,166,66874,2,0,P|406:181|373:174,1,80,2|0,1:2|1:2,2:0:0:0:
299,140,67217,1,10,2:0:0:0:
312,234,67388,6,0,L|319:344,1,80,2|0,1:2|2:0,2:0:0:0:
248,381,67731,1,2,1:2:0:0:
226,287,67902,2,0,L|220:206,1,80,10|0,2:0|2:0,2:0:0:0:
170,124,68245,2,0,P|112:154|74:153,1,80,2|0,1:2|1:2,2:0:0:0:
27,89,68588,1,10,2:0:0:0:
208,27,68931,38,0,P|234:71|236:183,1,160,6|10,1:2|2:0,2:0:0:0:
319,126,69445,2,0,P|380:100|420:104,1,80,2|0,1:2|2:0,2:0:0:0:
474,160,69788,1,0,1:2:0:0:
474,160,69960,1,10,2:0:0:0:
417,237,70131,2,0,L|423:338,1,80,6|0,1:2|2:0,2:0:0:0:
329,288,70474,2,0,P|294:255|242:236,2,80,2|10|2,1:2|2:0|2:0,2:0:0:0:
300,379,70988,6,0,P|235:369|202:353,1,80,2|0,1:2|1:2,2:0:0:0:
126,374,71331,2,0,P|74:332|54:302,1,80,10|0,2:0|2:2,2:0:0:0:
3,248,71674,38,0,P|-1:178|82:124,1,160,6|8,1:2|2:0,2:0:0:0:
30,34,72188,1,2,2:0:0:0:
125,48,72360,2,0,P|151:77|172:197,1,160,2|8,1:2|2:0,2:0:0:0:
235,265,72874,5,2,1:2:0:0:
292,188,73045,2,0,P|325:166|364:155,1,80,2|0,2:0|1:2,2:0:0:0:
457,174,73388,2,0,L|470:257,1,80,8|2,2:0|2:0,2:0:0:0:
391,309,73731,1,2,1:2:0:0:
375,306,73902,1,0,1:2:0:0:
301,244,74074,1,8,0:0:0:0:
285,247,74245,1,2,0:0:0:0:
200,202,74417,38,0,P|138:180|37:232,1,160,2|10,1:2|2:0,2:0:0:0:
83,303,74931,2,0,P|164:337|184:336,1,80,2|0,2:0|1:0,2:0:0:0:
237,287,75274,2,0,P|299:282|340:294,1,80,2|8,1:2|2:0,2:0:0:0:
394,341,75617,6,0,L|413:152,1,160,2|2,1:2|1:2,2:0:0:0:
425,138,76045,1,2,0:0:0:0:
425,138,76131,2,0,P|380:90|370:54,1,80,10|0,2:0|2:0,2:0:0:0:
279,81,76474,2,0,P|259:115|229:141,1,80,2|0,1:2|1:2,2:0:0:0:
138,175,76817,1,10,2:0:0:0:
152,81,76988,1,2,2:0:0:0:
60,117,77160,38,0,P|39:164|61:280,1,160,6|8,1:2|2:0,2:0:0:0:
102,351,77674,2,0,P|35:344|-2:355,2,80,2|2|2,2:0|1:2|1:2,2:0:0:0:
194,379,78188,1,10,2:0:0:0:
232,290,78360,6,0,P|263:266|301:254,1,80,6|0,1:2|2:0,2:0:0:0:
393,282,78702,2,0,P|388:242|397:203,1,80,2|8,1:2|2:0,2:0:0:0:
473,144,79045,2,0,P|436:128|407:100,1,80,2|0,1:2|2:0,2:0:0:0:
353,21,79388,1,2,1:2:0:0:
283,88,79560,2,0,L|152:95,1,120,10|0,2:0|2:0,2:0:0:0:
133,57,79902,38,0,P|84:52|32:123,1,120,6|2,1:2|2:0,2:0:0:0:
38,137,80245,2,0,L|52:231,1,80,8|2,2:0|1:2,2:0:0:0:
119,268,80588,2,0,P|135:238|222:233,1,120,14|2,2:0|2:2,2:0:0:0:
235,262,80931,2,0,L|249:356,1,80,8|2,2:0|1:2,2:0:0:0:
316,238,81274,6,0,P|344:167|420:156,1,160,14|0,2:0|2:0,2:0:0:0:
439,40,83331,38,0,P|421:92|338:98,1,128,2|0,2:0|2:0,2:0:0:0:
279,59,83845,2,0,L|272:17,2,32,8|8|8,2:0|2:0|2:0,2:0:0:0:
241,140,84188,1,8,2:0:0:0:
140,288,84531,6,0,L|145:320,2,32,0|0|8,1:2|1:2|2:0,2:0:0:0:
76,223,84874,1,0,1:2:0:0:
131,152,85045,2,0,P|134:106|124:73,1,64,0|0,2:0|2:0,2:0:0:0:
52,32,85388,38,0,P|112:62|136:65,1,80,6|2,1:2|2:0,2:0:0:0:
202,7,85731,1,10,2:0:0:0:
175,131,85902,1,6,1:2:0:0:
342,36,86245,5,0,1:2:0:0:
421,89,86417,1,10,2:0:0:0:
309,151,86588,1,6,1:2:0:0:
485,227,86931,37,2,1:2:0:0:
405,279,87102,1,10,2:0:0:0:
312,250,87274,1,2,2:0:0:0:
238,311,87445,2,0,P|192:314|147:282,1,80,2|0,1:2|2:0,2:0:0:0:
218,220,87788,2,0,P|192:182|198:126,1,80,10|0,2:0|2:0,2:0:0:0:
286,156,88131,6,0,P|306:114|427:126,2,160,4|8|0,1:2|2:0|1:2,2:0:0:0:
337,237,88988,1,2,1:2:0:0:
285,318,89160,1,10,2:0:0:0:
370,361,89331,2,0,P|391:312|465:237,1,160,6|0,1:2|1:2,2:0:0:0:
511,152,89845,1,8,2:0:0:0:
416,139,90017,2,0,P|373:131|265:78,1,160,2|2,1:2|1:2,2:0:0:0:
203,9,90531,1,10,2:0:0:0:
19,65,90874,38,0,L|34:144,1,80,6|2,1:2|2:0,2:0:0:0:
108,205,91217,1,10,2:0:0:0:
181,100,91388,1,6,1:2:0:0:
315,237,91731,5,0,1:2:0:0:
409,251,91902,1,10,2:0:0:0:
344,362,92074,1,6,1:2:0:0:
297,139,92417,37,2,1:2:0:0:
380,92,92588,1,10,2:0:0:0:
296,43,92760,1,2,2:0:0:0:
210,86,92931,2,0,P|164:83|119:115,1,80,2|0,1:2|2:0,2:0:0:0:
184,179,93274,2,0,P|158:217|164:273,1,80,10|0,2:0|2:0,2:0:0:0:
251,262,93617,6,0,P|226:320|122:332,2,160,6|10|0,1:2|2:0|1:2,2:0:0:0:
287,172,94474,1,2,1:2:0:0:
361,112,94645,1,10,2:0:0:0:
413,192,94817,2,0,L|429:372,1,160,6|2,1:2|1:2,2:0:0:0:
335,381,95331,1,8,2:0:0:0:
265,314,95502,2,0,L|251:155,1,160,6|2,1:2|1:2,2:0:0:0:
298,72,96017,1,8,2:0:0:0:
298,72,96360,38,0,B|183:14|183:14|112:49|112:49|174:350|174:350|454:223|454:223|440:144|440:144|326:86,1,1024,6|0,1:2|2:0,2:0:0:0:
