osu file format v14

[General]
AudioFilename: audio.mp3
AudioLeadIn: 1730
PreviewTime: 59931
Countdown: 0
SampleSet: Soft
StackLeniency: 0.7
Mode: 0
LetterboxInBreaks: 0
EpilepsyWarning: 1
WidescreenStoryboard: 1

[Editor]
DistanceSpacing: 0.8
BeatDivisor: 4
GridSize: 4
TimelineZoom: 2

[Metadata]
Title:Diamond
TitleUnicode:ダイアモンド
Artist:Nakasu Kasumi (CV: Sagara Mayu)
ArtistUnicode:中須かすみ (CV: 相良茉優)
Creator:STCapricorn
Version:Easy
Source:ラブライブ!スクールアイドルフェスティバル ALL STARS
Tags:game size short ver. 虹ヶ咲学園スクールアイドル同好会 LoveLive! Love Live! Nijigasaki High School Idol Club Gakuen Doukoukai Dokokai NijiGaku ニジガク festival llsif sifas llas オールスターズ スクスタ sukusuta PDP Perfect Dream Project TOKIMEKI Runners 1st Album Kasumin かすみん Video Game Anime pop Jpop J-pop Japanese solo female vocalist caps 鈴木エレカ Suzuki Ereca JOE tasuku
BeatmapID:2326159
BeatmapSetID:901878

[Difficulty]
HPDrainRate:2
CircleSize:3.2
OverallDifficulty:3
ApproachRate:4
SliderMultiplier:0.999999999999999
SliderTickRate:1

[Events]
//Background and Video events
0,0,"kasumi1.jpg",0,0
Video,-1730,"video.m4v"
//Break Periods
//Storyboard Layer 0 (Background)
//Storyboard Layer 1 (Fail)
//Storyboard Layer 2 (Pass)
//Storyboard Layer 3 (Foreground)
//Storyboard Layer 4 (Overlay)
//Storyboard Sound Samples

[TimingPoints]
360,342.857142857143,4,2,1,60,1,0
1387,-100,4,2,1,44,0,0
1731,-100,4,2,1,80,0,0
3788,-100,4,2,1,70,0,0
4474,-100,4,2,1,80,0,0
9274,-100,4,2,1,70,0,0
9960,-100,4,2,1,80,0,0
12702,-100,4,2,1,50,0,0
15274,-100,4,2,1,70,0,0
18188,-100,4,2,1,60,0,0
18530,-100,4,2,1,65,0,0
18874,-100,4,2,1,70,0,0
19216,-100,4,2,1,75,0,0
19560,-100,4,2,1,80,0,0
21274,-100,4,2,1,70,0,0
27788,-100,4,2,1,80,0,0
31217,-100,4,2,1,70,0,0
31902,-100,4,2,1,80,0,0
37388,-100,4,2,1,80,0,0
49731,-100,4,2,1,60,0,0
56588,-100,4,2,1,70,0,0
57960,-100,4,2,1,80,0,0
60702,-100,4,2,1,80,0,1
70988,-100,4,2,1,70,0,0
71674,-100,4,2,1,80,0,1
81274,-100,4,2,1,80,0,0
83160,-100,4,2,1,70,0,0
85388,-100,4,2,1,80,0,0
99102,-100,4,2,1,5,0,0

[Colours]
Combo1 : 129,141,254
Combo2 : 142,214,35
Combo3 : 255,228,28
Combo4 : 252,134,3

[HitObjects]
98,108,360,6,0,L|93:172,1,50,8|8,2:0|2:0,0:0:0:0:
82,307,1045,2,0,P|112:298|171:331,1,99.9999999999999,10|10,2:3|2:3,2:0:0:0:
259,372,1731,6,0,B|309:368|309:368|341:330|341:330|391:326,1,150,6|4,1:2|1:2,0:0:0:0:
510,235,2760,2,0,B|505:184,1,50,10|4,0:2|1:2,0:0:0:0:
472,90,3274,2,0,B|422:94|422:94|390:132|390:132|340:136,1,150,2|2,1:2|1:2,0:0:0:0:
245,167,4131,1,10,2:0:0:0:
146,147,4474,38,0,P|107:88|205:16,1,200,6|2,1:2|1:2,0:0:0:0:
325,70,5674,2,0,P|378:84|436:80,1,99.9999999999999,6|0,1:2|1:2,2:0:0:0:
406,181,6360,2,0,P|353:167|295:171,1,99.9999999999999,2|2,1:2|1:2,2:0:0:0:
254,308,7217,6,0,B|204:312|204:312|172:350|172:350|122:354,1,150,4|4,1:2|1:2,0:0:0:0:
36,301,8074,2,0,B|40:251|40:251|78:219,1,99.9999999999999,2|4,1:2|1:2,0:0:0:0:
177,208,8760,2,0,B|227:204|227:204|259:166|259:166|309:162,1,150,2|2,1:2|1:2,0:0:0:0:
390,104,9617,1,10,2:0:0:0:
331,23,9960,38,0,P|282:68|150:51,1,200,4|0,1:2|1:2,2:0:0:0:
181,204,11160,2,0,P|233:193|278:232,1,99.9999999999999,6|2,1:2|1:2,2:0:0:0:
253,315,11845,2,0,P|201:326|156:287,1,99.9999999999999,2|2,1:2|1:2,2:0:0:0:
58,194,12702,1,2,2:0:0:0:
405,139,15274,6,0,P|361:75|241:93,2,200,6|6|14,1:2|1:2|2:0,2:0:0:0:
482,313,17502,37,10,2:0:0:0:
383,332,17845,1,6,3:0:0:0:
284,351,18188,2,0,P|238:354|194:325,1,99.9999999999999,6|2,1:2|1:2,2:0:0:0:
143,238,18874,2,0,P|183:210|232:213,1,99.9999999999999,2|2,1:2|1:2,2:0:0:0:
322,257,19560,2,0,P|414:280|484:215,1,200,2|10,1:2|2:0,0:0:0:0:
505,115,20588,1,10,2:0:0:0:
429,50,20931,1,4,1:2:0:0:
335,86,21274,6,0,L|326:192,1,99.9999999999999,10|2,2:0|1:2,2:0:0:0:
227,167,21960,2,0,L|222:114,1,50,10|2,2:0|1:2,2:0:0:0:
205,9,22474,2,0,P|135:67|77:45,1,150,2|2,1:2|1:2,2:0:0:0:
66,150,23331,2,0,L|71:220,1,50,10|6,2:0|1:2,0:0:0:0:
79,299,23845,1,0,1:2:0:0:
161,242,24188,38,0,P|233:234|287:342,1,200,6|6,1:2|1:2,0:0:0:0:
379,288,25217,1,2,1:2:0:0:
466,336,25560,2,0,B|470:286|470:286|508:254|508:254|512:204,1,150,2|10,1:2|2:0,0:0:0:0:
507,104,26417,5,6,1:2:0:0:
407,95,26760,1,10,0:0:0:0:
335,25,27102,1,2,1:2:0:0:
235,19,27445,1,10,0:0:0:0:
149,70,27788,2,0,L|47:62,1,99.9999999999999,6|10,1:2|2:0,0:0:0:0:
39,162,28474,2,0,L|138:169,1,99.9999999999999,10|10,2:0|2:0,0:0:0:0:
238,176,29160,38,0,B|234:226|234:226|196:258|196:258|192:308,1,150,4|6,1:2|1:2,0:0:0:0:
327,371,30188,2,0,B|331:321,1,50,10|6,0:2|1:2,0:0:0:0:
338,221,30702,2,0,B|388:225|388:225|420:263|420:263|470:267,1,150,2|2,1:2|1:2,0:0:0:0:
506,173,31560,1,10,2:0:0:0:
469,80,31902,6,0,P|420:114|320:37,1,200,6|2,1:2|1:2,0:0:0:0:
174,77,33102,2,0,P|130:71|83:105,1,99.9999999999999,6|0,1:2|1:2,2:0:0:0:
113,197,33788,2,0,P|157:203|204:169,1,99.9999999999999,6|2,1:2|2:0,2:0:0:0:
274,42,34645,1,6,2:0:0:0:
428,117,36017,38,0,B|381:174|381:174|412:248|412:248|394:299|338:316|293:288,1,300,0|8,1:2|2:1,0:0:0:0:
249,197,37388,22,0,B|174:174|174:174|54:229,1,200,6|2,1:2|1:2,2:0:0:0:
42,322,38417,1,8,2:0:0:0:
129,370,38760,2,0,B|239:319|239:319|314:342,1,200,2|2,1:2|1:2,2:0:0:0:
412,321,39788,1,8,2:0:0:0:
471,240,40131,6,0,B|448:165|448:165|480:99,1,150,2|2,1:2|2:0,2:0:0:0:
486,0,40988,1,2,2:0:0:0:
395,43,41331,2,0,B|303:83|303:83|255:59|255:59|162:101,1,250,2|2,2:0|1:2,0:0:0:0:
86,158,42531,1,10,2:0:0:0:
156,229,42874,38,0,B|139:330|139:330|170:372,1,150,6|2,1:2|2:0,2:0:0:0:
264,344,43731,2,0,L|279:243,1,99.9999999999999,2|2,2:0|2:0,0:0:0:0:
376,130,44588,1,10,2:0:0:0:
302,62,44931,2,0,L|203:47,1,99.9999999999999,2|10,1:2|2:0,2:0:0:0:
118,101,45617,6,0,B|131:175|131:175|188:223,1,150,2|2,1:2|0:2,2:0:0:0:
283,192,46474,1,2,2:0:0:0:
368,244,46817,2,0,L|382:347,1,99.9999999999999,10|10,2:0|2:0,0:0:0:0:
476,312,47502,2,0,L|469:260,1,50,10|10,2:0|2:0,0:0:0:0:
441,104,49731,6,0,P|381:68|276:140,1,200,6|10,1:2|2:0,2:0:0:0:
233,323,51102,2,0,P|173:359|68:287,1,200,2|10,2:0|2:0,0:0:0:0:
35,101,52474,2,0,P|76:145|161:131,1,150,6|2,1:2|1:2,2:0:0:0:
240,74,53331,2,0,P|306:61|336:80,1,99.9999999999999,2|2,2:0|1:2,2:0:0:0:
397,210,54188,1,2,2:0:0:0:
303,246,54531,1,10,2:0:0:0:
224,182,54874,1,2,1:2:0:0:
240,83,55217,6,0,P|134:44|77:94,1,200,12|8,2:0|2:0,2:0:0:0:
116,186,56245,1,8,2:0:0:0:
76,278,56588,2,0,P|130:302|186:307,1,99.9999999999999,4|8,1:2|2:0,0:0:0:0:
254,253,57274,2,0,P|308:229|364:224,1,99.9999999999999,8|8,2:0|2:0,0:0:0:0:
443,253,57960,38,0,L|448:304,1,50,6|2,1:2|2:0,0:0:0:0:
379,375,58474,2,0,P|335:383|249:270,1,200,8|4,3:0|1:2,0:0:0:0:
274,179,59502,2,0,L|223:184,1,50,2|2,1:2|1:2,0:0:0:0:
77,32,60702,6,0,P|49:106|56:128,1,99.9999999999999,6|8,1:2|2:0,2:0:0:0:
124,193,61388,1,2,1:2:0:0:
224,183,61731,1,8,0:0:0:0:
279,99,62074,2,0,P|347:68|377:79,1,99.9999999999999,2|8,1:2|2:0,2:0:0:0:
396,170,62760,1,0,1:2:0:0:
389,269,63102,1,8,0:0:0:0:
323,344,63445,38,0,P|274:282|200:288,1,150,2|2,1:2|2:0,2:0:0:0:
116,323,64302,1,2,1:2:0:0:
53,245,64645,2,0,L|44:92,1,150,2|10,1:2|2:0,2:0:0:0:
113,23,65502,2,0,P|144:57|199:59,1,99.9999999999999,0|8,1:2|2:0,0:0:0:0:
281,9,66188,5,4,1:2:0:0:
370,52,66531,2,0,P|414:48|460:88,1,99.9999999999999,10|2,2:0|1:2,2:0:0:0:
422,174,67217,2,0,L|414:230,1,50,10|2,2:0|1:2,0:0:0:0:
294,312,67902,1,10,0:2:0:0:
208,260,68245,1,2,1:2:0:0:
149,341,68588,1,10,2:0:0:0:
76,273,68931,38,0,P|94:203|44:146,1,150,6|2,1:2|1:2,2:0:0:0:
85,2,69960,2,0,L|152:-2,1,50,10|6,0:0|1:2,0:0:0:0:
261,79,70645,1,10,0:0:0:0:
348,29,70988,1,2,1:2:0:0:
427,89,71331,1,10,2:0:0:0:
385,179,71674,6,0,P|371:221|400:281,1,99.9999999999999,6|8,1:2|2:0,2:0:0:0:
473,326,72360,1,2,1:2:0:0:
390,382,72702,1,8,0:0:0:0:
296,346,73045,2,0,P|267:288|229:269,1,99.9999999999999,2|8,1:2|2:0,2:0:0:0:
145,310,73731,1,2,1:2:0:0:
77,236,74074,1,8,0:0:0:0:
142,160,74417,38,0,P|202:158|248:83,1,150,2|2,1:2|2:0,2:0:0:0:
161,37,75274,1,2,1:2:0:0:
66,70,75617,2,0,L|46:223,1,150,2|10,1:2|2:0,2:0:0:0:
101,302,76474,2,0,P|145:281|192:293,1,99.9999999999999,2|10,1:2|2:0,2:0:0:0:
267,360,77160,6,0,P|313:383|430:306,1,200,6|2,1:2|1:2,2:0:0:0:
481,172,78360,1,6,1:2:0:0:
413,98,78702,1,2,1:2:0:0:
314,115,79045,2,0,P|329:165|250:238,1,150,2|10,1:2|2:0,2:0:0:0:
162,230,79902,38,0,L|149:120,1,99.9999999999999,6|8,1:2|2:0,2:0:0:0:
56,165,80588,2,0,L|43:55,1,99.9999999999999,14|8,2:0|2:0,0:0:0:0:
138,31,81274,1,14,2:0:0:0:
434,88,84017,6,0,L|423:198,1,99.9999999999999,8|0,2:0|0:0,0:0:0:0:
384,279,84702,2,0,P|335:255|284:280,1,99.9999999999999,8|0,2:0|2:0,0:0:0:0:
221,337,85388,38,0,B|171:341|171:341|139:379|139:379|89:383,1,150,6|6,1:2|1:2,0:0:0:0:
11,254,86417,2,0,P|13:239|43:194,1,50,10|6,0:2|1:2,0:0:0:0:
129,205,86931,2,0,B|179:201|179:201|211:163|211:163|261:159,1,150,2|2,1:2|1:2,0:0:0:0:
341,218,87788,1,10,2:0:0:0:
421,159,88131,6,0,P|404:89|291:72,1,200,4|0,1:2|1:2,2:0:0:0:
203,194,89331,2,0,P|146:164|135:128,1,99.9999999999999,6|0,1:2|1:2,2:0:0:0:
36,116,90017,2,0,P|38:180|12:207,1,99.9999999999999,2|2,1:2|1:2,2:0:0:0:
136,296,90874,38,0,B|186:300|186:300|218:338|218:338|268:342,1,150,6|6,1:2|1:2,0:0:0:0:
357,298,91731,2,0,P|398:256|391:200,1,99.9999999999999,0|6,1:2|1:2,0:0:0:0:
307,175,92417,2,0,B|257:171|257:171|225:133|225:133|175:129,1,150,2|2,1:2|1:2,0:0:0:0:
81,94,93274,1,10,2:0:0:0:
163,37,93617,6,0,P|206:17|329:98,1,200,6|0,1:2|1:2,0:0:0:0:
396,219,94817,2,0,P|436:246|485:238,1,99.9999999999999,6|2,1:2|1:2,2:0:0:0:
489,138,95502,2,0,P|467:94|421:77,1,99.9999999999999,6|2,1:2|1:2,2:0:0:0:
273,101,96360,38,0,B|182:55|182:55|126:82|126:82|175:320|175:320|396:220|396:220|385:157|385:157|295:112,1,799.999999999999,6|0,1:2|2:0,2:0:0:0:
