osu file format v14

[General]
AudioFilename: audio.mp3
AudioLeadIn: 0
PreviewTime: 55652
Countdown: 0
SampleSet: Soft
StackLeniency: 0.7
Mode: 2
LetterboxInBreaks: 0
WidescreenStoryboard: 1

[Editor]
DistanceSpacing: 1
BeatDivisor: 4
GridSize: 32
TimelineZoom: 1

[Metadata]
Title:KISS OF DEATH (Produced by HYDE) (TV Size)
TitleUnicode:KISS OF DEATH (Produced by HYDE) (TV Size)
Artist:Nakashima Mika
ArtistUnicode:中島美嘉
Creator:Ymiir
Version:Cup
Source:ダーリン・イン・ザ・フランキス
Tags:darling in the franxx opening op zero two 02 l'arc en ciel anime short version kaitlin -wwwww monstrata fii japanese nakajima
BeatmapID:1683483
BeatmapSetID:802090

[Difficulty]
HPDrainRate:3
CircleSize:2.5
OverallDifficulty:6
ApproachRate:6
SliderMultiplier:1.7
SliderTickRate:2

[Events]
//Background and Video events
0,0,"franx.jpg",0,0
//Break Periods
//Storyboard Layer 0 (Background)
//Storyboard Layer 1 (Fail)
//Storyboard Layer 2 (Pass)
//Storyboard Layer 3 (Foreground)
//Storyboard Layer 4 (Overlay)
//Storyboard Sound Samples

[TimingPoints]
1062,491.803278688525,4,2,0,50,1,0
1062,-32.4427480916031,4,2,0,50,0,0
14832,-32.4427480916031,4,2,1,85,0,0
15570,-32.4427480916031,4,2,1,85,0,0
16799,-32.4427480916031,4,2,1,85,0,1
17168,-32.4427480916031,4,2,1,85,0,1
20734,-32.4427480916031,4,2,1,60,0,0
36471,-32.4427480916031,4,2,1,70,0,0
55529,-32.4427480916031,4,2,1,5,0,0
55652,-32.4427480916031,4,2,1,90,0,0
56021,-32.4427480916031,4,2,1,5,0,0
56143,-32.4427480916031,4,2,1,85,0,1
71758,-32.4427480916031,4,2,1,85,0,0
71881,-32.4427480916031,4,2,1,85,0,1
87619,-32.4427480916031,4,2,1,85,0,0

[Colours]
Combo1 : 244,170,172
Combo2 : 0,72,159

[HitObjects]
145,337,1062,6,0,B|138:272|138:272|116:210|116:210|92:149|92:149|78:85|78:85|54:24|54:24|67:88|67:88|71:153|71:153|79:218|79:218|97:271|97:271|114:324|114:324|122:379|122:379|148:288|148:288,1,786,2|2,0:0|0:0,0:0:0:0:
318,169,2291,1,2,0:0:0:0:
155,44,2783,6,0,B|127:103|127:103|127:168|127:168|133:233|133:233|126:298|126:298|150:359|150:359|150:294|150:294|139:229|139:229|175:174|175:174|183:109|183:109|224:58|224:58|253:117|253:117|257:182|257:182|281:243|281:243|294:307|294:307|333:359|333:359|340:294|340:294|357:231|357:231|358:166|358:166|396:113|396:113|388:48|388:48|403:102|403:102|371:148|371:148|359:203|359:203|356:297|356:297,1,1572,2|2,0:0|0:0,0:0:0:0:
155,370,4750,6,0,L|176:308|176:308|203:248|203:248|218:184|218:184|240:122|240:122|263:71|263:71|271:16|271:16|281:71|281:71|324:155|324:155,1,524,2|2,0:0|0:0,0:0:0:0:
495,169,5734,2,0,L|457:222|457:222|436:284|436:284|417:347|417:347|410:282|410:282|383:233|383:233|390:178|390:178|351:138|351:138|326:47|326:47,1,524,2|2,0:0|0:0,0:0:0:0:
149,222,6717,2,0,B|140:287|140:287|127:351|127:351|86:300|86:300|102:236|102:236|91:181|91:181|114:130|114:130|140:80|140:80|160:172|160:172,1,524,2|2,0:0|0:0,0:0:0:0:
430,344,8930,6,0,B|446:280|446:280|469:219|469:219|470:154|470:154|475:89|475:89|490:25|490:25|463:85|463:85|474:150|474:150|449:211|449:211|439:266|439:266|430:321|430:321|395:364|395:364|372:273|372:273,1,786,2|2,0:0|0:0,0:0:0:0:
164,325,10652,1,2,0:0:0:0:
74,275,10898,6,0,B|62:339|62:339|34:280|34:280|61:220|61:220|44:157|44:157|27:94|27:94|43:31|43:31|54:96|54:96|78:157|78:157|85:212|85:212|92:267|92:267|139:297|139:297|156:204|156:204,1,786,2|2,0:0|0:0,0:0:0:0:
321,374,12127,2,0,L|302:311|302:311|288:247|288:247|253:192|253:192|237:128|237:128|215:76|215:76|210:20|210:20|193:73|193:73|153:159|153:159,1,524,2|2,0:0|0:0,0:0:0:0:
433,294,14094,6,0,B|442:359|442:359|447:294|447:294|458:230|458:230|463:165|463:165|455:110|455:110|463:55|463:55|446:2|446:2|401:85|401:85,1,524,0|0,0:0|0:0,0:0:0:0:
290,169,14832,6,0,B|266:230|266:230|240:290|240:290|233:355|233:355|206:295|206:295|188:232|188:232|151:178|151:178|167:115|167:115|136:58|136:58|140:123|140:123|103:177|103:177|90:241|90:241|94:306|94:306|109:370|109:370|116:305|116:305|122:240|122:240|136:176|136:176|165:117|165:117|160:52|160:52|176:116|176:116|206:174|206:174|220:228|220:228|229:283|229:283|263:327|263:327|290:237|290:237,2,786,6|4|0,0:0|0:0|0:0,0:0:0:0:
478,357,16799,6,0,L|456:295|456:295|448:230|448:230|412:175|412:175|394:112|394:112|352:236|352:236,1,393,6|12,0:0|0:0,0:0:0:0:
222,339,17537,2,0,B|207:275|207:275|190:212|190:212|197:147|197:147|173:86|173:86|171:21|171:21|156:85|156:85|168:149|168:149|191:210|191:210|204:264|204:264|200:320|200:320|241:358|241:358|262:266|262:266,1,786,2|8,0:0|0:0,0:0:0:0:
427,75,18766,6,0,L|415:139|415:139|445:197|445:197|446:262|446:262|439:327|439:327|447:194|447:194,1,392.999988712087,6|12,0:0|0:0,0:0:0:0:
311,245,19504,2,0,B|303:310|303:310|256:356|256:356|263:291|263:291|231:234|231:234|222:169|222:169|194:110|194:110|175:47|175:47|147:106|147:106|133:160|133:160|115:213|115:213|79:256|79:256|64:349|64:349,1,786,2|12,0:0|0:0,0:0:0:0:
251,27,20734,6,0,B|268:90|268:90|300:147|300:147|314:211|314:211|314:276|314:276|324:341|324:341|319:276|319:276|337:213|337:213|312:153|312:153|289:102|289:102|291:46|291:46|258:1|258:1|245:94|245:94,1,786,2|8,0:0|0:0,0:0:0:0:
80,238,21963,1,8,0:0:0:0:
256,365,22455,2,0,L|243:301|243:301|224:238|224:238|206:175|206:175|172:119|172:119|144:71|144:71|117:22|117:22|134:75|134:75|88:157|88:157,1,524,8|8,0:0|0:0,0:0:0:0:
269,274,23439,6,0,B|295:334|295:334|305:269|305:269|320:205|320:205|351:148|351:148|383:91|383:91|404:29|404:29|396:94|396:94|410:158|410:158|412:214|412:214|409:270|409:270|434:320|434:320|424:226|424:226,1,786,8|2,0:0|0:0,0:0:0:0:
336,74,24422,1,0,0:0:0:0:
250,38,24668,6,0,B|236:102|236:102|199:156|199:156|178:218|178:218|166:282|166:282|146:344|146:344|119:284|119:284|110:219|110:219|86:158|86:158|52:114|52:114|61:59|61:59|43:6|43:6|24:98|24:98,1,786,2|8,0:0|0:0,0:0:0:0:
200,348,25898,2,0,L|206:283|206:283|257:242|257:242|246:177|246:177|284:124|284:124|305:72|305:72|312:17|312:17|338:66|338:66|369:155|369:155,1,524,8|8,0:0|0:0,0:0:0:0:
282,294,26635,2,0,B|246:349|246:349|251:284|251:284|234:221|234:221|200:165|200:165|198:100|198:100|168:42|168:42|147:104|147:104|141:169|141:169|134:225|134:225|113:277|113:277|128:331|128:331|127:237|127:237,1,786,2|8,0:0|0:0,0:0:0:0:
369,9,28357,1,8,0:0:0:0:
465,57,28602,6,0,B|460:122|460:122|491:180|491:180|481:245|481:245|479:310|479:310|470:375|470:375|454:311|454:311|455:246|455:246|437:183|437:183|418:130|418:130|401:77|401:77|389:22|389:22|359:111|359:111,1,786,2|8,0:0|0:0,0:0:0:0:
201,209,29832,1,8,0:0:0:0:
26,362,30324,2,0,L|64:308|64:308|85:246|85:246|98:182|98:182|109:117|109:117|132:66|132:66|128:10|128:10|148:62|148:62|192:146|192:146,1,524,8|8,0:0|0:0,0:0:0:0:
373,354,31307,6,0,B|400:294|400:294|431:237|431:237|448:174|448:174|444:109|444:109|452:54|452:54|454:110|454:110|462:165|462:165|454:259|454:259,1,524,8|8,0:0|0:0,0:0:0:0:
369,186,32045,1,2,0:0:0:0:
199,233,32537,6,0,B|190:298|190:298|159:356|159:356|133:296|133:296|131:231|131:231|126:166|126:166|136:101|136:101|112:40|112:40|131:103|131:103|125:159|125:159|146:211|146:211|170:261|170:261|200:350|200:350,1,786,2|8,0:0|0:0,0:0:0:0:
368,42,33766,1,8,0:0:0:0:
198,348,34258,1,8,0:0:0:0:
111,328,34504,6,0,B|97:264|97:264|75:202|75:202|78:137|78:137|78:72|78:72|91:8|91:8|81:73|81:73|104:134|104:134|106:199|106:199|137:246|137:246|132:302|132:302|154:353|154:353|180:262|180:262,1,786,2|8,0:0|0:0,0:0:0:0:
349,314,35734,2,0,L|388:367|388:367|404:304|404:304|405:239|405:239|432:179|432:179|415:126|415:126|401:72|401:72|391:17|391:17|349:101|349:101,2,262,8|2|8,0:0|0:0|0:0,0:0:0:0:
249,300,36471,6,0,L|236:364|236:364|212:303|212:303|196:239|196:239|165:181|165:181|123:57|123:57,1,393,6|0,0:0|0:0,0:0:0:0:
267,46,37209,2,0,B|298:104|298:104|299:169|299:169|297:234|297:234|319:296|319:296|326:361|326:361|302:300|302:300|330:241|330:241|301:182|301:182|270:135|270:135|289:83|289:83|272:30|272:30|227:113|227:113,1,786,8|2,0:0|0:0,0:0:0:0:
53,358,38439,6,0,L|62:293|62:293|82:231|82:231|100:168|100:168|136:113|136:113|177:237|177:237,1,393,2|0,0:0|0:0,0:0:0:0:
310,376,39176,2,0,B|344:320|344:320|355:255|355:255|358:190|358:190|390:133|390:133|407:70|407:70|428:8|428:8|419:73|419:73|446:133|446:133|459:187|459:187|442:240|442:240|476:285|476:285|461:378|461:378,1,786,8|2,0:0|0:0,0:0:0:0:
291,156,40406,6,0,L|270:218|270:218|266:283|266:283|240:343|240:343|208:286|208:286|166:160|166:160,1,392.999988712087,2|0,0:0|0:0,0:0:0:0:
24,344,41143,2,0,L|52:285|52:285|63:220|63:220|96:163|96:163|107:98|107:98|118:33|118:33|157:86|157:86|154:151|154:151|189:206|189:206|217:255|217:255|236:307|236:307|251:361|251:361|272:269|272:269,1,786,8|2,0:0|0:0,0:0:0:0:
449,74,42373,6,0,L|426:135|426:135|415:200|415:200|369:247|369:247|366:312|366:312|325:188|325:188,1,393,2|0,0:0|0:0,0:0:0:0:
190,59,43111,2,0,B|157:116|157:116|152:181|152:181|160:246|160:246|138:308|138:308|124:372|124:372|131:307|131:307|162:249|162:249|156:184|156:184|168:129|168:129|176:74|176:74|214:33|214:33|230:126|230:126,1,786,8|2,0:0|0:0,0:0:0:0:
335,298,44094,1,8,0:0:0:0:
439,371,44340,6,0,L|421:308|421:308|398:247|398:247|370:188|370:188|356:124|356:124|315:248|315:248,1,393,2|0,0:0|0:0,0:0:0:0:
179,378,45078,2,0,B|151:319|151:319|138:255|138:255|118:193|118:193|99:130|99:130|83:66|83:66|52:8|52:8|37:72|37:72|43:137|43:137|53:192|53:192|19:237|19:237|21:293|21:293|28:199|28:199,1,786,8|2,0:0|0:0,0:0:0:0:
215,173,46307,6,0,L|255:225|255:225|256:290|256:290|291:345|291:345|298:280|298:280|340:155|340:155,1,392.999988712087,2|0,0:0|0:0,0:0:0:0:
199,179,47045,2,0,B|177:241|177:241|164:305|164:305|137:365|137:365|147:300|147:300|143:235|143:235|139:170|139:170|160:108|160:108|165:43|165:43|193:92|193:92|211:145|211:145|228:198|228:198|239:292|239:292,1,786,8|2,0:0|0:0,0:0:0:0:
330,361,48029,1,0,0:0:0:0:
421,360,48275,6,0,B|436:296|436:296|451:232|451:232|448:167|448:167|458:102|458:102|454:46|454:46|446:101|446:101|425:153|425:153|398:243|398:243,1,524,8|8,0:0|0:0,0:0:0:0:
194,269,49258,2,0,B|159:325|159:325|153:260|153:260|161:195|161:195|157:130|157:130|154:74|154:74|172:21|172:21|191:74|191:74|217:165|217:165,1,524,8|8,0:0|0:0,0:0:0:0:
423,42,50242,6,0,L|408:106|408:106|370:159|370:159|369:224|369:224|339:282|339:282|333:338|333:338|304:386|304:386|271:341|271:341|255:248|255:248,1,524,8|8,0:0|0:0,0:0:0:0:
73,157,51225,2,0,L|89:221|89:221|124:276|124:276|130:341|130:341|157:281|157:281|193:238|193:238|190:182|190:182|206:128|206:128|241:40|241:40,1,524,8|2,0:0|0:0,0:0:0:0:
423,103,52209,5,4,0:0:0:0:
256,192,52701,12,12,55652,0:1:0:0:
202,340,56143,6,0,L|166:285|166:285|165:220|165:220|140:159|140:159|118:97|118:97|76:221|76:221,1,393,6|8,0:0|0:0,0:0:0:0:
249,255,56881,2,0,L|284:311|284:311|302:374|302:374|313:309|313:309|332:246|332:246|352:194|352:194|371:142|371:142|382:87|382:87|415:175|415:175,1,524,2|2,0:0|0:0,0:0:0:0:
309,188,57619,1,8,0:0:0:0:
100,234,58111,6,0,L|86:298|86:298|88:363|88:363|97:298|97:298|83:234|83:234|74:103|74:103,1,393,6|0,0:0|0:0,0:0:0:0:
246,21,58848,2,0,B|248:86|248:86|271:147|271:147|269:212|269:212|288:275|288:275|287:331|287:331|260:380|260:380|266:324|266:324|229:237|229:237,1,524,2|2,0:0|0:0,0:0:0:0:
122,127,59586,1,8,0:0:0:0:
337,353,60078,6,0,L|339:288|339:288|371:231|371:231|388:168|388:168|421:111|421:111|462:235|462:235,1,393,6|8,0:0|0:0,0:0:0:0:
290,256,60816,2,0,L|288:321|288:321|267:383|267:383|235:326|235:326|206:267|206:267|186:215|186:215|151:171|151:171|146:115|146:115|122:24|122:24,1,524,2|2,0:0|0:0,0:0:0:0:
229,196,61553,1,8,0:0:0:0:
458,50,62045,6,0,L|427:108|427:108|419:173|419:173|377:223|377:223|374:288|374:288|332:164|332:164,1,393,6|0,0:0|0:0,0:0:0:0:
192,342,62783,2,0,L|155:288|155:288|136:225|136:225|111:164|111:164|108:99|108:99|102:34|102:34|66:89|66:89|82:152|82:152|108:212|108:212|127:265|127:265|138:320|138:320|167:368|167:368|192:277|192:277,2,393,2|0|8,0:0|0:0|0:0,0:0:0:0:
427,369,64012,6,0,B|437:304|437:304|434:239|434:239|415:176|415:176|420:111|420:111|381:236|381:236,1,393,6|8,0:0|0:0,0:0:0:0:
226,310,64750,2,0,B|216:375|216:375|203:311|203:311|227:250|227:250|218:185|218:185|224:129|224:129|254:82|254:82|271:29|271:29|285:122|285:122,1,524,2|2,0:0|0:0,0:0:0:0:
391,170,65488,1,8,0:0:0:0:
185,70,65980,6,0,L|145:122|145:122|144:187|144:187|120:248|120:248|101:311|101:311|60:187|60:187,1,393,6|2,0:0|0:0,0:0:0:0:
238,347,66717,2,0,B|251:283|251:283|244:218|244:218|241:153|241:153|246:88|246:88|249:32|249:32|238:87|238:87|203:130|203:130|179:221|179:221,1,524,2|2,0:0|0:0,0:0:0:0:
73,207,67455,1,8,0:0:0:0:
315,359,67947,6,0,L|299:295|299:295|313:231|313:231|307:166|307:166|324:103|324:103|328:234|328:234,1,393,6|8,0:0|0:0,0:0:0:0:
176,185,68684,2,0,B|145:243|145:243|125:305|125:305|111:369|111:369|92:306|92:306|61:259|61:259|50:204|50:204|34:150|34:150|13:58|13:58,1,524,2|2,0:0|0:0,0:0:0:0:
119,82,69422,1,8,0:0:0:0:
308,347,69914,6,0,B|324:284|324:284|365:233|365:233|373:168|373:168|390:105|390:105|395:40|395:40|425:98|425:98|432:163|432:163|452:225|452:225|448:290|448:290|466:353|466:353|486:291|486:291|475:226|475:226|493:163|493:163|468:102|468:102|455:38|455:38|452:103|452:103|451:168|451:168|437:232|437:232|408:291|408:291|390:354|390:354|366:304|366:304|345:252|345:252|331:198|331:198|308:107|308:107,2,786,4|4|4,0:0|0:0|0:0,0:0:0:0:
71,289,71881,6,0,B|60:354|60:354|55:289|55:289|71:226|71:226|93:164|93:164|129:38|129:38,1,393,6|8,0:0|0:0,0:0:0:0:
301,164,72619,2,0,L|309:229|309:229|356:274|356:274|349:339|349:339|385:285|385:285|404:232|404:232|439:188|439:188|429:133|429:133|470:48|470:48,1,524,2|2,0:0|0:0,0:0:0:0:
362,106,73357,1,8,0:0:0:0:
150,322,73848,6,0,L|185:377|185:377|183:312|183:312|219:257|219:257|234:193|234:193|277:69|277:69,1,393,6|2,0:0|0:0,0:0:0:0:
105,203,74586,2,0,B|103:268|103:268|71:325|71:325|83:261|83:261|89:196|89:196|93:140|93:140|115:89|115:89|135:37|135:37|155:129|155:129,1,524,2|2,0:0|0:0,0:0:0:0:
261,76,75324,1,8,0:0:0:0:
479,177,75816,6,0,L|452:237|452:237|439:301|439:301|404:356|404:356|395:291|395:291|353:167|353:167,1,393,6|8,0:0|0:0,0:0:0:0:
181,358,76553,2,0,L|216:303|216:303|216:238|216:238|251:183|251:183|265:119|265:119|292:70|292:70|284:15|284:15|327:50|327:50|352:142|352:142,1,523.999984949449,2|2,0:0|0:0,0:0:0:0:
454,325,77291,1,8,0:0:0:0:
216,247,77783,6,0,B|208:312|208:312|204:377|204:377|195:312|195:312|220:251|220:251|255:125|255:125,1,393,4|2,0:0|0:0,0:0:0:0:
450,62,78521,2,0,L|443:127|443:127|394:170|394:170|371:231|371:231|366:296|366:296|360:361|360:361|324:306|324:306|343:243|343:243|366:182|366:182|381:128|381:128|395:74|395:74|434:34|434:34|450:127|450:127,2,393,2|0|8,0:0|0:0|0:0,0:0:0:0:
211,102,79750,6,0,L|187:163|187:163|173:227|173:227|148:288|148:288|127:350|127:350|85:226|85:226,1,393,6|8,0:0|0:0,0:0:0:0:
238,211,80488,2,0,L|262:272|262:272|281:335|281:335|284:270|284:270|322:217|322:217|336:163|336:163|341:107|341:107|358:54|358:54|406:135|406:135,1,524,2|2,0:0|0:0,0:0:0:0:
302,270,81225,1,8,0:0:0:0:
85,359,81717,6,0,L|81:294|81:294|65:230|65:230|66:165|66:165|71:100|71:100|65:231|65:231,1,393,6|2,0:0|0:0,0:0:0:0:
254,261,82455,2,0,B|254:326|254:326|288:382|288:382|283:317|283:317|270:253|270:253|259:198|259:198|264:142|264:142|229:99|229:99|204:8|204:8,1,524,2|2,0:0|0:0,0:0:0:0:
98,134,83193,1,8,0:0:0:0:
324,21,83684,6,0,B|324:86|324:86|370:133|370:133|357:197|357:197|359:262|359:262|346:132|346:132,1,393,6|8,0:0|0:0,0:0:0:0:
173,371,84422,2,0,B|143:313|143:313|146:248|146:248|149:183|149:183|155:118|155:118|163:63|163:63|166:7|166:7|199:52|199:52|216:145|216:145,1,524,2|2,0:0|0:0,0:0:0:0:
347,254,85160,1,8,0:0:0:0:
116,106,85652,6,0,L|142:166|142:166|141:231|141:231|181:283|181:283|200:346|200:346|230:288|230:288|261:230|261:230|248:166|248:166|284:111|284:111|308:50|308:50|319:115|319:115|349:173|349:173|368:236|368:236|328:288|328:288|325:353|325:353|310:289|310:289|284:229|284:229|247:175|247:175|244:110|244:110|220:49|220:49|200:111|200:111|179:163|179:163|154:213|154:213|152:269|152:269|116:356|116:356,2,786,12|8|12,0:0|0:0|0:0,0:0:0:0:
294,189,87619,1,4,0:0:0:0:
