osu file format v14

[General]
AudioFilename: audio.mp3
AudioLeadIn: 0
PreviewTime: 53037
Countdown: 0
SampleSet: Normal
StackLeniency: 0.3
Mode: 0
LetterboxInBreaks: 0
WidescreenStoryboard: 1

[Editor]
DistanceSpacing: 1.2
BeatDivisor: 4
GridSize: 4
TimelineZoom: 2.1

[Metadata]
Title:Hello, Mr. Wonder land
TitleUnicode:Hello, Mr. Wonder land
Artist:Nakanomori Ayako
ArtistUnicode:中ノ森文子
Creator:-Hanashi-
Version:Hard
Source:カードファイト!! ヴァンガードG NEXT
Tags:cardfight!! vanguard g chrono shindou
BeatmapID:1101680
BeatmapSetID:518204

[Difficulty]
HPDrainRate:6
CircleSize:4
OverallDifficulty:6
ApproachRate:6.5
SliderMultiplier:1.3
SliderTickRate:1

[Events]
//Background and Video events
0,0,"cfvgnextkazuma.png",0,0
//Break Periods
//Storyboard Layer 0 (Background)
//Storyboard Layer 1 (Fail)
//Storyboard Layer 2 (Pass)
//Storyboard Layer 3 (Foreground)
//Storyboard Sound Samples

[TimingPoints]
924,342.857142857143,4,1,0,75,1,0
44809,-125,4,1,0,100,0,0
47552,-100,4,1,0,100,0,0
53038,-100,4,1,0,100,0,1
74809,-100,4,1,0,100,0,0

[Colours]
Combo1 : 191,128,255
Combo2 : 66,160,255
Combo3 : 255,108,108
Combo4 : 125,255,125
Combo5 : 255,176,98

[HitObjects]
104,131,923,5,0,0:0:0:0:
104,131,1095,2,0,L|252:124,1,130
305,93,1609,2,0,P|270:151|299:212,1,130
349,256,2124,5,0,0:0:0:0:
414,214,2295,2,0,P|456:219|488:221,1,65
487,142,2638,2,0,P|445:137|413:135,1,65
340,188,2981,2,0,B|317:244|317:244|278:227|240:234,1,130
175,206,3495,5,0,0:0:0:0:
179,128,3666,2,0,P|182:85|200:57,1,65
259,138,4009,1,0,0:0:0:0:
259,138,4181,2,0,L|407:133,1,130
464,155,4695,2,0,P|409:104|388:29,1,130
295,31,5209,5,0,0:0:0:0:
237,83,5381,2,0,L|218:150,1,65
283,190,5724,2,0,L|293:269,1,65
301,331,6066,1,0,0:0:0:0:
372,264,6238,6,0,B|428:248|498:262|498:262|479:185,1,195
472,118,6924,1,0,0:0:0:0:
412,67,7095,1,0,0:0:0:0:
353,117,7266,2,0,L|282:123,1,65
219,53,7609,6,0,B|306:46|306:46|345:19,1,130
415,46,8124,1,0,0:0:0:0:
474,96,8295,1,0,0:0:0:0:
436,164,8466,2,0,P|435:233|439:251,1,65
485,312,8809,1,0,0:0:0:0:
485,312,8981,6,0,L|347:307,1,130
286,269,9495,2,0,L|354:272,1,65
356,193,9838,2,0,L|288:190,1,65
247,125,10181,1,0,0:0:0:0:
201,187,10352,5,0,0:0:0:0:
117,54,10695,1,0,0:0:0:0:
124,209,11038,2,0,L|267:203,1,130
323,168,11552,1,0,0:0:0:0:
410,213,11724,6,0,P|436:257|376:315,1,130
317,293,12238,1,0,0:0:0:0:
240,309,12409,2,0,L|166:299,1,65
114,250,12752,2,0,L|39:271,1,65
46,170,13095,6,0,B|122:150|122:150|160:155|181:175,1,130
245,146,13609,1,0,0:0:0:0:
304,196,13781,2,0,P|300:240|306:272,1,65
381,265,14124,2,0,P|385:221|379:189,1,65
350,129,14466,5,0,0:0:0:0:
277,158,14638,1,0,0:0:0:0:
220,211,14809,2,0,L|140:204,1,65
120,114,15152,2,0,L|252:102,1,130
438,155,15838,6,0,P|411:218|345:191,1,130
307,152,16352,1,0,0:0:0:0:
296,249,16524,1,0,0:0:0:0:
296,171,16695,1,0,0:0:0:0:
287,268,16866,6,0,L|209:254,1,65
152,290,17209,1,0,0:0:0:0:
102,206,17381,2,0,B|88:151|113:119|113:119|92:65,1,130
163,39,17895,2,0,P|227:44|310:31,1,130
370,35,18409,5,0,0:0:0:0:
416,98,18581,2,0,L|419:172,1,65
341,175,18924,2,0,L|336:260,1,65
265,264,19266,2,0,L|240:345,1,65
172,354,19609,1,0,0:0:0:0:
100,323,19781,1,0,0:0:0:0:
113,246,19952,5,0,0:0:0:0:
113,246,20038,1,0,0:0:0:0:
113,246,20124,2,0,L|130:115,1,130
207,108,20638,6,0,L|195:188,1,65
240,237,20981,2,0,P|300:232|325:237,1,65
330,306,21324,2,0,P|383:312|418:301,1,65
431,246,21666,1,0,0:0:0:0:
438,253,21752,1,0,0:0:0:0:
445,260,21838,6,0,L|457:179,1,65
392,147,22181,2,0,L|385:64,1,65
315,48,22524,2,0,P|277:37|229:40,1,65
222,129,22866,6,0,B|170:131|129:114|129:114|83:158,1,130
108,239,23381,2,0,P|160:243|240:223,1,130
305,191,23895,1,0,0:0:0:0:
370,233,24066,2,0,P|365:277|376:323,1,65
434,337,24409,2,0,P|442:296|436:252,1,65
370,233,24752,5,0,0:0:0:0:
320,293,24924,2,0,L|245:279,1,65
194,328,25266,2,0,P|161:323|108:333,1,65
62,286,25609,6,0,B|89:241|89:241|97:164,1,130
101,85,26124,1,0,0:0:0:0:
198,89,26295,1,0,0:0:0:0:
120,97,26466,1,0,0:0:0:0:
198,89,26638,2,0,L|264:75,1,65
415,52,27152,5,0,0:0:0:0:
415,52,27324,2,0,L|424:134,1,65
376,179,27666,2,0,L|339:268,1,65
293,292,28009,2,0,P|241:285|206:286,1,65
156,314,28352,5,0,0:0:0:0:
107,252,28524,1,0,0:0:0:0:
156,191,28695,2,0,B|146:143|164:104,1,65
227,159,29038,1,0,0:0:0:0:
289,112,29209,2,0,L|362:122,1,65
451,134,29552,6,0,L|318:148,1,130
296,221,30066,2,0,P|288:278|280:307,1,65
209,299,30409,2,0,P|209:254|217:222,1,65
296,221,30752,1,0,0:0:0:0:
331,290,30924,1,0,0:0:0:0:
402,259,31095,6,0,L|414:178,1,65
427,118,31438,1,0,0:0:0:0:
377,224,31609,2,0,P|302:191|260:235,1,130
204,258,32124,1,0,0:0:0:0:
145,206,32295,1,0,0:0:0:0:
183,138,32466,6,0,B|185:103|171:50,1,65
98,76,32809,2,0,P|94:133|99:164,1,65
145,206,33152,2,0,L|58:221,1,65
84,295,33495,2,0,L|163:281,1,65
207,334,33838,5,0,0:0:0:0:
275,296,34009,1,0,0:0:0:0:
335,345,34181,1,0,0:0:0:0:
335,345,34352,2,0,L|327:213,1,130
322,137,34866,5,0,0:0:0:0:
255,178,35038,1,0,0:0:0:0:
368,210,35209,2,0,P|402:213|446:224,1,65
492,269,35552,1,0,0:0:0:0:
499,191,35724,2,0,L|490:59,1,130
417,32,36238,1,0,0:0:0:0:
490,61,36409,1,0,0:0:0:0:
390,120,36581,6,0,P|337:118|256:82,1,130
201,46,37095,1,0,0:0:0:0:
184,122,37266,2,0,P|173:166|156:196,1,65
101,230,37609,1,0,0:0:0:0:
134,300,37781,6,0,B|237:305|237:305|273:277,1,130
324,247,38295,2,0,P|332:301|326:324,1,65
402,340,38638,2,0,L|467:339,1,65
491,264,38981,1,0,0:0:0:0:
456,194,39152,1,0,0:0:0:0:
456,194,39324,6,0,L|367:183,1,65
278,78,39838,5,2,0:0:0:0:
278,78,40009,2,0,P|268:142|285:219,1,130
248,277,40524,2,0,L|116:245,1,130
77,182,41038,1,0,0:0:0:0:
43,252,41209,1,0,0:0:0:0:
113,320,41381,6,0,P|159:314|191:312,1,65
251,338,41724,2,0,P|292:343|326:339,1,65
377,294,42066,1,0,0:0:0:0:
433,347,42238,1,0,0:0:0:0:
448,251,42409,2,0,L|439:155,1,65
405,116,42752,5,0,0:0:0:0:
312,147,42924,1,0,0:0:0:0:
380,110,43095,1,0,0:0:0:0:
285,129,43266,6,0,P|211:134|155:115,1,130
108,56,43781,1,0,0:0:0:0:
56,114,43952,1,0,0:0:0:0:
56,114,44038,1,0,0:0:0:0:
56,114,44124,2,0,L|57:207,1,65
123,218,44466,2,0,L|112:307,1,65
175,332,44809,6,0,P|226:314|289:325,1,104
348,347,45324,1,0,0:0:0:0:
375,274,45495,2,0,L|387:207,1,52
319,80,46009,6,0,P|265:128|229:106,1,104
179,75,46524,1,0,0:0:0:0:
113,215,46866,2,0,L|111:327,1,104
182,352,47381,1,0,0:0:0:0:
247,308,47552,6,0,B|299:297|335:314|335:314|390:291,1,130
432,249,48066,1,0,0:0:0:0:
365,206,48238,2,0,P|350:150|354:117,1,65
358,65,48581,1,0,0:0:0:0:
429,96,48752,2,0,L|287:117,1,130
242,168,49266,6,0,P|240:206|231:236,1,65
151,223,49609,2,0,P|147:166|156:139,1,65
198,98,49952,1,0,0:0:0:0:
242,168,50124,1,0,0:0:0:0:
300,115,50295,6,0,L|393:124,1,65
427,74,50638,1,0,0:0:0:0:
435,151,50809,2,0,P|415:188|453:268,1,130
500,321,51324,1,0,0:0:0:0:
423,335,51495,6,0,B|378:329|378:329|335:343|335:343|275:337,1,130
230,296,52009,2,0,P|224:240|233:218,1,65
265,165,52352,2,0,L|322:152,2,32.5
189,142,52695,1,0,0:0:0:0:
69,242,53038,6,0,B|82:211|112:190|112:190|141:212|156:243,1,130
218,278,53552,1,0,0:0:0:0:
271,221,53724,2,0,L|347:223,1,65
388,279,54066,1,0,0:0:0:0:
417,206,54238,6,0,P|397:160|434:73,1,130
356,133,54752,2,0,L|276:145,1,65
228,188,55095,2,0,L|147:163,1,65
113,110,55438,1,0,0:0:0:0:
88,183,55609,1,0,0:0:0:0:
134,245,55781,6,0,P|140:295|135:329,1,65
212,336,56124,2,0,B|266:321|266:321|345:335,1,130
415,347,56638,1,0,0:0:0:0:
451,278,56809,1,0,0:0:0:0:
363,233,56981,6,0,P|305:249|286:173,1,130
201,171,57495,2,0,P|162:173|137:166,1,65
78,114,57838,1,0,0:0:0:0:
82,269,58181,1,0,0:0:0:0:
235,241,58524,6,0,B|246:293|227:329|227:329|292:349,1,130
341,324,59038,1,0,0:0:0:0:
404,279,59209,2,0,P|437:260|452:232,1,65
397,179,59552,2,0,P|408:140|412:93,1,65
323,158,59895,6,0,L|178:153,1,130
129,107,60409,1,0,0:0:0:0:
119,184,60581,2,0,P|112:257|105:274,1,65
68,311,60924,1,0,0:0:0:0:
38,239,61095,1,0,0:0:0:0:
90,321,61266,6,0,B|177:330|177:330|224:307,1,130
270,255,61781,2,0,P|259:314|326:304,1,130
379,275,62295,1,0,0:0:0:0:
431,217,62466,2,0,B|444:164|418:127|418:127|379:142,1,130
347,153,62895,5,0,0:0:0:0:
347,153,62981,1,0,0:0:0:0:
269,150,63152,2,0,L|214:137,2,32.5
228,216,63495,2,0,L|168:205,2,32.5
278,275,63838,5,0,0:0:0:0:
343,232,64009,2,0,P|385:234|429:223,1,65
452,165,64352,2,0,L|452:323,1,130
388,340,64866,1,0,0:0:0:0:
311,325,65038,1,0,0:0:0:0:
233,323,65209,6,0,P|263:285|219:211,1,130
156,201,65724,2,0,L|72:210,1,65
24,247,66066,1,0,0:0:0:0:
140,90,66409,6,0,L|233:82,1,65
265,35,66752,1,0,0:0:0:0:
307,100,66924,1,0,0:0:0:0:
364,47,67095,2,0,L|436:53,1,65
476,114,67438,1,0,0:0:0:0:
481,211,67609,1,0,0:0:0:0:
469,133,67781,1,0,0:0:0:0:
467,231,67952,6,0,B|437:221|399:231|399:231|359:236|322:215,1,130
275,178,68466,1,0,0:0:0:0:
248,251,68638,1,0,0:0:0:0:
186,202,68809,2,0,P|167:156|160:114,1,65
235,110,69152,2,0,P|238:76|249:37,1,65
318,113,69495,5,0,0:0:0:0:
318,113,69666,2,0,L|450:124,1,130
436,222,70181,2,0,L|290:208,1,130
80,146,71038,5,0,0:0:0:0:
80,146,71209,2,0,P|83:201|91:229,1,65
163,218,71552,2,0,P|160:253|150:301,1,65
83,315,71895,1,0,0:0:0:0:
146,359,72066,1,0,0:0:0:0:
221,336,72238,6,0,L|294:315,1,65
357,342,72581,1,0,0:0:0:0:
421,290,72752,2,0,P|402:256|402:156,1,130
256,192,73266,12,0,74809,0:0:0:0:
121,106,75324,6,0,P|165:110|213:106,1,65
240,53,75666,1,0,0:0:0:0:
267,126,75838,2,0,L|261:216,1,65
320,243,76181,6,0,B|362:221|401:220|401:220|437:167,1,130
416,105,76695,1,0,0:0:0:0:
487,136,76866,1,0,0:0:0:0:
416,105,77038,2,0,L|400:32,1,65
327,18,77381,1,0,0:0:0:0:
258,54,77552,6,0,P|199:50|127:38,1,130
52,51,78066,1,0,0:0:0:0:
58,128,78238,2,0,L|52:215,1,65
131,194,78581,2,0,L|125:274,1,65
209,197,78924,6,0,B|201:291|201:291|216:321|226:338,1,130
349,240,79609,2,0,P|372:190|327:126,1,130
264,163,80124,1,0,0:0:0:0:
221,76,80295,6,0,L|73:64,1,130
82,143,80809,2,0,L|152:150,1,65
144,227,81152,2,0,L|66:221,1,65
29,282,81495,1,0,0:0:0:0:
107,340,81666,6,0,P|167:334|240:301,1,130
302,275,82181,2,0,L|306:345,1,65
383,342,82524,1,0,0:0:0:0:
433,282,82695,1,0,0:0:0:0:
388,218,82866,2,0,P|361:187|315:168,1,65
264,157,83209,6,0,L|261:230,1,65
259,300,83552,1,0,0:0:0:0:
170,260,83724,6,0,L|181:126,1,130
277,85,84409,6,0,B|331:109|371:94|371:94|412:54,1,130
456,119,84924,2,0,L|407:170,1,65
338,195,85266,2,0,P|331:245|333:277,1,65
363,330,85609,1,0,0:0:0:0:
423,280,85781,1,0,0:0:0:0:
