osu file format v14

[General]
AudioFilename: audio.mp3
AudioLeadIn: 0
PreviewTime: 53037
Countdown: 0
SampleSet: Normal
StackLeniency: 0.4
Mode: 0
LetterboxInBreaks: 0
WidescreenStoryboard: 0

[Editor]
DistanceSpacing: 1
BeatDivisor: 4
GridSize: 4
TimelineZoom: 1

[Metadata]
Title:Hello, Mr. Wonder land
TitleUnicode:Hello, Mr. Wonder land
Artist:Nakanomori Ayako
ArtistUnicode:中ノ森文子
Creator:-Hanashi-
Version:Easy
Source:カードファイト!! ヴァンガードG NEXT
Tags:cardfight!! vanguard g chrono shindou
BeatmapID:1100914
BeatmapSetID:518204

[Difficulty]
HPDrainRate:2
CircleSize:3
OverallDifficulty:2
ApproachRate:4
SliderMultiplier:0.9
SliderTickRate:1

[Events]
//Background and Video events
0,0,"cfvgnextchrono.png",0,0
//Break Periods
//Storyboard Layer 0 (Background)
//Storyboard Layer 1 (Fail)
//Storyboard Layer 2 (Pass)
//Storyboard Layer 3 (Foreground)
//Storyboard Sound Samples

[TimingPoints]
924,342.857142857143,4,1,0,75,1,0

[Colours]
Combo1 : 191,128,255
Combo2 : 66,160,255
Combo3 : 255,108,108
Combo4 : 125,255,125
Combo5 : 255,176,98

[HitObjects]
96,288,923,6,0,L|185:294,1,90
264,336,1609,2,0,L|360:322,1,90
438,291,2295,2,0,B|415:241|359:230|359:230|357:185|329:150,1,180
266,216,3324,5,0,0:0:0:0:
197,158,3666,2,0,P|136:151|100:165,2,90
266,216,4695,2,0,B|298:158|276:114|276:114|310:127|354:114,1,180
428,74,5724,5,0,0:0:0:0:
471,152,6066,1,0,0:0:0:0:
446,244,6409,2,0,B|383:251|383:251|347:242,1,90
270,217,7095,2,0,B|207:210|207:210|171:220,1,90
118,281,7781,6,0,B|58:238|91:162|91:162|146:134,1,180
197,79,8809,1,0,0:0:0:0:
240,157,9152,6,0,B|284:137|291:90|291:90|315:106|339:116|339:116|364:113|391:123,1,180
462,92,10181,1,0,0:0:0:0:
442,179,10524,2,0,L|433:275,1,90
343,265,11209,2,0,L|303:354,1,90
220,317,11895,6,0,B|260:225|260:225|221:186|173:186,1,180
106,218,12924,1,0,0:0:0:0:
89,129,13266,2,0,P|92:82|118:43,1,90
199,75,13952,2,0,P|196:122|170:161,1,90
231,226,14638,6,0,B|280:224|280:224|317:249|317:249|368:244,2,135
147,258,16009,2,0,B|96:233|96:233|67:266|12:265,2,135
201,329,17381,5,0,0:0:0:0:
275,278,17724,2,0,L|273:182,2,90
364,265,18752,2,0,L|362:165,1,90
451,165,19438,2,0,L|454:258,1,90
435,343,20124,6,0,B|392:335|371:303|371:303|334:308|304:293,2,135
453,254,21495,2,0,B|452:163|452:163|478:109,2,135
435,343,22866,5,0,0:0:0:0:
350,311,23209,2,0,P|299:311|255:298,1,90
199,235,23895,2,0,P|148:235|104:248,2,90
271,181,24924,1,0,0:0:0:0:
328,111,25266,1,0,0:0:0:0:
377,186,25609,6,0,B|374:238|402:280,1,90
483,244,26295,2,0,B|486:192|458:150,2,90
307,282,27666,2,0,L|211:286,1,90
222,195,28352,6,0,B|304:192|304:192|338:196|366:218,2,135
131,202,29724,2,0,B|128:147|163:119|163:119|154:90|154:60,2,135
102,287,31095,5,0,0:0:0:0:
183,325,31438,1,0,0:0:0:0:
254,269,31781,2,0,L|357:257,1,90
347,168,32466,2,0,L|251:178,1,90
272,88,33152,2,0,L|368:79,1,90
429,139,33838,6,0,B|432:183|432:183|422:229|422:229|426:273,2,135
361,79,35209,2,0,P|262:79|219:104,2,135
332,164,36581,6,0,P|275:181|326:264,1,180
388,316,37609,1,0,0:0:0:0:
305,351,37952,2,0,P|239:328|213:306,1,90
133,314,38638,2,0,P|83:354|40:357,1,90
59,267,39324,6,0,B|40:181|40:181|83:133|134:155,1,180
211,146,40352,2,0,B|236:176|278:175|278:175|302:152|346:150,2,135
160,70,41724,1,0,0:0:0:0:
120,150,42066,6,0,L|109:252,1,90
198,261,42752,2,0,L|228:349,1,90
316,344,43438,2,0,B|360:336|360:336|392:352|408:356,2,90
340,168,44809,6,0,P|348:128|336:68,2,90
220,304,46181,2,0,B|140:280|140:280|44:300,1,180
198,204,47552,6,0,L|287:233,1,90
327,153,48238,2,0,L|225:120,1,90
283,45,48924,2,0,B|364:73|364:73|384:63|429:58,2,135
193,38,50295,5,0,0:0:0:0:
178,126,50638,2,0,P|172:199|167:234,1,90
79,218,51324,2,0,P|85:145|90:110,2,90
92,306,52352,1,0,0:0:0:0:
232,112,53038,6,0,B|240:168|280:188|280:188|324:164|332:104,1,180
400,53,54066,1,0,0:0:0:0:
415,141,54409,2,0,P|405:169|363:228,1,90
315,289,55095,2,0,P|239:276|215:280,1,90
148,322,55781,6,0,B|99:303|58:308|58:308|19:282,2,135
227,277,57152,2,0,B|214:186|214:186|224:129,2,135
274,353,58524,5,0,0:0:0:0:
351,307,58866,2,0,L|448:319,2,90
329,219,59895,2,0,B|423:232|423:232|480:203|484:173,1,180
462,87,60924,1,0,0:0:0:0:
383,130,61266,6,0,B|346:120|346:120|315:118|287:130|287:130|268:122|239:125,2,135
462,87,62638,2,0,B|471:227,2,135
381,47,64009,6,0,P|319:36|290:33,1,90
224,92,64695,2,0,P|178:90|126:79,1,90
47,60,65381,2,0,B|34:100|70:144|70:144|89:186|69:232|69:232|96:268|68:326,1,270
156,348,66752,5,0,0:0:0:0:
224,289,67095,2,0,L|331:293,2,90
215,199,68124,2,0,L|322:203,1,90
377,149,68809,6,0,P|384:93|413:57,1,90
458,136,69495,2,0,B|463:211|463:211|461:245|450:273,2,135
222,268,71552,6,0,L|133:257,1,90
114,168,72238,2,0,B|203:179|203:179|195:119|215:79,1,180
256,192,73266,12,0,74809,0:0:0:0:
167,113,76352,6,0,P|158:187|162:219,1,90
218,270,77038,2,0,L|312:278,1,90
278,192,77724,2,0,B|365:200|365:200|389:197|409:184|409:184|433:207|449:215,1,180
479,295,78752,5,0,0:0:0:0:
389,289,79095,2,0,P|325:284|286:277,1,90
214,310,79781,2,0,B|166:319|166:319|111:303,1,90
37,293,80466,6,0,B|21:236|50:201|50:201|138:229,1,180
207,180,81495,1,0,0:0:0:0:
287,140,81838,2,0,P|301:92|297:48,1,90
215,90,82524,2,0,L|108:100,1,90
107,186,83209,6,0,B|188:179|188:179|179:238|209:283|209:283|248:271|296:294,1,270
367,253,84581,2,0,P|398:261|460:244,2,90
287,289,85609,2,0,L|282:336,1,45
