osu file format v14

[General]
AudioFilename: audio.mp3
AudioLeadIn: 0
PreviewTime: 53037
Countdown: 0
SampleSet: None
StackLeniency: 0.3
Mode: 0
LetterboxInBreaks: 0
WidescreenStoryboard: 1

[Editor]
DistanceSpacing: 1.2
BeatDivisor: 4
GridSize: 4
TimelineZoom: 2.1

[Metadata]
Title:Hello, Mr. Wonder land
TitleUnicode:Hello, Mr. Wonder land
Artist:Nakanomori Ayako
ArtistUnicode:中ノ森文子
Creator:-Hanashi-
Version:Advanced
Source:カードファイト!! ヴァンガードG NEXT
Tags:cardfight!! vanguard g chrono shindou
BeatmapID:1112340
BeatmapSetID:518204

[Difficulty]
HPDrainRate:5
CircleSize:4
OverallDifficulty:5
ApproachRate:6
SliderMultiplier:1.2
SliderTickRate:1

[Events]
//Background and Video events
0,0,"cfvgnextchrono.png",0,0
//Break Periods
//Storyboard Layer 0 (Background)
//Storyboard Layer 1 (Fail)
//Storyboard Layer 2 (Pass)
//Storyboard Layer 3 (Foreground)
//Storyboard Sound Samples

[TimingPoints]
924,342.857142857143,4,1,0,75,1,0
44809,-125,4,1,0,100,0,0
47552,-100,4,1,0,100,0,0
53038,-100,4,1,0,100,0,1
74809,-100,4,1,0,100,0,0

[Colours]
Combo1 : 191,128,255
Combo2 : 66,160,255
Combo3 : 255,108,108
Combo4 : 125,255,125
Combo5 : 255,176,98

[HitObjects]
352,108,923,5,0,0:0:0:0:
352,108,1095,2,0,P|372:152|336:240,1,120
412,268,1609,2,0,L|280:256,1,120
236,211,2124,1,0,0:0:0:0:
186,263,2295,6,0,L|168:334,1,60
101,301,2638,2,0,L|119:237,1,60
151,179,2981,2,0,P|138:137|190:75,1,120
210,143,3495,1,0,0:0:0:0:
253,86,3666,6,0,P|286:85|326:73,2,60
214,23,4181,2,0,L|209:158,1,120
155,190,4695,2,0,B|181:218|215:221|215:221|224:251|243:269,1,120
276,327,5209,5,0,0:0:0:0:
313,265,5381,2,0,P|305:232|284:203,1,60
337,155,5724,2,0,L|404:160,2,60
353,84,6238,6,0,B|272:76|272:76|244:50,1,120
187,94,6752,2,0,P|183:151|174:169,1,60
121,192,7095,2,0,L|54:184,2,60
166,247,7609,6,0,P|142:296|175:353,1,120
245,326,8124,1,0,0:0:0:0:
313,347,8295,2,0,P|356:330|392:321,2,60
245,326,8809,1,0,0:0:0:0:
297,276,8981,6,0,P|366:250|421:235,1,120
458,183,9495,2,0,L|462:116,1,60
392,101,9838,2,0,L|386:175,2,60
401,29,10352,5,0,0:0:0:0:
311,141,10695,1,0,0:0:0:0:
186,68,11038,2,0,P|147:49|65:40,1,120
21,90,11552,1,0,0:0:0:0:
56,152,11724,6,0,B|47:238|47:238|67:291,1,120
129,286,12238,2,0,P|159:287|197:280,1,60
252,316,12581,2,0,L|327:320,2,60
188,282,13095,6,0,P|172:226|176:138,1,120
217,109,13609,2,0,L|217:30,1,60
287,35,13952,2,0,L|287:99,2,60
359,32,14466,5,0,0:0:0:0:
416,76,14638,2,0,P|459:65|503:60,2,60
376,136,15152,2,0,L|367:278,1,120
228,220,15838,6,0,B|220:304|220:304|200:348,1,120
146,294,16352,2,0,L|155:227,1,60
117,172,16695,2,0,L|111:91,1,60
106,40,17038,1,0,0:0:0:0:
172,67,17209,1,0,0:0:0:0:
235,32,17381,6,0,P|212:93|246:162,1,120
174,191,17895,2,0,L|295:183,1,120
360,154,18409,1,0,0:0:0:0:
409,206,18581,2,0,P|403:236|388:273,1,60
330,300,18924,2,0,L|250:291,1,60
202,317,19266,2,0,L|140:320,1,60
75,292,19609,5,0,0:0:0:0:
110,228,19781,2,0,P|101:191|105:150,1,60
183,190,20124,6,0,L|323:185,1,120
305,113,20638,2,0,L|165:108,1,120
117,83,21152,1,0,0:0:0:0:
81,146,21324,1,0,0:0:0:0:
52,212,21495,2,0,L|55:285,1,60
126,277,21838,2,0,L|124:211,1,60
196,211,22181,2,0,L|200:280,1,60
248,323,22524,5,0,0:0:0:0:
303,277,22695,1,0,0:0:0:0:
359,321,22866,2,0,P|386:308|473:286,1,120
480,213,23381,2,0,P|421:201|366:178,1,120
311,130,23895,1,0,0:0:0:0:
