osu file format v14

[General]
AudioFilename: audio.mp3
AudioLeadIn: 0
PreviewTime: 58824
Countdown: 0
SampleSet: Soft
StackLeniency: 0.7
Mode: 0
LetterboxInBreaks: 0
WidescreenStoryboard: 1

[Editor]
Bookmarks: 30421,68057,79693
DistanceSpacing: 0.9
BeatDivisor: 4
GridSize: 16
TimelineZoom: 1.4

[Metadata]
Title:Minamikaze (Game Ver.)
TitleUnicode:みなみかぜ (Game Ver.)
Artist:Nakanoke no Itsutsugo
ArtistUnicode:中野家の五つ子
Creator:NexusQI
Version:Insane
Source:五等分の花嫁∬ ~夏の思い出も五等分~
Tags:op opening visual novel video game pop j-pop jpop japanese the quintessential quintuplets gotoubun go-toubun 5toubun 5-toubun no hanayome natsu no omoide mo iceluin nexus summer memories also come in five 中野 一花 二乃 三玖 四葉 五月 Nakano Miku Yotsuba Nino Itsuki Ichika 水瀬いのり Minase Inori 佐倉綾音 Sakura Ayane 伊藤美来 Ito Itou Miku 竹達彩奈 Taketatsu Ayana 花澤香菜 Hanazawa Kana
BeatmapID:2925682
BeatmapSetID:1370765

[Difficulty]
HPDrainRate:5
CircleSize:4
OverallDifficulty:8
ApproachRate:8.6
SliderMultiplier:1.7
SliderTickRate:1

[Events]
//Background and Video events
0,0,"gotoubun.jpg",0,0
Video,385,"gotoubun.mp4"
//Break Periods
//Storyboard Layer 0 (Background)
//Storyboard Layer 1 (Fail)
//Storyboard Layer 2 (Pass)
//Storyboard Layer 3 (Foreground)
//Storyboard Layer 4 (Overlay)
//Storyboard Sound Samples

[TimingPoints]
915,363.636363636364,4,2,1,45,1,0
915,-133.333333333333,4,2,1,45,0,0
8915,-133.333333333333,4,2,1,50,0,0
9642,-100,4,2,1,60,0,0
15460,-95.2380952380952,4,2,1,65,0,0
20369,-153.846153846153,4,2,1,65,0,0
21278,-125,4,2,1,45,0,0
31460,-125,4,2,1,50,0,0
32915,-111.111111111111,4,2,1,55,0,0
43824,-105.263157894737,4,2,1,55,0,0
44187,-133.333333333334,4,2,1,55,0,0
44551,-117.647058823529,4,2,1,50,0,0
48733,-86.9565217391304,4,2,1,50,0,0
49096,-111.111111111111,4,2,1,50,0,0
49460,-153.846153846153,4,2,1,50,0,0
50369,-105.263157894737,4,2,1,60,0,0
56187,-100,4,2,1,65,0,0
57642,-333.333333333333,4,2,1,65,0,0
58733,-100,4,2,1,65,0,0
59096,-95.2380952380952,4,2,1,75,0,1
76460,-90.9090909090909,4,2,1,75,0,0
76551,-86.9565217391304,4,2,1,80,0,1
82369,-181.818181818182,4,2,1,80,0,0
83824,-166.666666666667,4,2,1,80,0,0
85278,-166.666666666666,4,2,1,50,0,0

[Colours]
Combo1 : 255,60,60
Combo2 : 245,199,10
Combo3 : 249,151,234
Combo4 : 121,220,249
Combo5 : 85,238,138

[HitObjects]
22,295,915,6,0,P|55:296|92:265,1,63.7500024318696,2|0,3:2|0:0,0:0:0:0:
31,221,1278,1,2,0:0:0:0:
31,221,1460,1,2,0:0:0:0:
150,40,2369,6,0,P|182:38|223:72,1,63.7500024318696,2|0,3:2|0:0,0:0:0:0:
162,117,2732,1,2,0:0:0:0:
162,117,2914,1,2,0:0:0:0:
328,257,3824,5,2,3:2:0:0:
328,257,4005,1,2,0:0:0:0:
380,198,4188,1,2,0:0:0:0:
334,133,4369,1,2,0:0:0:0:
386,325,5278,5,2,3:2:0:0:
386,325,5459,1,2,0:0:0:0:
446,376,5642,1,2,0:0:0:0:
510,331,5823,1,2,0:0:0:0:
290,238,6732,6,0,P|302:172|330:93,1,127.500004863739,2|0,3:2|0:0,0:0:0:0:
381,12,7278,2,0,P|399:46|389:84,1,63.7500024318696,2|0,0:0|0:0,0:0:0:0:
320,114,7642,2,0,P|269:67|201:83,1,127.500004863739,2|0,0:0|0:0,0:0:0:0:
249,146,8187,5,2,3:2:0:0:
256,192,8278,12,2,9460,0:0:0:0:
0,313,9642,6,0,P|72:308|115:397,1,170,6|0,1:2|1:0,0:0:0:0:
214,167,10187,1,2,0:2:0:0:
241,261,10369,2,0,P|197:250|122:229,1,85,2|0,1:2|1:0,0:0:0:0:
132,216,10642,1,0,1:0:0:0:
132,216,10733,2,0,P|121:190|132:166,3,42.5,8|8|8|8,1:2|0:0|0:0|0:0,0:0:0:0:
157,103,11096,6,0,B|147:53|80:50|80:50|107:62|117:90,1,127.5,2|0,1:2|0:0,0:0:0:0:
101,64,11460,2,0,P|166:65|200:-2,1,127.5,2|0,1:2|0:0,0:0:0:0:
199,18,11824,2,0,P|245:19|282:56,1,85,2|0,1:2|0:0,0:0:0:0:
245,247,12187,1,10,1:2:0:0:
208,236,12278,1,8,0:2:0:0:
208,197,12369,1,8,0:2:0:0:
245,186,12460,1,8,0:2:0:0:
267,217,12551,6,0,B|313:216|348:250|348:250|405:216|368:164,1,170,2|0,1:2|1:2,0:0:0:0:
289,352,13096,1,0,1:0:0:0:
285,342,13186,1,0,1:0:0:0:
282,332,13277,1,2,1:2:0:0:
379,184,13460,1,0,1:0:0:0:
383,174,13550,1,0,1:0:0:0:
386,165,13642,2,0,P|389:137|361:108,3,42.5,8|8|8|8,1:2|0:0|0:0|0:0,0:0:0:0:
315,60,14005,6,0,B|263:43|219:76|250:94|201:128|137:99,1,170,2|0,1:2|1:0,0:0:0:0:
174,0,14551,1,2,1:2:0:0:
287,185,14733,2,0,L|298:133,3,42.5,0|0|0|0,1:0|1:0|1:0|1:0,0:0:0:0:
351,247,15096,1,8,1:3:0:0:
329,281,15186,1,8,1:3:0:0:
295,296,15277,1,4,1:3:0:0:
260,288,15368,1,4,1:3:0:0:
236,267,15460,6,0,B|304:285|304:285|320:323|320:323|394:347,1,178.499994552612,6|8,1:2|0:0,0:0:0:0:
287,185,16005,1,2,0:0:0:0:
287,185,16187,2,0,P|285:130|277:92,1,89.2499972763062,2|0,1:2|1:0,0:0:0:0:
448,220,16551,2,0,P|418:246|359:245,1,89.2499972763062,8|0,0:2|0:0,0:0:0:0:
195,120,16915,6,0,B|105:134|105:134|60:174|113:213,1,178.499994552612,2|8,1:2|0:0,0:0:0:0:
12,39,17460,1,2,0:0:0:0:
119,212,17642,2,0,P|130:158|96:122,1,89.2499972763062,2|0,1:2|1:0,0:0:0:0:
0,285,18005,2,0,P|41:287|95:309,1,89.2499972763062,8|0,0:2|0:0,0:0:0:0:
279,370,18369,6,0,B|248:285|248:285|273:273|291:233,1,133.874995914459,6|0,1:2|0:0,0:0:0:0:
296,252,18733,2,0,P|311:206|276:161,1,89.2499972763062,10|0,0:0|0:0,0:0:0:0:
161,46,19096,1,2,1:2:0:0:
161,46,19278,1,2,1:2:0:0:
306,77,19460,2,0,B|228:98|228:98|232:134|178:167,1,133.874995914459,8|0,0:0|0:0,0:0:0:0:
180,218,19824,6,0,P|113:214|64:104,1,178.499994552612,6|0,1:2|0:0,0:0:0:0:
92,239,20369,2,0,P|70:296|5:319,1,110.499994941712,8|8,0:3|0:3,0:0:0:0:
9,241,20915,1,4,0:3:0:0:
150,361,21096,1,4,0:3:0:0:
150,361,21187,1,4,0:3:0:0:
150,361,21278,6,0,B|224:338|224:338|235:374|275:381,1,136,6|8,1:2|0:0,0:0:0:0:
195,257,21824,1,2,1:2:0:0:
195,257,22005,2,0,P|202:192|226:109,1,136,2|8,0:0|0:0,0:0:0:0:
173,54,22551,1,2,0:0:0:0:
289,163,22733,6,0,B|384:158|334:107|438:116,1,136,2|8,1:2|0:0,0:0:0:0:
376,229,23278,1,2,1:2:0:0:
376,229,23460,2,0,P|405:248|441:252,1,68,2|2,0:0|1:2,0:0:0:0:
447,368,23824,1,10,0:0:0:0:
503,306,24005,1,2,0:0:0:0:
353,328,24187,6,0,B|276:339|276:339|267:375|240:384,1,136,2|8,1:2|0:0,0:0:0:0:
243,263,24733,1,2,1:2:0:0:
243,263,24915,2,0,B|238:212|265:182|265:182|253:154|207:156,1,136,2|8,0:0|0:0,0:0:0:0:
137,165,25460,1,2,0:0:0:0:
216,23,25642,6,0,P|250:57|251:91,1,68,2|2,1:2|0:0,0:0:0:0:
173,87,26005,1,10,0:0:0:0:
261,179,26187,2,0,B|339:167|293:117|398:112,1,136,2|0,1:2|1:0,0:0:0:0:
261,179,26733,1,8,0:0:0:0:
135,349,27096,5,2,1:2:0:0:
57,360,27278,1,2,0:2:0:0:
10,298,27460,1,10,0:2:0:0:
143,355,27642,2,0,B|174:323|211:335|211:335|224:365|262:374,1,136,2|0,1:2|1:0,0:0:0:0:
356,246,28187,2,0,P|322:253|280:263,1,68,10|0,0:0|0:0,0:0:0:0:
152,154,28551,5,2,1:2:0:0:
212,92,28733,1,2,0:2:0:0:
234,169,28915,1,10,0:2:0:0:
133,74,29096,2,0,B|56:86|56:86|55:119|28:133,1,136,2|0,1:2|1:0,0:0:0:0:
139,215,29642,2,0,P|157:183|137:137,1,68,10|0,0:0|0:0,0:0:0:0:
16,280,30005,6,0,P|57:279|126:352,1,136,2|10,1:2|0:0,0:0:0:0:
269,262,30551,2,0,L|200:279,1,68,2|0,1:2|0:0,0:0:0:0:
359,327,30915,2,0,L|290:344,1,68,2|8,1:2|0:0,0:0:0:0:
415,260,31277,1,2,0:0:0:0:
280,142,31460,5,0,1:0:0:0:
280,142,31642,1,0,1:0:0:0:
428,167,31824,1,8,0:0:0:0:
345,197,32006,1,0,0:0:0:0:
361,104,32187,1,0,1:0:0:0:
199,208,32369,5,2,1:2:0:0:
199,208,32551,2,0,P|229:210|266:250,1,68,10|10,0:0|0:0,0:0:0:0:
279,269,32824,1,8,0:0:0:0:
279,269,32915,6,0,P|250:237|291:136,1,152.999995330811,6|8,1:2|0:0,0:0:0:0:
140,25,33460,1,2,0:0:0:0:
134,115,33642,2,0,B|230:112|175:60|297:56,1,152.999995330811,2|8,1:2|0:0,0:0:0:0:
344,0,34187,1,2,0:0:0:0:
434,109,34369,6,0,P|417:153|396:264,1,152.999995330811,2|8,1:2|0:0,0:0:0:0:
489,209,34915,1,2,0:0:0:0:
330,313,35096,2,0,P|366:326|398:350,1,76.4999976654053,2|0,1:2|1:2,0:0:0:0:
401,248,35460,1,10,0:0:0:0:
401,248,35642,1,2,0:0:0:0:
217,374,35824,6,0,B|241:282|241:282|211:269|198:243,1,152.999995330811,2|8,1:2|0:0,0:0:0:0:
44,146,36369,1,2,0:0:0:0:
146,104,36551,2,0,P|128:165|105:262,1,152.999995330811,2|8,1:2|0:0,0:0:0:0:
58,322,37096,1,2,0:0:0:0:
209,208,37278,6,0,P|251:210|309:273,1,114.749996498108,2|0,1:2|0:0,0:0:0:0:
299,267,37642,2,0,P|285:206|325:165,1,114.749996498108,10|0,0:2|0:0,0:0:0:0:
341,162,38005,1,2,1:2:0:0:
415,203,38187,1,2,1:2:0:0:
467,133,38369,2,0,P|450:66|440:33,1,76.4999976654053,10|0,0:2|0:0,0:0:0:0:
270,13,38733,6,0,P|247:36|191:52,1,76.4999976654053,6|2,1:2|0:0,0:0:0:0:
334,73,39096,1,10,0:0:0:0:
142,135,39278,2,0,B|193:125|219:156|219:156|222:202|274:217,1,152.999995330811,2|0,0:0|1:2,0:0:0:0:
102,285,39824,2,0,P|84:253|105:187,1,76.4999976654053,10|0,0:0|0:0,0:0:0:0:
0,28,40187,5,2,1:2:0:0:
139,130,40369,1,2,0:0:0:0:
0,28,40551,1,10,0:0:0:0:
143,44,40733,2,0,B|83:58|83:58|68:93|68:93|-3:113,1,152.999995330811,6|0,1:2|1:0,0:0:0:0:
143,44,41278,1,8,0:0:0:0:
212,215,41460,5,8,0:0:0:0:
212,215,41551,1,8,0:0:0:0:
212,215,41642,2,0,P|206:150|259:115,1,114.749996498108,6|0,1:2|0:0,0:0:0:0:
248,100,42005,2,0,P|279:122|338:118,1,76.4999976654053,10|0,0:0|0:0,0:0:0:0:
488,32,42369,1,2,1:2:0:0:
395,0,42551,2,0,P|412:43|424:95,1,76.4999976654053,2|8,1:2|0:0,0:0:0:0:
506,143,42915,1,2,0:0:0:0:
390,245,43096,6,0,B|305:217|305:217|296:255|244:263,1,152.999995330811,0|8,1:2|0:0,0:0:0:0:
136,145,43642,1,0,0:0:0:0:
174,316,43824,2,0,L|197:190,1,121.124996765614,8|0,0:3|0:0,0:0:0:0:
209,190,44187,2,0,L|189:292,1,95.6250036478044,4|0,0:3|0:0,0:0:0:0:
244,344,44551,22,0,P|323:328|405:319,1,144.500002756119,4|0,1:2|0:0,0:0:0:0:
458,235,45096,1,0,1:0:0:0:
383,195,45278,2,0,P|391:107|419:49,1,144.500002756119,8|0,0:0|0:0,0:0:0:0:
294,153,45824,6,0,P|230:150|199:106,1,108.375002067089,0|0,1:0|0:0,0:0:0:0:
203,119,46187,2,0,P|175:162|183:196,1,72.2500013780594,0|0,1:0|0:0,0:0:0:0:
269,270,46551,1,0,1:0:0:0:
220,341,46733,2,0,B|133:337|182:280|67:284,1,144.500002756119,8|0,0:0|0:0,0:0:0:0:
0,115,47460,6,0,P|35:54|115:63,1,144.500002756119,0|0,1:0|0:0,0:0:0:0:
200,9,48005,1,0,1:0:0:0:
255,72,48187,2,0,P|243:115|233:156,1,72.2500013780594,8|0,0:0|1:0,0:0:0:0:
129,179,48551,1,8,0:0:0:0:
326,232,48733,6,0,P|255:229|221:311,1,146.62500279665,2|0,1:2|0:0,0:0:0:0:
211,293,49096,6,0,P|235:357|283:371,1,114.749996498108,2|0,1:2|0:0,0:0:0:0:
282,379,49460,6,0,P|319:375|353:340,1,82.8749962062838,2|0,1:2|0:0,0:0:0:0:
350,333,49824,1,2,1:2:0:0:
464,216,50005,1,8,0:0:0:0:
457,181,50095,1,8,0:0:0:0:
452,147,50186,1,8,0:0:0:0:
445,113,50277,1,8,0:0:0:0:
440,79,50369,6,0,P|366:83|327:29,1,121.124996765614,4|0,1:2|0:0,0:0:0:0:
334,36,50733,2,0,P|300:91|312:126,1,80.7499978437424,10|0,0:0|0:0,0:0:0:0:
255,281,51096,2,0,P|243:232|226:183,1,80.7499978437424,2|0,1:2|1:0,0:0:0:0:
335,343,51460,1,10,0:2:0:0:
150,244,51642,6,0,B|109:219|72:239|72:239|61:290|13:297,1,161.499995687485,2|0,1:2|1:0,0:0:0:0:
156,251,52187,1,10,0:0:0:0:
23,156,52369,2,0,B|23:101|56:70|56:70|35:20|-21:37,1,161.499995687485,2|0,0:0|1:0,0:0:0:0:
128,121,52915,2,0,P|179:112|219:67,1,80.7499978437424,8|0,0:0|0:0,0:0:0:0:
363,241,53278,6,0,B|314:258|278:225|308:210|261:174|212:196,1,161.499995687485,2|10,1:2|0:2,0:0:0:0:
365,147,53824,2,0,P|405:141|474:124,1,80.7499978437424,2|0,0:2|1:0,0:0:0:0:
311,20,54187,2,0,P|307:101|314:107,1,80.7499978437424,2|8,1:2|0:0,0:0:0:0:
467,223,54551,6,0,B|437:323|437:323|474:344|479:372,1,161.499995687485,2|2,1:2|1:2,0:0:0:0:
376,226,55096,2,0,L|361:138,1,80.7499978437424,10|0,0:2|0:0,0:0:0:0:
278,339,55460,1,2,1:2:0:0:
223,276,55642,2,0,L|238:188,1,80.7499978437424,2|8,1:2|0:0,0:0:0:0:
177,101,56005,1,2,0:0:0:0:
42,206,56187,6,0,P|90:191|140:179,1,85,12|0,0:0|1:0,0:0:0:0:
156,12,56551,2,0,P|197:22|237:35,1,85,8|0,0:0|1:0,0:0:0:0:
323,249,56915,5,8,0:0:0:0:
410,126,57097,1,0,1:0:0:0:
237,35,57279,5,8,0:0:0:0:
329,152,57461,1,0,1:0:0:0:
417,7,57642,6,0,B|337:28|337:28|336:55|316:72,1,127.499996109009,4|0,1:2|0:0,0:0:0:0:
197,186,58733,2,0,P|154:153|111:154,1,85,8|8,0:0|0:0,0:0:0:0:
103,151,59005,1,8,0:0:0:0:
103,151,59096,6,0,P|152:174|222:83,1,178.499994552612,6|10,1:2|0:2,0:0:0:0:
365,247,59642,1,0,1:0:0:0:
365,247,59733,1,0,1:0:0:0:
365,247,59824,2,0,P|311:232|252:224,1,89.2499972763062,2|0,1:2|1:0,0:0:0:0:
402,81,60187,2,0,P|424:108|405:184,1,89.2499972763062,10|0,0:2|0:0,0:0:0:0:
488,364,60551,6,0,B|458:268|458:268|480:216|540:232,1,178.499994552612,2|10,1:2|0:2,0:0:0:0:
388,337,61096,1,0,1:0:0:0:
388,337,61187,1,0,1:0:0:0:
388,337,61278,2,0,P|339:319|287:310,1,89.2499972763062,2|0,1:2|1:0,0:0:0:0:
122,192,61642,2,0,B|150:141|212:148|212:148|190:153|188:174,1,133.874995914459,10|0,0:2|0:0,0:0:0:0:
197,176,62005,6,0,B|95:150|162:88|39:81,2,178.499994552612,2|8|0,1:2|0:2|1:2,0:0:0:0:
360,88,62915,1,2,1:2:0:0:
235,249,63096,1,10,0:2:0:0:
279,33,63278,1,2,1:2:0:0:
281,41,63369,1,0,1:2:0:0:
284,49,63460,5,2,1:2:0:0:
405,200,63642,2,0,P|368:192|306:174,1,89.2499972763062,2|8,0:0|0:0,0:0:0:0:
164,319,64005,2,0,B|95:330|95:330|78:360|78:360|-15:375,1,178.499994552612,2|2,1:2|1:2,0:0:0:0:
223,379,64551,1,10,0:0:0:0:
320,90,64915,6,0,B|352:68|386:88|386:88|393:129|448:145,1,133.874995914459,6|0,1:2|0:0,0:0:0:0:
421,147,65278,2,0,P|468:149|514:105,1,89.2499972763062,10|0,0:2|0:0,0:0:0:0:
427,18,65642,1,2,1:2:0:0:
427,18,65824,1,0,1:0:0:0:
337,169,66005,2,0,P|356:210|365:266,1,89.2499972763062,10|0,0:2|0:0,0:0:0:0:
163,98,66369,6,0,B|259:76|259:76|285:25|232:2,1,178.499994552612,2|10,1:2|0:0,0:0:0:0:
119,178,66915,2,0,B|23:156|23:156|-3:105|50:82,1,178.499994552612,2|0,1:2|1:0,0:0:0:0:
166,255,67460,2,0,P|214:245|255:234,1,89.2499972763062,8|0,0:0|0:0,0:0:0:0:
428,66,67824,6,0,P|389:89|412:189,1,133.874995914459,2|0,1:2|0:0,0:0:0:0:
402,186,68187,2,0,P|366:158|302:166,1,89.2499972763062,10|0,0:2|0:0,0:0:0:0:
166,255,68551,1,2,1:2:0:0:
323,156,68733,1,0,1:0:0:0:
288,318,68915,2,0,L|260:211,1,89.2499972763062,10|0,0:2|0:0,0:0:0:0:
458,325,69278,6,0,B|413:311|387:328|387:328|389:369|350:389,1,133.874995914459,6|0,1:2|0:0,0:0:0:0:
339,384,69642,1,10,0:0:0:0:
228,165,69824,2,0,B|266:131|327:158|327:158|332:202|390:221,1,178.499994552612,2|0,1:2|1:0,0:0:0:0:
241,58,70369,1,8,0:0:0:0:
200,41,70459,1,8,0:0:0:0:
157,53,70550,1,8,0:0:0:0:
130,87,70641,1,8,0:0:0:0:
129,131,70733,6,0,P|55:151|0:79,1,178.499994552612,6|10,1:2|0:2,0:0:0:0:
109,242,71278,1,0,1:0:0:0:
109,242,71369,1,0,1:0:0:0:
109,242,71460,2,0,P|150:230|212:214,1,89.2499972763062,2|0,1:2|1:0,0:0:0:0:
357,346,71824,1,10,0:2:0:0:
280,322,72006,1,0,1:0:0:0:
467,171,72187,6,0,B|439:278|439:278|476:292|487:338,1,178.499994552612,2|10,1:2|0:2,0:0:0:0:
371,173,72733,1,0,1:0:0:0:
371,173,72824,1,0,1:0:0:0:
371,173,72915,2,0,P|362:113|352:64,1,89.2499972763062,2|0,1:2|1:0,0:0:0:0:
171,192,73278,2,0,P|207:140|280:140,1,133.874995914459,10|0,0:2|0:0,0:0:0:0:
287,148,73642,6,0,P|224:153|163:46,2,178.499994552612,2|8|0,1:2|0:0|1:0,0:0:0:0:
415,36,74551,1,2,1:2:0:0:
311,223,74733,1,10,0:2:0:0:
415,36,74915,6,0,B|452:5|489:35|489:35|504:145,1,178.499994552612,6|0,1:2|1:0,0:0:0:0:
389,264,75460,1,8,0:0:0:0:
426,187,75642,1,0,1:0:0:0:
512,317,75824,2,0,P|471:317|431:347,1,89.2499972763062,0|8,1:0|0:0,0:0:0:0:
423,378,76096,1,8,0:0:0:0:
423,378,76187,1,2,1:2:0:0:
263,230,76369,5,10,0:0:0:0:
263,230,76460,1,8,0:0:0:0:
263,230,76551,2,0,B|263:179|237:153|237:153|257:116|295:121,1,146.62500279665,14|0,0:0|0:0,0:0:0:0:
302,127,76915,1,10,0:2:0:0:
171,216,77096,1,2,1:2:0:0:
386,132,77278,2,0,P|369:77|338:18,1,97.7500018644333,8|0,0:0|1:0,0:0:0:0:
461,180,77642,5,10,0:2:0:0:
461,180,77824,1,2,1:2:0:0:
254,26,78005,6,0,B|200:7|161:47|161:47|160:112|82:126,1,195.500003728867,10|10,0:0|0:2,0:0:0:0:
83,0,78551,1,2,1:2:0:0:
219,191,78733,2,0,P|244:142|230:102,1,97.7500018644333,8|0,0:0|1:0,0:0:0:0:
137,236,79096,5,10,0:2:0:0:
137,236,79278,1,2,1:2:0:0:
290,382,79460,6,0,B|370:374|333:324|426:316,1,146.62500279665,14|0,0:0|0:0,0:0:0:0:
430,332,79824,1,10,0:2:0:0:
283,244,80005,1,2,1:2:0:0:
512,380,80187,2,0,P|507:314|498:259,1,97.7500018644333,8|0,0:0|1:0,0:0:0:0:
351,194,80551,5,10,0:2:0:0:
351,194,80733,1,2,1:2:0:0:
456,56,80915,6,0,P|438:148|418:261,1,195.500003728867,10|10,0:0|0:2,0:0:0:0:
512,380,81460,1,2,1:2:0:0:
308,336,81642,5,8,0:0:0:0:
483,304,81824,1,0,1:0:0:0:
275,260,82005,5,10,0:2:0:0:
424,382,82187,1,4,0:3:0:0:
422,373,82278,1,4,0:3:0:0:
421,365,82369,5,2,1:2:0:0:
0,123,83824,6,0,B|72:115|103:29|103:29|82:182|170:225,1,356.999989105225,4|0,1:2|0:0,0:0:0:0:
231,267,85278,6,0,L|214:339,2,50.9999984436036,2|0|0,0:0|0:0|0:0,0:0:0:0:
315,256,85824,2,0,L|302:315,2,50.9999984436036,2|0|0,0:0|0:0|0:0,0:0:0:0:
274,181,86369,5,2,0:0:0:0:
266,188,86551,1,0,0:0:0:0:
256,192,86733,1,2,0:0:0:0:
