osu file format v14

[General]
AudioFilename: audio.mp3
AudioLeadIn: 0
PreviewTime: 56416
Countdown: 0
SampleSet: Soft
StackLeniency: 0.7
Mode: 0
LetterboxInBreaks: 0
WidescreenStoryboard: 1

[Editor]
DistanceSpacing: 1
BeatDivisor: 4
GridSize: 32
TimelineZoom: 1.2

[Metadata]
Title:Gotoubun no Mirai (TV Size)
TitleUnicode:五等分の未来 (TV Size)
Artist:Nakanoke no Itsutsugo
ArtistUnicode:中野家の五つ子
Creator:Gaia
Version:Insane
Source:五等分の花嫁∽
Tags:kibbleru akitoshi -laura- corinn pan p_a_n xlolicore- elsa valentine my angel watame 5toubun no hanayome 5hanayome 5-toubun go-toubun gotoubun 中野 一花 二乃 三玖 四葉 五月 Miku Yotsuba Nino Itsuki Ichika 水瀬 いのり Minase Inori 佐倉 綾音 Sakura Ayane ayaneru 伊藤 美来 Itou 竹達 彩奈 Taketatsu Ayana 花澤 香菜 Hanazawa Kana hanakana The Five Wedded Brides The Quintessential Quintuplets ~ tilde side story special opening op japanese anime jpop j-pop pop
BeatmapID:4371399
BeatmapSetID:2043094

[Difficulty]
HPDrainRate:5
CircleSize:4
OverallDifficulty:7
ApproachRate:8.7
SliderMultiplier:1.7
SliderTickRate:1

[Events]
//Background and Video events
Video,235,"gotoubun_op.mp4"
0,0,"mikuuuu.jpg",0,0
//Break Periods
//Storyboard Layer 0 (Background)
//Storyboard Layer 1 (Fail)
//Storyboard Layer 2 (Pass)
//Storyboard Layer 3 (Foreground)
//Storyboard Layer 4 (Overlay)
//Storyboard Sound Samples

[TimingPoints]
558,368.098159509202,4,2,1,40,1,0
558,-125,4,2,1,60,0,0
4975,-111.111111111111,4,2,1,60,0,0
5527,-142.857142857143,4,2,1,60,0,0
6447,-100,4,2,2,40,0,0
12337,-100,4,2,2,50,0,0
16570,-100,4,2,1,60,0,0
17858,-150.00000015,4,2,1,60,0,0
18226,-100,4,2,1,70,0,0
30005,-111.111111111111,4,2,1,60,0,0
55956,-66.6666666666666,4,2,1,60,0,0
56140,-83.3333333333333,4,2,1,60,0,0
56508,-100,4,2,1,70,0,0
86048,-100,4,2,1,50,0,0
87429,-100,4,2,1,40,0,0
88901,-100,4,2,1,30,0,0

[Colours]
Combo1 : 255,83,83
Combo2 : 255,170,213
Combo3 : 255,128,128
Combo4 : 189,123,123
Combo5 : 255,139,83

[HitObjects]
79,181,558,6,0,P|133:143|204:144,1,136,2|0,0:0|0:0,0:0:0:0:
309,230,1110,2,0,P|237:237|161:250,1,136,2|0,0:0|0:0,0:0:0:0:
123,358,1662,1,2,0:0:0:0:
123,358,2030,6,0,P|131:309|142:202,1,136,2|0,0:0|0:0,0:0:0:0:
61,82,2582,2,0,B|142:88|113:118|210:119,1,136,2|2,0:0|0:0,0:0:0:0:
370,19,3134,1,2,0:0:0:0:
370,19,3502,5,2,0:0:0:0:
294,82,3686,1,0,0:0:0:0:
442,76,3870,2,0,P|456:43|457:-3,1,68,0|2,0:0|0:0,0:0:0:0:
290,73,4238,2,0,P|276:106|275:152,1,68,0|0,0:0|0:0,0:0:0:0:
378,203,4607,1,2,0:0:0:0:
459,144,4791,1,0,0:0:0:0:
378,203,4975,6,0,P|300:211|223:226,1,152.999995330811,2|0,0:0|0:0,0:0:0:0:
92,285,5527,2,0,P|128:326|259:304,1,178.499994552612,2|2,0:0|0:0,0:0:0:0:
248,310,6447,6,0,B|156:318|176:346|73:349,1,170,2|10,0:0|0:0,0:0:0:0:
331,359,6999,2,0,P|354:326|349:259,1,85,10|0,0:0|0:0,0:0:0:0:
230,128,7367,2,0,P|207:161|212:228,1,85,2|8,0:0|0:0,0:0:0:0:
331,359,7735,6,0,P|368:318|366:205,1,170,2|0,0:0|0:0,0:0:0:0:
213,214,8288,1,8,0:0:0:0:
292,274,8472,2,0,P|373:260|493:251,1,170,8|0,0:0|0:0,0:0:0:0:
507,102,9024,2,0,P|464:110|409:116,1,85,8|0,0:0|0:0,0:0:0:0:
187,13,9392,5,2,0:0:0:0:
246,94,9576,1,2,0:0:0:0:
331,44,9760,1,8,0:0:0:0:
242,189,9944,2,0,P|235:151|231:91,1,85,8|0,0:0|0:0,0:0:0:0:
388,240,10312,2,0,P|394:277|399:338,1,85,2|8,0:0|0:0,0:0:0:0:
162,298,10680,6,0,P|210:245|334:264,1,170,2|0,0:0|0:0,0:0:0:0:
416,341,11232,1,8,0:0:0:0:
255,324,11416,2,0,P|168:334|71:352,1,170,8|2,0:0|0:0,0:0:0:0:
99,116,11969,1,8,0:0:0:0:
106,226,12153,5,2,0:0:0:0:
106,226,12245,1,2,0:0:0:0:
106,226,12337,2,0,P|67:243|11:247,2,85,0|2|8,3:2|0:0|0:0,0:0:0:0:
110,10,12889,2,0,P|93:48|88:91,1,85,8|0,0:0|0:0,0:0:0:0:
272,198,13257,2,0,P|246:164|212:138,1,85,2|8,0:0|0:0,0:0:0:0:
44,167,13625,1,2,3:2:0:0:
190,220,13809,5,0,3:2:0:0:
130,89,13993,1,0,0:0:0:0:
94,271,14177,1,8,0:0:0:0:
331,363,14361,2,0,P|371:326|376:205,1,170,8|2,0:0|0:0,0:0:0:0:
323,111,14913,2,0,P|364:98|407:98,1,85,8|0,0:0|0:0,0:0:0:0:
269,295,15281,6,0,P|228:307|184:307,1,85,0|2,3:2|0:0,0:0:0:0:
45,130,15650,1,0,3:2:0:0:
130,222,15834,1,2,0:0:0:0:
130,222,15926,1,2,0:0:0:0:
130,222,16018,1,0,3:2:0:0:
176,138,16202,1,2,0:0:0:0:
33,229,16386,1,0,3:2:0:0:
186,307,16570,6,0,P|272:307|372:312,1,170,6|8,0:0|0:0,0:0:0:0:
508,195,17122,2,0,P|474:211|409:199,1,85,0|0,3:2|0:0,0:0:0:0:
281,81,17490,1,0,3:2:0:0:
407,16,17674,1,0,3:2:0:0:
357,173,17858,6,0,P|323:189|258:177,1,85,8|2,0:0|0:0,0:0:0:0:
215,134,18226,6,0,L|34:169,1,170,4|8,3:2|0:0,0:0:0:0:
3,64,18778,1,0,0:0:0:0:
138,271,18962,2,0,P|157:237|149:180,1,85,0|2,3:2|0:0,0:0:0:0:
3,64,19331,1,8,0:0:0:0:
72,0,19515,6,0,P|36:52|45:173,1,170,2|2,0:0|0:0,0:0:0:0:
252,273,20067,1,8,0:0:0:0:
182,341,20251,2,0,P|106:333|-13:331,1,170,2|2,0:0|0:0,0:0:0:0:
267,255,20803,2,0,P|310:267|377:264,1,85,8|2,0:0|0:0,0:0:0:0:
511,113,21171,5,0,3:2:0:0:
419,59,21355,1,2,0:0:0:0:
406,180,21539,1,8,0:0:0:0:
487,122,21723,1,2,0:0:0:0:
345,1,21907,2,0,P|329:40|333:93,1,85,0|2,3:2|0:0,0:0:0:0:
329,82,22183,1,2,0:0:0:0:
329,82,22275,1,8,0:0:0:0:
496,271,22459,6,0,P|438:232|316:249,1,170,2|2,0:0|0:0,0:0:0:0:
152,346,23011,1,8,0:0:0:0:
272,322,23196,1,8,0:0:0:0:
272,322,23564,5,2,3:2:0:0:
168,369,23748,1,8,0:3:0:0:
53,226,23932,5,4,3:3:0:0:
59,234,24024,1,2,0:0:0:0:
66,242,24116,2,0,P|112:248|178:260,1,85,4|2,3:2|0:0,0:0:0:0:
281,111,24484,2,0,P|271:151|262:200,1,85,8|2,0:0|0:0,0:0:0:0:
388,365,24852,1,0,3:2:0:0:
491,280,25036,1,2,0:0:0:0:
491,280,25128,1,0,0:0:0:0:
491,280,25220,1,8,0:0:0:0:
388,365,25404,6,0,P|308:352|209:343,1,170,2|2,0:0|0:0,0:0:0:0:
140,188,25956,1,8,0:0:0:0:
3,308,26140,2,0,L|102:295,1,85,2|0,0:0|3:2,0:0:0:0:
91,301,26416,1,8,0:0:0:0:
97,305,26508,1,2,0:0:0:0:
220,228,26692,1,8,0:0:0:0:
81,96,26877,1,2,3:2:0:0:
140,188,27061,6,0,L|121:284,1,85,10|2,0:0|3:2,0:0:0:0:
265,116,27429,6,0,L|246:212,1,85,10|2,0:0|3:2,0:0:0:0:
337,341,27797,5,10,0:0:0:0:
460,225,27981,5,2,3:2:0:0:
454,241,28073,1,2,3:2:0:0:
449,258,28165,1,10,0:0:0:0:
337,341,28349,6,0,L|370:163,1,170,6|2,0:0|3:2,0:0:0:0:
156,134,28901,1,8,0:0:0:0:
252,2,29085,2,0,P|265:41|257:96,1,85,12|0,3:2|0:0,0:0:0:0:
255,80,29361,1,8,0:3:0:0:
249,77,29453,1,2,3:2:0:0:
80,301,29637,2,0,P|67:262|75:207,1,85,8|4,0:3|3:3,0:0:0:0:
156,134,30005,5,6,3:2:0:0:
156,134,30373,1,8,0:0:0:0:
163,238,30557,2,0,P|121:251|64:261,1,76.4999976654053,0|0,0:0|3:2,0:0:0:0:
262,294,30926,2,0,P|283:265|284:205,1,76.4999976654053,0|8,3:2|0:0,0:0:0:0:
223,1,31294,6,0,P|190:40|180:150,1,152.999995330811,2|0,0:0|0:0,0:0:0:0:
276,203,31846,1,8,0:0:0:0:
437,101,32030,1,2,0:0:0:0:
348,18,32214,1,2,3:2:0:0:
353,153,32398,1,2,3:2:0:0:
498,152,32582,1,8,0:0:0:0:
419,79,32766,1,2,0:0:0:0:
402,228,32950,6,0,P|389:306|380:379,1,152.999995330811,2|8,3:2|0:0,0:0:0:0:
289,289,33502,2,0,P|292:256|300:210,2,76.4999976654053,0|0|0,0:0|3:2|3:2,0:0:0:0:
89,252,34054,1,8,0:0:0:0:
167,371,34238,6,0,P|172:333|177:295,1,76.4999976654053,2|0,0:0|3:2,0:0:0:0:
58,61,34607,1,0,0:0:0:0:
127,138,34791,1,8,0:0:0:0:
224,81,34975,2,0,L|312:72,1,76.4999976654053,2|2,0:0|3:2,0:0:0:0:
478,154,35343,1,10,3:2:0:0:
372,13,35527,1,8,0:3:0:0:
287,228,35711,5,0,3:2:0:0:
287,228,35803,1,0,0:0:0:0:
287,228,35895,1,4,3:2:0:0:
287,228,36263,1,8,0:0:0:0:
423,317,36447,2,0,P|389:308|330:303,1,76.4999976654053,2|2,0:0|3:2,0:0:0:0:
145,354,36815,2,0,P|178:362|238:368,1,76.4999976654053,2|8,3:2|0:0,0:0:0:0:
287,228,37183,1,2,0:0:0:0:
87,222,37367,6,0,P|42:292|58:376,1,152.999995330811,2|8,3:2|0:0,0:0:0:0:
287,228,37919,2,0,P|300:200|296:132,1,76.4999976654053,2|2,0:0|3:2,0:0:0:0:
220,11,38288,1,2,3:2:0:0:
189,120,38472,1,8,0:0:0:0:
305,62,38656,1,2,0:0:0:0:
124,74,38840,6,0,P|86:80|42:86,1,76.4999976654053,2|0,3:2|0:0,0:0:0:0:
292,149,39208,2,0,P|329:142|374:137,1,76.4999976654053,10|0,0:0|0:0,0:0:0:0:
394,359,39576,1,2,3:2:0:0:
275,259,39760,1,2,0:0:0:0:
220,342,39944,2,0,P|182:348|138:354,1,76.4999976654053,10|0,0:0|0:0,0:0:0:0:
277,162,40312,6,0,P|296:192|286:261,1,76.4999976654053,2|2,3:2|0:0,0:0:0:0:
105,112,40680,1,8,0:0:0:0:
281,88,40864,2,0,P|308:144|291:244,1,152.999995330811,6|2,3:2|3:2,0:0:0:0:
70,222,41416,1,8,3:3:0:0:
183,353,41600,5,8,0:3:0:0:
185,341,41692,1,8,0:3:0:0:
187,329,41784,2,0,L|172:231,2,76.4999976654053,4|0|8,3:2|0:0|0:0,0:0:0:0:
304,373,42337,2,0,P|342:367|386:360,1,76.4999976654053,4|0,0:0|0:0,0:0:0:0:
476,145,42705,2,0,P|437:150|394:158,1,76.4999976654053,2|8,3:2|0:0,0:0:0:0:
165,236,43073,6,0,B|246:238|232:279|334:267,1,152.999995330811,4|2,3:2|3:2,0:0:0:0:
348,64,43625,1,8,0:0:0:0:
426,134,43809,1,0,3:2:0:0:
426,134,43901,1,8,0:0:0:0:
426,134,43993,2,0,L|419:179,2,38.2499988327027,2|8|8,3:2|0:3|0:3,0:0:0:0:
512,43,44361,1,8,3:3:0:0:
331,191,44545,1,4,0:3:0:0:
465,359,44729,6,0,P|506:286|478:194,1,152.999995330811,4|8,3:2|0:0,0:0:0:0:
340,323,45281,2,0,P|304:336|252:346,1,76.4999976654053,4|0,0:0|0:0,0:0:0:0:
89,280,45650,1,2,3:2:0:0:
23,195,45834,1,8,0:0:0:0:
96,286,46018,6,0,P|173:265|252:253,1,152.999995330811,4|0,3:2|3:0,0:0:0:0:
381,222,46570,2,0,L|364:311,1,76.4999976654053,8|0,0:0|0:0,0:0:0:0:
463,365,46938,1,0,3:0:0:0:
511,259,47122,1,0,3:0:0:0:
352,310,47306,1,8,0:0:0:0:
332,124,47490,5,2,3:2:0:0:
332,124,47582,1,2,0:0:0:0:
332,124,47674,2,0,P|411:119|476:176,2,152.999995330811,6|8|0,3:2|0:0|3:2,0:0:0:0:
208,259,48594,1,0,3:2:0:0:
50,218,48778,2,0,L|148:201,1,76.4999976654053,8|0,0:0|0:0,0:0:0:0:
341,347,49146,6,0,L|259:336,1,76.4999976654053,2|0,3:2|0:0,0:0:0:0:
156,95,49515,2,0,L|230:142,1,76.4999976654053,10|0,0:0|0:0,0:0:0:0:
165,377,49883,2,0,L|139:293,1,76.4999976654053,2|0,3:2|3:2,0:0:0:0:
308,92,50251,2,0,P|318:142|291:208,1,114.749996498108,10|0,0:0|0:0,0:0:0:0:
218,241,50619,6,0,L|66:270,1,152.999995330811,6|10,3:2|0:0,0:0:0:0:
101,165,51171,1,2,3:2:0:0:
101,165,51263,1,8,0:3:0:0:
101,165,51355,1,4,0:3:0:0:
229,348,51539,1,4,0:3:0:0:
340,270,51723,2,0,L|417:256,1,76.4999976654053,10|8,0:0|0:3,0:0:0:0:
422,261,51999,5,8,0:3:0:0:
430,269,52091,1,0,3:2:0:0:
488,121,52275,2,0,L|412:134,1,76.4999976654053,2|8,0:0|0:0,0:0:0:0:
191,90,52643,1,0,3:2:0:0:
191,90,52735,1,2,0:0:0:0:
191,90,52827,1,2,0:0:0:0:
267,35,53011,1,0,3:2:0:0:
233,171,53196,1,8,0:3:0:0:
104,99,53380,1,4,0:3:0:0:
299,290,53564,6,0,P|310:256|304:194,1,76.4999976654053,2|8,3:2|0:3,0:0:0:0:
104,99,53932,2,0,P|93:133|99:195,1,76.4999976654053,0|8,3:2|0:3,0:0:0:0:
155,352,54300,1,2,3:2:0:0:
229,258,54484,1,2,0:0:0:0:
107,203,54668,1,2,3:2:0:0:
229,340,54852,6,0,P|300:321|409:317,1,152.999995330811,6|8,3:2|0:0,0:0:0:0:
499,144,55404,1,8,0:0:0:0:
333,201,55588,1,8,0:0:0:0:
333,201,55956,6,0,L|341:244,2,42.5000016212464,2|2|2,0:0|0:0|0:0,0:0:0:0:
386,139,56140,6,0,B|325:153|325:153|302:179|302:179|239:197,1,152.999995330811,14|0,0:0|0:0,0:0:0:0:
185,135,56508,6,0,P|140:181|149:287,1,170,4|8,3:2|0:0,0:0:0:0:
330,332,57061,2,0,P|370:323|428:319,1,85,2|0,0:0|3:2,0:0:0:0:
160,299,57429,2,0,P|120:308|62:312,1,85,2|8,0:0|0:0,0:0:0:0:
261,371,57797,6,0,P|306:325|297:219,1,170,2|2,0:0|0:0,0:0:0:0:
169,62,58349,1,8,0:0:0:0:
93,130,58533,2,0,B|139:120|173:96|173:96|215:108|268:107,1,170,2|2,0:0|0:0,0:0:0:0:
490,98,59085,1,8,0:0:0:0:
411,19,59269,1,2,0:0:0:0:
312,197,59453,5,0,3:2:0:0:
312,197,59821,1,8,0:0:0:0:
419,327,60005,2,0,P|437:290|435:241,1,85,2|0,0:0|3:2,0:0:0:0:
287,36,60373,2,0,P|268:72|271:122,1,85,2|8,0:0|0:0,0:0:0:0:
348,269,60742,6,0,B|256:276|280:329|173:326,1,170,2|2,0:0|0:0,0:0:0:0:
138,168,61294,1,8,0:0:0:0:
0,244,61478,2,0,L|98:253,1,85,2|0,0:0|3:2,0:0:0:0:
281,161,61846,1,8,3:3:0:0:
174,35,62030,1,8,0:2:0:0:
126,158,62214,1,12,3:3:0:0:
369,226,62398,6,0,P|386:189|377:130,1,85,2|2,3:2|0:0,0:0:0:0:
285,46,62766,1,8,0:0:0:0:
205,199,62950,2,0,P|248:189|306:180,1,85,2|0,0:0|3:2,0:0:0:0:
130,331,63318,2,0,P|86:340|29:350,1,85,2|8,0:0|0:0,0:0:0:0:
214,381,63686,6,0,P|257:323|249:227,1,170,2|2,0:0|0:0,0:0:0:0:
68,143,64238,1,8,0:0:0:0:
185,23,64423,2,0,P|175:61|170:115,1,85,2|0,0:0|3:2,0:0:0:0:
337,167,64791,1,2,0:0:0:0:
434,213,64975,1,8,0:0:0:0:
512,129,65159,6,0,L|428:117,1,85,2|0,0:0|3:2,0:0:0:0:
256,223,65527,1,2,0:0:0:0:
342,180,65711,1,8,0:0:0:0:
434,300,65895,2,0,L|350:288,1,85,2|0,0:0|3:2,0:0:0:0:
158,351,66263,1,2,0:0:0:0:
262,279,66447,1,8,0:0:0:0:
91,166,66631,1,2,0:0:0:0:
168,251,66815,6,0,P|182:296|181:337,1,85,0|8,3:2|3:2,0:0:0:0:
19,221,67183,2,0,P|5:176|6:135,1,85,0|8,3:2|3:2,0:0:0:0:
154,41,67551,1,0,3:2:0:0:
91,166,67735,1,8,3:3:0:0:
91,166,67827,1,8,3:3:0:0:
91,166,67919,1,12,3:2:0:0:
6,102,68104,1,0,3:2:0:0:
91,166,68288,6,0,P|169:144|268:137,1,170,4|8,3:2|0:0,0:0:0:0:
335,22,68840,2,0,P|294:31|234:36,1,85,2|0,0:0|3:2,0:0:0:0:
429,197,69208,2,0,P|469:187|530:183,1,85,2|8,0:0|0:0,0:0:0:0:
453,347,69576,6,0,P|375:358|307:285,1,170,2|2,0:0|0:0,0:0:0:0:
126,196,70128,1,8,0:0:0:0:
243,58,70312,2,0,P|236:97|231:153,1,85,2|0,0:0|3:2,0:0:0:0:
54,310,70680,1,2,0:0:0:0:
130,357,70864,1,8,0:0:0:0:
222,323,71048,1,2,0:0:0:0:
232,223,71232,5,0,3:2:0:0:
232,223,71600,1,8,0:0:0:0:
134,341,71784,2,0,P|93:350|50:355,1,85,2|0,0:0|3:2,0:0:0:0:
191,159,72153,2,0,P|206:197|216:262,1,85,2|8,0:0|0:0,0:0:0:0:
83,99,72521,6,0,P|127:56|245:52,1,170,2|2,0:0|0:0,0:0:0:0:
329,198,73073,1,8,0:0:0:0:
469,93,73257,2,0,L|381:106,1,85,2|0,0:0|3:2,0:0:0:0:
272,296,73625,1,8,3:3:0:0:
398,246,73809,1,8,0:2:0:0:
277,139,73993,1,12,3:3:0:0:
450,330,74177,6,0,P|481:288|462:167,1,170,2|8,3:2|0:0,0:0:0:0:
325,38,74729,2,0,P|303:74|306:135,1,85,2|0,0:0|3:2,0:0:0:0:
323,231,75097,2,0,L|233:250,1,85,2|8,0:0|0:0,0:0:0:0:
19,312,75465,6,0,P|72:355|180:333,1,170,2|2,0:0|0:0,0:0:0:0:
233,226,76018,1,8,0:0:0:0:
143,73,76202,2,0,P|148:117|150:172,1,85,2|0,0:0|3:2,0:0:0:0:
106,270,76570,1,2,0:0:0:0:
54,130,76754,1,8,0:0:0:0:
160,183,76938,1,2,0:0:0:0:
20,233,77122,5,4,3:2:0:0:
69,141,77306,1,2,0:0:0:0:
179,304,77490,1,8,0:0:0:0:
233,226,77674,2,0,L|348:206,1,85,6|0,0:0|0:0,0:0:0:0:
326,217,77950,1,8,0:0:0:0:
336,224,78042,2,0,L|328:269,2,42.5,8|8|4,0:3|0:3|3:3,0:0:0:0:
450,114,78410,6,0,P|392:68|283:84,1,170,4|2,3:2|3:2,0:0:0:0:
86,163,78962,2,0,L|176:176,1,85,8|2,3:2|0:0,0:0:0:0:
408,329,79331,1,2,3:2:0:0:
314,246,79515,1,2,3:2:0:0:
123,340,79699,1,12,3:2:0:0:
236,318,79883,5,2,3:2:0:0:
236,318,79975,1,2,0:0:0:0:
236,318,80067,2,0,P|276:259|270:142,1,170,4|8,3:2|0:0,0:0:0:0:
100,139,80619,1,2,0:0:0:0:
213,9,80803,2,0,P|195:53|194:109,1,85,0|2,3:2|0:0,0:0:0:0:
314,246,81171,1,8,0:0:0:0:
393,167,81355,6,0,P|435:161|483:159,1,85,2|0,0:0|3:2,0:0:0:0:
301,332,81723,2,0,P|258:337|211:340,1,85,2|8,0:0|0:0,0:0:0:0:
13,231,82091,2,0,B|100:224|86:268|192:256,1,170,2|2,0:0|0:0,0:0:0:0:
343,154,82643,1,8,0:0:0:0:
250,54,82827,1,2,0:0:0:0:
157,163,83011,6,0,P|203:157|255:145,1,85,10|2,0:0|3:2,0:0:0:0:
464,225,83380,2,0,P|417:230|366:243,1,85,10|2,0:0|3:2,0:0:0:0:
299,359,83748,1,10,0:0:0:0:
430,309,83932,1,2,3:2:0:0:
430,309,84024,1,2,3:2:0:0:
430,309,84116,1,10,0:0:0:0:
323,100,84300,6,0,P|280:146|281:254,1,170,6|2,0:0|3:2,0:0:0:0:
430,309,84852,1,8,0:0:0:0:
271,336,85036,2,0,P|223:325|120:320,1,127.5,12|8,3:2|0:3,0:0:0:0:
131,333,85404,2,0,P|112:294|115:244,1,85,2|8,3:2|0:3,0:0:0:0:
187,95,85772,5,4,3:3:0:0:
194,107,85864,1,2,0:0:0:0:
196,120,85956,1,6,3:2:0:0:
256,192,86048,12,0,88901,0:0:0:0:
