osu file format v14

[General]
AudioFilename: audio.mp3
AudioLeadIn: 0
PreviewTime: 45761
Countdown: 0
SampleSet: Soft
StackLeniency: 0.7
Mode: 0
LetterboxInBreaks: 0
WidescreenStoryboard: 0

[Editor]
DistanceSpacing: 1
BeatDivisor: 4
GridSize: 32
TimelineZoom: 1.4

[Metadata]
Title:Gotoubun no Kiseki (Movie Size)
TitleUnicode:五等分の軌跡 (Movie Size)
Artist:Nakanoke no Itsutsugo
ArtistUnicode:中野家の五つ子
Creator:Gaia
Version:My Miku
Source:映画「五等分の花嫁」
Tags:meyrink akitoshi -laura- corinn pan p_a_n xlolicore- elsa valentine my angel watame 5toubun no hanayome 5hanayome 5-toubun go-toubun gotoubun 中野 一花 二乃 三玖 四葉 五月 Miku Yotsuba Nino Itsuki Ichika 水瀬 いのり Minase Inori 佐倉 綾音 Sakura Ayane ayaneru 伊藤 美来 Itou 竹達 彩奈 Taketatsu Ayana 花澤 香菜 Hanazawa Kana hanakana The Five Wedded Brides The Quintessential Quintuplets opening op movie double integral japanese anime jpop j-pop
BeatmapID:3635408
BeatmapSetID:1775347

[Difficulty]
HPDrainRate:6
CircleSize:4
OverallDifficulty:8
ApproachRate:9
SliderMultiplier:1.6
SliderTickRate:1

[Events]
//Background and Video events
Video,0,"5.mp4"
0,0,"miku.jpg",0,0
//Break Periods
//Storyboard Layer 0 (Background)
//Storyboard Layer 1 (Fail)
//Storyboard Layer 2 (Pass)
//Storyboard Layer 3 (Foreground)
//Storyboard Layer 4 (Overlay)
//Storyboard Sound Samples

[TimingPoints]
858,384.615384615385,4,2,1,30,1,0
858,-125,4,2,1,30,0,0
4704,-200,4,2,1,30,0,0
6627,-100,4,2,1,60,0,0
7011,-100,4,2,1,70,0,0
10088,-125,4,2,1,70,0,0
10473,-100,4,2,1,70,0,0
13165,-142.857142857143,4,2,1,70,0,0
13550,-100,4,2,1,70,0,0
16242,-111.111111111111,4,2,1,70,0,0
19319,-111.111111111111,4,2,1,40,0,0
19704,-142.857142857143,4,2,1,40,0,0
22011,-200,4,2,1,40,0,0
22781,-142.857142857143,4,2,1,40,0,0
30858,-142.857142857143,4,2,1,50,0,0
31627,-111.111111111111,4,2,1,60,0,0
37781,-111.111111111111,4,2,1,50,0,0
43934,-111.111111111111,4,2,1,60,0,0
46627,-166.666666666666,4,2,1,60,0,0
46915,-166.666666666666,4,2,1,5,0,0
47011,-100,4,2,1,80,0,0
62396,-142.857142857143,4,2,1,80,0,0
62973,-100,4,2,1,80,0,0
72588,-71.4285714285714,4,2,1,80,0,0
72781,-166.666666666667,4,2,1,80,0,0
73069,-166.666666666667,4,2,1,5,0,0
73165,-100,4,2,1,70,0,0
76242,-125,4,2,1,70,0,0
76627,-100,4,2,1,70,0,0
79319,-142.857142857143,4,2,1,70,0,0
79704,-100,4,2,1,70,0,0
85473,-100,4,2,1,30,0,0
87011,-100,4,2,1,20,0,0
88550,-100,4,2,1,10,0,0

[Colours]
Combo1 : 255,83,83
Combo2 : 255,170,213
Combo3 : 255,128,128
Combo4 : 189,123,123
Combo5 : 255,139,83

[HitObjects]
208,112,858,70,0,P|194:147|196:192,1,64,2|0,0:0|0:0,0:0:0:0:
279,261,1242,2,0,P|280:234|266:191,1,64,0|0,0:0|0:0,0:0:0:0:
122,161,1627,6,0,P|148:181|200:188,1,64,2|0,0:0|0:0,0:0:0:0:
343,182,2011,2,0,P|308:173|263:188,1,64,0|0,0:0|0:0,0:0:0:0:
116,243,2396,6,0,P|153:233|184:204,1,64,2|0,0:0|0:0,0:0:0:0:
337,100,2781,2,0,P|279:125|262:163,1,96,0|0,0:0|0:0,0:0:0:0:
281,178,3165,6,0,P|335:184|385:199,2,85.3333333333333,2|2|2,0:0|0:0|0:0,0:0:0:0:
232,326,3934,6,0,P|254:289|254:247,1,64,2|0,0:0|0:0,0:0:0:0:
182,127,4319,2,0,P|178:162|191:193,1,64,0|0,0:0|0:0,0:0:0:0:
418,225,4704,6,0,P|356:173|265:187,1,160,2|2,0:0|0:0,0:0:0:0:
280,177,6627,5,2,0:0:0:0:
282,196,6723,1,2,0:0:0:0:
284,216,6819,1,2,0:0:0:0:
286,236,6915,1,2,0:0:0:0:
288,256,7011,6,0,P|327:253|371:244,1,80,6|0,3:2|0:0,0:0:0:0:
197,335,7396,2,0,P|160:328|92:328,1,80,10|0,0:1|0:0,0:0:0:0:
28,84,7781,1,0,3:2:0:0:
120,187,7973,1,0,3:2:0:0:
227,137,8165,1,8,0:0:0:0:
41,313,8358,6,0,P|29:283|33:222,1,80,4|0,3:1|0:0,0:0:0:0:
191,35,8742,2,0,P|203:65|199:126,1,80,4|8,3:1|0:0,0:0:0:0:
110,265,9127,2,0,P|169:218|282:240,1,160,4|4,0:1|0:1,0:0:0:0:
491,335,9704,2,0,P|414:334|364:281,1,120,8|0,0:0|0:0,0:0:0:0:
364,288,10088,6,0,L|352:379,1,64,4|0,3:2|0:0,0:0:0:0:
336,196,10473,6,0,P|344:250|350:373,1,160,10|0,0:1|3:2,0:0:0:0:
118,335,11050,1,0,3:2:0:0:
200,265,11242,1,8,0:0:0:0:
91,219,11434,6,0,P|53:228|-2:234,1,80,4|0,3:1|0:0,0:0:0:0:
249,337,11819,2,0,P|286:327|342:322,1,80,4|8,3:1|0:0,0:0:0:0:
492,129,12204,2,0,P|433:78|338:101,1,160,4|4,0:1|0:1,0:0:0:0:
352,97,12684,1,2,0:0:0:0:
349,110,12781,2,0,L|338:203,1,80,8|0,0:0|0:0,0:0:0:0:
405,351,13165,6,0,P|424:319|411:265,1,83.9999974365235,4|0,3:2|0:0,0:0:0:0:
327,322,13550,6,0,B|236:325|269:364|173:360,1,160,10|0,0:1|3:2,0:0:0:0:
99,154,14127,1,4,3:1:0:0:
192,240,14319,1,8,0:0:0:0:
23,209,14511,6,0,P|8:176|16:111,1,80,4|0,3:1|0:0,0:0:0:0:
203,252,14896,2,0,P|203:291|187:328,1,80,4|8,3:1|0:0,0:0:0:0:
180,107,15281,2,0,P|221:73|297:76,1,120,4|2,0:1|0:0,0:0:0:0:
292,83,15665,1,2,3:2:0:0:
461,169,15858,2,0,P|420:203|344:200,1,120,12|2,0:1|0:0,0:0:0:0:
340,186,16242,6,0,P|329:253|326:339,1,143.999995605469,6|8,3:2|0:0,0:0:0:0:
136,363,16819,1,2,0:0:0:0:
138,340,16915,1,8,0:0:0:0:
141,313,17011,1,2,3:2:0:0:
80,210,17204,1,12,3:3:0:0:
241,299,17396,1,8,3:3:0:0:
380,101,17588,5,12,0:0:0:0:
256,192,17781,12,4,19319,0:0:0:0:
140,239,19704,6,0,P|130:216|132:166,1,55.9999982910157,0|0,0:0|0:0,0:0:0:0:
222,64,20088,2,0,P|215:113|208:202,1,111.999996582031,2|2,0:0|0:0,0:0:0:0:
209,175,20858,6,0,P|237:165|275:162,1,55.9999982910157,2|0,0:0|0:0,0:0:0:0:
140,324,21242,2,0,P|111:333|74:337,1,55.9999982910157,0|0,0:0|0:0,0:0:0:0:
93,243,21627,1,2,0:0:0:0:
180,248,21819,1,0,0:0:0:0:
267,253,22011,2,0,P|295:291|297:337,1,80,2|2,0:0|0:0,0:0:0:0:
299,322,22781,6,0,P|325:308|370:305,1,55.9999982910157,0|0,0:0|0:0,0:0:0:0:
511,348,23165,2,0,P|479:348|439:325,1,55.9999982910157,2|0,0:0|0:0,0:0:0:0:
417,180,23550,2,0,P|435:218|438:250,1,55.9999982910157,2|2,0:0|0:0,0:0:0:0:
432,235,23838,5,2,0:0:0:0:
427,241,23934,2,0,B|369:252|386:270|316:279,1,111.999996582031,2|0,0:0|0:0,0:0:0:0:
24,123,24704,1,2,0:0:0:0:
96,75,24896,1,0,0:0:0:0:
180,145,25088,2,0,L|171:219,1,55.9999982910157,2|2,0:0|0:0,0:0:0:0:
173,200,25377,5,2,0:0:0:0:
173,200,25473,1,2,0:0:0:0:
173,200,25858,2,0,P|149:157|165:76,2,111.999996582031,0|2|0,0:0|0:0|0:0,0:0:0:0:
350,303,26819,5,2,0:0:0:0:
350,303,26915,1,2,0:0:0:0:
350,303,27011,2,0,B|291:314|305:336|233:339,1,111.999996582031,2|0,0:0|0:0,0:0:0:0:
82,244,27588,1,0,0:0:0:0:
23,300,27781,2,0,P|63:286|144:284,1,111.999996582031,2|0,0:0|0:0,0:0:0:0:
217,133,28358,5,2,0:0:0:0:
217,133,28454,1,2,0:0:0:0:
217,133,28550,2,0,P|249:180|240:257,1,111.999996582031,2|0,0:0|0:0,0:0:0:0:
455,327,29127,1,0,0:0:0:0:
374,376,29319,2,0,P|366:341|361:253,1,111.999996582031,2|0,0:0|0:0,0:0:0:0:
428,191,29896,1,2,0:0:0:0:
142,122,30088,5,6,3:2:0:0:
142,122,30858,5,2,0:0:0:0:
140,135,30954,1,2,0:0:0:0:
138,149,31050,1,2,3:2:0:0:
137,163,31146,1,2,0:0:0:0:
77,217,31242,5,10,0:0:0:0:
78,230,31338,1,2,0:0:0:0:
80,244,31434,1,8,0:3:0:0:
81,258,31530,1,2,0:0:0:0:
83,272,31626,5,6,3:2:0:0:
150,363,31819,1,2,0:0:0:0:
248,306,32011,1,0,3:2:0:0:
182,206,32204,1,2,0:0:0:0:
163,285,32396,5,0,3:2:0:0:
163,285,32588,1,2,0:0:0:0:
336,327,32781,1,0,3:2:0:0:
347,116,32973,1,10,0:0:0:0:
285,206,33165,6,0,P|249:213|193:220,1,71.9999978027344,0|2,3:2|0:0,0:0:0:0:
336,105,33550,1,0,3:2:0:0:
398,268,33742,2,0,P|416:238|408:181,1,71.9999978027344,2|0,0:0|3:2,0:0:0:0:
317,12,34127,1,10,0:0:0:0:
246,119,34319,1,10,0:0:0:0:
409,147,34511,5,8,0:3:0:0:
409,147,34608,1,8,0:3:0:0:
409,147,34704,2,0,P|442:143|500:129,1,71.9999978027344,4|2,3:2|0:0,0:0:0:0:
305,305,35088,2,0,P|271:308|214:323,1,71.9999978027344,0|2,3:2|0:0,0:0:0:0:
30,253,35473,1,0,3:2:0:0:
115,369,35665,2,0,P|127:336|122:279,1,71.9999978027344,2|0,0:0|3:2,0:0:0:0:
175,68,36050,1,10,0:0:0:0:
204,204,36242,5,2,3:2:0:0:
53,175,36434,1,10,0:0:0:0:
250,116,36627,1,10,0:0:0:0:
234,316,36819,1,0,3:3:0:0:
180,218,37011,5,10,0:0:0:0:
180,218,37204,1,8,0:3:0:0:
277,185,37396,1,12,3:3:0:0:
277,185,37588,1,8,3:3:0:0:
341,240,37781,6,0,B|257:231|278:208|190:204,1,143.999995605469,6|0,3:2|3:2,0:0:0:0:
13,316,38550,2,0,P|49:352|122:339,1,107.999996704102,10|10,0:1|0:2,0:0:0:0:
118,361,38934,2,0,L|129:279,1,71.9999978027344,0|0,0:0|3:2,0:0:0:0:
142,36,39319,5,2,0:1:0:0:
80,99,39511,1,8,0:2:0:0:
143,157,39704,2,0,P|177:155|220:142,1,71.9999978027344,0|0,3:2|0:0,0:0:0:0:
332,139,39992,1,0,1:1:0:0:
340,129,40088,2,0,P|296:102|194:122,1,143.999995605469,8|0,0:1|3:2,0:0:0:0:
127,289,40665,1,8,0:2:0:0:
57,347,40858,6,0,P|122:339|227:325,1,143.999995605469,4|0,3:2|3:2,0:0:0:0:
401,297,41434,1,0,0:0:0:0:
464,362,41627,2,0,P|504:310|484:217,1,143.999995605469,10|0,0:1|0:0,0:0:0:0:
369,48,42204,1,0,3:2:0:0:
327,150,42396,5,2,0:1:0:0:
446,102,42588,1,8,0:0:0:0:
253,123,42781,2,0,P|217:130|174:135,1,71.9999978027344,0|0,3:2|0:0,0:0:0:0:
29,306,43165,1,10,0:1:0:0:
107,234,43358,1,0,3:2:0:0:
168,372,43550,2,0,P|184:330|177:278,1,71.9999978027344,8|0,0:2|0:0,0:0:0:0:
54,76,43934,6,0,L|67:162,1,71.9999978027344,6|0,3:1|3:2,0:0:0:0:
134,4,44319,1,0,3:2:0:0:
147,210,44511,2,0,L|135:292,1,71.9999978027344,6|0,3:1|3:2,0:0:0:0:
358,374,44896,1,2,3:1:0:0:
262,273,45088,1,14,3:2:0:0:
387,97,45281,5,14,3:2:0:0:
498,179,46434,5,2,3:2:0:0:
493,192,46531,1,2,3:2:0:0:
487,204,46627,2,0,P|452:194|418:149,1,71.9999978027344,2|0,3:2|0:0,0:0:0:0:
387,97,47011,6,0,P|393:139|402:197,1,80,6|0,3:2|0:0,0:0:0:0:
151,250,47396,1,10,0:1:0:0:
268,354,47588,2,0,P|261:311|253:254,1,80,0|0,0:0|3:2,0:0:0:0:
314,61,47973,1,0,3:2:0:0:
241,187,48165,1,8,0:0:0:0:
106,167,48358,1,2,0:0:0:0:
342,291,48550,6,0,P|380:281|441:275,1,80,2|2,3:2|0:1,0:0:0:0:
241,187,48934,1,8,0:0:0:0:
478,355,49127,2,0,P|510:317|497:187,1,160,2|2,3:1|3:2,0:0:0:0:
253,8,49704,2,0,P|236:43|244:110,1,80,10|0,0:1|0:0,0:0:0:0:
234,83,49992,5,0,0:0:0:0:
234,83,50088,1,2,3:2:0:0:
293,211,50281,1,0,0:0:0:0:
398,82,50473,1,10,0:1:0:0:
170,173,50665,2,0,P|133:167|74:164,1,80,0|0,0:0|3:2,0:0:0:0:
18,355,51050,1,0,3:2:0:0:
138,261,51242,1,8,0:0:0:0:
3,108,51434,1,2,0:1:0:0:
250,300,51627,6,0,P|287:306|346:309,1,80,2|2,3:2|0:1,0:0:0:0:
503,250,52011,1,10,0:0:0:0:
395,366,52204,2,0,P|355:315|355:210,1,160,2|2,3:1|3:2,0:0:0:0:
223,38,52781,1,10,0:1:0:0:
97,168,52973,5,2,0:0:0:0:
127,163,53069,1,2,0:0:0:0:
156,159,53165,1,6,3:2:0:0:
220,57,53358,1,2,0:0:0:0:
373,210,53550,2,0,L|279:225,1,80,8|2,0:0|0:0,0:0:0:0:
66,371,53934,1,2,3:2:0:0:
199,245,54127,1,0,3:2:0:0:
49,98,54319,1,10,0:0:0:0:
103,268,54511,1,2,0:0:0:0:
253,138,54704,5,0,3:2:0:0:
253,138,54896,1,0,3:2:0:0:
211,345,55088,1,10,0:0:0:0:
151,75,55281,2,0,P|213:25|313:41,1,160,2|0,3:2|3:2,0:0:0:0:
398,310,55858,1,10,0:0:0:0:
487,151,56050,1,2,0:0:0:0:
302,245,56242,6,0,L|214:266,1,80,4|0,3:2|0:0,0:0:0:0:
44,348,56627,1,8,0:0:0:0:
152,214,56819,1,2,3:2:0:0:
49,51,57011,2,0,P|32:92|42:145,1,80,2|0,0:0|3:2,0:0:0:0:
206,369,57396,2,0,P|222:327|213:275,1,80,8|2,0:0|3:2,0:0:0:0:
117,108,57781,5,6,3:2:0:0:
144,318,57973,1,2,3:2:0:0:
314,210,58165,1,8,0:0:0:0:
191,200,58358,5,6,3:2:0:0:
191,200,58742,1,4,3:2:0:0:
319,330,58934,1,8,0:0:0:0:
343,334,59031,1,8,0:0:0:0:
368,339,59127,1,8,3:3:0:0:
512,193,59319,5,6,3:2:0:0:
406,250,59511,1,0,0:0:0:0:
296,79,59704,1,10,0:1:0:0:
191,200,59896,2,0,L|299:182,1,80,0|0,0:0|3:2,0:0:0:0:
361,359,60281,1,0,3:2:0:0:
505,297,60473,2,0,L|426:283,1,80,8|2,0:0|0:0,0:0:0:0:
270,64,60858,5,2,3:2:0:0:
377,186,61050,1,6,0:1:0:0:
261,313,61242,1,8,0:0:0:0:
361,359,61434,2,0,P|389:302|376:180,1,160,6|2,3:1|3:2,0:0:0:0:
197,7,62011,2,0,L|186:106,1,80,14|0,0:1|0:0,0:0:0:0:
112,214,62396,6,0,P|71:217|29:173,1,83.9999974365235,2|0,3:2|0:0,0:0:0:0:
31,173,62781,5,10,0:1:0:0:
247,161,62973,2,0,P|287:152|340:143,1,80,0|0,0:0|3:2,0:0:0:0:
154,90,63358,1,0,3:2:0:0:
412,85,63550,2,0,P|432:123|429:186,1,80,8|0,0:0|0:1,0:0:0:0:
339,371,63934,6,0,P|298:316|313:250,1,120,4|0,3:1|0:0,0:0:0:0:
322,250,64319,1,10,0:0:0:0:
129,361,64511,2,0,P|170:351|218:347,1,80,0|6,3:1|0:1,0:0:0:0:
305,171,64896,2,0,P|316:213|323:272,1,80,2|10,3:2|0:1,0:0:0:0:
360,74,65281,1,2,0:0:0:0:
163,208,65473,6,0,P|152:166|145:107,1,80,6|2,3:2|0:0,0:0:0:0:
220,0,65858,1,8,0:0:0:0:
268,160,66050,1,2,0:0:0:0:
57,101,66242,1,2,3:2:0:0:
57,101,66434,1,0,3:2:0:0:
217,95,66627,1,10,0:0:0:0:
187,302,66819,1,2,0:0:0:0:
51,236,67011,6,0,P|93:230|147:218,1,80,0|0,3:2|3:2,0:0:0:0:
400,166,67396,1,10,0:0:0:0:
330,28,67588,1,2,3:2:0:0:
330,28,67684,1,2,0:0:0:0:
330,28,67781,2,0,L|318:94,1,40,2|2,0:0|0:0,0:0:0:0:
238,113,67973,1,0,3:2:0:0:
483,43,68165,1,10,0:0:0:0:
360,246,68358,5,8,0:0:0:0:
364,269,68454,1,8,0:0:0:0:
370,292,68550,1,4,3:2:0:0:
256,192,68742,1,0,0:0:0:0:
303,53,68934,1,8,0:0:0:0:
119,234,69127,5,4,3:2:0:0:
256,192,69319,1,0,0:0:0:0:
370,292,69511,1,8,0:0:0:0:
303,53,69704,5,4,3:2:0:0:
256,192,69896,1,0,0:0:0:0:
149,102,70088,1,8,0:0:0:0:
231,337,70281,5,4,3:2:0:0:
256,192,70473,1,0,0:0:0:0:
393,150,70665,1,8,0:0:0:0:
236,69,70858,5,8,3:1:0:0:
251,210,71050,1,8,3:1:0:0:
73,362,71242,1,8,3:1:0:0:
88,220,71434,1,12,3:2:0:0:
141,109,72588,6,0,L|151:188,1,55.9999982910157,8|0,3:3|3:0,0:0:0:0:
88,220,72781,6,0,P|76:252|83:302,1,71.9999978027344,8|0,0:0|0:0,0:0:0:0:
86,307,73165,6,0,P|40:318|-22:324,1,80,6|0,3:2|0:0,0:0:0:0:
250,361,73550,2,0,P|295:349|358:344,1,80,10|0,0:1|0:0,0:0:0:0:
484,153,73934,1,0,3:2:0:0:
411,325,74127,1,0,3:2:0:0:
250,252,74319,1,8,0:0:0:0:
478,271,74511,6,0,P|488:303|490:372,1,80,4|0,3:1|0:0,0:0:0:0:
271,156,74896,2,0,P|261:124|259:55,1,80,4|8,3:1|0:0,0:0:0:0:
343,293,75281,2,0,P|283:340|190:334,1,160,4|4,0:1|0:1,0:0:0:0:
10,200,75858,2,0,B|46:166|46:166|93:163|134:192,1,120,8|0,0:0|0:0,0:0:0:0:
127,197,76242,6,0,L|138:283,1,64,4|0,3:2|0:0,0:0:0:0:
160,111,76627,6,0,P|156:192|142:288,1,160,10|0,0:1|3:2,0:0:0:0:
264,374,77204,1,0,3:2:0:0:
360,190,77396,1,8,0:0:0:0:
497,295,77588,6,0,L|397:284,1,80,4|0,3:1|0:0,0:0:0:0:
281,85,77973,1,4,3:1:0:0:
415,50,78165,1,8,0:0:0:0:
281,85,78358,2,0,P|255:137|268:222,1,120,4|0,0:1|0:0,0:0:0:0:
273,217,78742,1,4,3:1:0:0:
449,361,78934,2,0,P|427:326|375:310,1,80,8|0,0:0|0:0,0:0:0:0:
186,358,79319,6,0,P|228:364|279:324,1,83.9999974365235,4|0,3:2|0:0,0:0:0:0:
315,289,79704,6,0,B|227:297|255:340|132:332,1,160,10|0,0:1|3:2,0:0:0:0:
47,80,80281,1,4,3:1:0:0:
134,189,80473,1,8,0:0:0:0:
67,271,80665,6,0,L|55:366,1,80,4|0,3:1|0:0,0:0:0:0:
267,139,81050,2,0,L|279:44,1,80,4|8,3:1|0:0,0:0:0:0:
496,259,81434,2,0,P|455:284|359:274,1,120,4|2,0:1|0:0,0:0:0:0:
364,264,81819,1,2,3:2:0:0:
150,166,82011,2,0,P|201:133|282:139,1,120,12|2,0:1|0:0,0:0:0:0:
267,139,82396,6,0,P|180:123|145:56,1,160,6|8,3:2|0:0,0:0:0:0:
17,255,82973,1,2,0:0:0:0:
52,248,83069,1,8,0:0:0:0:
88,241,83165,1,2,3:2:0:0:
246,370,83358,1,12,3:3:0:0:
359,159,83550,1,8,3:3:0:0:
247,243,83742,5,12,0:0:0:0:
256,192,85473,12,0,88550,0:0:0:0:
