osu file format v14

[General]
AudioFilename: audio.mp3
AudioLeadIn: 0
PreviewTime: 52861
Countdown: 0
SampleSet: Soft
StackLeniency: 0.7
Mode: 3
LetterboxInBreaks: 0
SpecialStyle: 0
WidescreenStoryboard: 1

[Editor]
DistanceSpacing: 0.8
BeatDivisor: 4
GridSize: 16
TimelineZoom: 1.7

[Metadata]
Title:Gotoubun no Kimochi (TV Size)
TitleUnicode:五等分の気持ち (TV Size)
Artist:Nakanoke no Itsutsugo
ArtistUnicode:中野家の五つ子
Creator:MISTERNOPAL
Version:hitsound
Source:五等分の花嫁
Tags:go toubun go-toubun hanayome nakano-ke nakano ichika nino miku yotsuba itsuki anime japanese
BeatmapID:1943803
BeatmapSetID:930229

[Difficulty]
HPDrainRate:8
CircleSize:9
OverallDifficulty:8
ApproachRate:5
SliderMultiplier:1.4
SliderTickRate:1

[Events]
//Background and Video events
0,0,"R-13 background.jpg",0,0
//Break Periods
//Storyboard Layer 0 (Background)
//Storyboard Layer 1 (Fail)
//Storyboard Layer 2 (Pass)
//Storyboard Layer 3 (Foreground)
//Storyboard Sound Samples

[TimingPoints]
-539,342.857142857143,4,2,1,30,1,0
11802,-100,4,3,1,70,0,0
52946,-100,4,3,1,70,0,1
74718,-100,4,3,1,70,0,0

[HitObjects]
483,46,832,5,0,0:0:0:70:E6S_s.wav
426,0,832,1,0,0:0:0:70:A6S_s.wav
426,214,1518,1,0,0:0:0:70:E6S_s.wav
483,102,1518,1,0,0:0:0:70:A6S_s.wav
426,270,2203,1,0,0:0:0:70:E6S_s.wav
483,158,2203,1,0,0:0:0:70:A6S_s.wav
483,46,2546,1,0,0:0:0:70:E5S_s.wav
426,326,2889,1,0,0:0:0:70:B5S_s.wav
369,214,2889,1,0,0:0:0:70:E6S_s.wav
483,0,2889,1,0,0:0:0:70:A6S_s.wav
426,102,3232,1,0,0:0:0:70:E6S_s.wav
483,270,3232,1,0,0:0:0:70:E5S_s.wav
426,158,3575,1,0,0:0:0:70:B5S_s.wav
369,46,3575,1,0,0:0:0:70:E6S_s.wav
483,0,3575,1,0,0:0:0:70:G#6S_Ab6S_s.wav
426,326,4261,1,0,0:0:0:70:B5S_s.wav
369,214,4261,1,0,0:0:0:70:E6S_s.wav
483,102,4261,1,0,0:0:0:70:G#6S_Ab6S_s.wav
256,192,4603,5,0,0:0:0:30:LR_Drum EDge.wav
256,192,4861,1,0,0:0:0:30:LR_Drum EDge.wav
426,438,4946,1,0,0:0:0:70:B5S_s.wav
369,270,4946,1,0,0:0:0:70:E6S_s.wav
483,158,4946,1,0,0:0:0:70:G#6S_Ab6S_s.wav
256,192,4946,1,0,0:0:0:30:LR_Drum EDge.wav
256,192,5118,1,0,0:0:0:30:LR_Drum EDge.wav
256,192,5203,1,0,0:0:0:30:LR_Drum EDge.wav
483,0,5289,1,0,0:0:0:70:E5S.wav
312,192,5289,1,0,0:0:0:40:LR_Drum EDge.wav
312,192,5375,1,0,0:0:0:40:LR_Drum EDge.wav
312,192,5461,1,0,0:0:0:40:LR_Drum EDge.wav
312,192,5546,1,0,0:0:0:40:LR_Drum EDge.wav
426,326,5632,1,0,0:0:0:70:B5S_s.wav
369,102,5632,1,0,0:0:0:70:E6S_s.wav
483,46,5632,1,0,0:0:0:70:G#6S_Ab6S_s.wav
199,192,5632,1,0,0:0:0:70:LR_Drum EDge.wav
199,192,5718,1,0,0:0:0:70:LR_Drum EDge.wav
199,192,5803,1,0,0:0:0:70:LR_Drum EDge.wav
199,192,5889,1,0,0:0:0:70:LR_Drum EDge.wav
256,192,5975,1,0,0:0:0:85:LR_Drum EDge.wav
256,192,6061,1,0,0:0:0:85:LR_Drum EDge.wav
312,192,6146,1,0,0:0:0:100:LR_Drum EDge.wav
312,192,6232,1,0,0:0:0:100:LR_Drum EDge.wav
142,192,6318,1,0,0:0:0:70:drum-hitwhistle.wav
28,192,6318,1,0,0:0:0:70:Splash.wav
256,192,7346,1,0,0:0:0:30:LR_Clap Fast Low.wav
256,192,8032,1,0,0:0:0:30:LR_Clap Fast Low.wav
199,192,8546,1,0,0:0:0:50:LR_Clap Fast Low.wav
199,192,8718,1,0,0:0:0:50:LR_Clap Fast Low.wav
85,192,9403,1,0,0:0:0:30:LR_Clap Fast Low.wav
85,192,10089,1,0,0:0:0:30:LR_Clap Fast Low.wav
256,192,10261,1,0,0:0:0:30:LR_Drum EDge.wav
256,192,10346,1,0,0:0:0:30:LR_Drum EDge.wav
256,192,10432,1,0,0:0:0:30:LR_Drum EDge.wav
256,192,10518,1,0,0:0:0:30:LR_Drum EDge.wav
256,192,10603,1,0,0:0:0:30:LR_Drum EDge.wav
256,192,10689,5,0,0:0:0:30:LR_Drum EDge.wav
312,192,10775,5,0,0:0:0:40:LR_Drum EDge.wav
85,192,10775,1,0,0:0:0:30:LR_Clap Fast Low.wav
312,192,10861,1,0,0:0:0:40:LR_Drum EDge.wav
312,192,10946,1,0,0:0:0:40:LR_Drum EDge.wav
312,192,11032,1,0,0:0:0:40:LR_Drum EDge.wav
369,192,11118,1,0,0:0:0:70:LR_Drum EDge.wav
369,192,11203,1,0,0:0:0:70:LR_Drum EDge.wav
369,192,11289,1,0,0:0:0:70:LR_Drum EDge.wav
85,192,11289,1,0,0:0:0:30:LR_Clap Fast Low.wav
369,192,11375,1,0,0:0:0:70:LR_Drum EDge.wav
426,192,11461,1,0,0:0:0:85:LR_Drum EDge.wav
85,192,11461,1,0,0:0:0:30:LR_Clap Fast Low.wav
426,192,11546,1,0,0:0:0:85:LR_Drum EDge.wav
483,192,11632,1,0,0:0:0:100:LR_Drum EDge.wav
483,192,11718,1,0,0:0:0:100:LR_Drum EDge.wav
142,192,11803,5,2,0:0:0:0:
28,192,11803,1,0,0:0:0:70:LR_Drum Finish.wav
142,192,12146,1,2,0:0:0:0:
256,192,12146,1,0,0:0:0:70:LR_Clap Fast Low.wav
142,192,12489,1,2,0:0:0:0:
142,192,12832,1,2,0:0:0:0:
256,192,12832,1,0,0:0:0:70:LR_Clap Fast Low.wav
142,192,13175,1,2,0:0:0:0:
142,192,13518,1,2,0:0:0:0:
256,192,13518,1,0,0:0:0:70:LR_Clap Fast Low.wav
142,192,13861,1,2,0:0:0:0:
256,192,14032,1,0,0:0:0:70:LR_Clap Fast Low.wav
142,192,14203,1,2,0:0:0:0:
256,192,14203,1,0,0:0:0:70:LR_Clap Fast Low.wav
142,192,14546,1,2,0:0:0:0:
142,192,14889,1,2,0:0:0:0:
256,192,14889,1,0,0:0:0:70:LR_Clap Fast Low.wav
142,192,15232,1,2,0:0:0:0:
142,192,15575,1,2,0:0:0:0:
256,192,15575,1,0,0:0:0:70:LR_Clap Fast Low.wav
142,192,15918,1,2,0:0:0:0:
142,192,16261,1,2,0:0:0:0:
256,192,16261,1,0,0:0:0:70:LR_Clap Fast Low.wav
142,192,16603,1,2,0:0:0:0:
256,192,16775,1,0,0:0:0:70:LR_Clap Fast Low.wav
142,192,16946,1,2,0:0:0:0:
256,192,16946,1,0,0:0:0:70:LR_Clap Fast Low.wav
28,192,17289,1,0,0:0:0:70:LR_Drum Finish.wav
142,192,17289,1,2,0:0:0:0:
369,192,17632,1,8,0:0:0:0:
142,192,17975,1,2,0:0:0:0:
369,192,18318,1,8,0:0:0:0:
142,192,18489,1,2,0:0:0:0:
142,192,18832,1,2,0:0:0:0:
369,192,19003,1,8,0:0:0:0:
142,192,19346,1,2,0:0:0:0:
369,192,19689,1,8,0:0:0:0:
142,192,20032,1,2,0:0:0:0:
369,192,20375,1,8,0:0:0:0:
142,192,20718,1,2,0:0:0:0:
369,192,21061,1,8,0:0:0:0:
142,192,21232,1,2,0:0:0:0:
142,192,21575,1,2,0:0:0:0:
369,192,21746,1,8,0:0:0:0:
142,192,22089,1,2,0:0:0:0:
369,192,22432,1,8,0:0:0:0:
142,192,22775,1,2,0:0:0:0:
369,192,23118,1,8,0:0:0:0:
142,192,23461,1,2,0:0:0:0:
369,192,23803,1,8,0:0:0:0:
142,192,23975,1,2,0:0:0:0:
142,192,24318,1,2,0:0:0:0:
369,192,24489,1,8,0:0:0:0:
142,192,24832,1,2,0:0:0:0:
369,192,25175,1,8,0:0:0:0:
142,192,25518,1,2,0:0:0:0:
142,192,25689,1,2,0:0:0:0:
142,192,25861,1,2,0:0:0:0:
483,192,25861,1,0,0:0:0:70:Splash.wav
142,192,26203,1,2,0:0:0:0:
369,192,26375,1,8,0:0:0:0:
369,192,26461,1,8,0:0:0:0:
369,192,26546,1,8,0:0:0:0:
142,192,26718,1,2,0:0:0:0:
483,192,26718,1,0,0:0:0:70:Splash.wav
142,192,27061,1,2,0:0:0:0:
142,192,27146,1,2,0:0:0:0:
369,192,27232,1,8,0:0:0:0:
28,192,27232,1,0,0:0:0:70:LR_Drum Finish.wav
142,192,27575,1,2,0:0:0:0:
369,192,27918,1,8,0:0:0:0:
369,192,28089,1,8,0:0:0:0:
28,192,28261,1,0,0:0:0:70:LR_Drum Finish.wav
142,192,28261,1,2,0:0:0:0:
369,192,28603,1,8,0:0:0:0:
142,192,29118,1,2,0:0:0:0:
369,192,29289,1,8,0:0:0:0:
142,192,29461,1,2,0:0:0:0:
142,192,29803,1,2,0:0:0:0:
369,192,29975,1,8,0:0:0:0:
142,192,30489,1,2,0:0:0:0:
369,192,30661,1,8,0:0:0:0:
142,192,31003,1,2,0:0:0:0:
369,192,31346,1,8,0:0:0:0:
142,192,31861,1,2,0:0:0:0:
369,192,32032,1,8,0:0:0:0:
142,192,32203,1,2,0:0:0:0:
142,192,32546,1,2,0:0:0:0:
369,192,32718,1,8,0:0:0:0:
142,192,33232,1,2,0:0:0:0:
369,192,33403,1,8,0:0:0:0:
142,192,33746,1,2,0:0:0:0:
369,192,34089,1,8,0:0:0:0:
142,192,34603,1,2,0:0:0:0:
369,192,34775,1,8,0:0:0:0:
142,192,34946,1,2,0:0:0:0:
142,192,35289,1,2,0:0:0:0:
369,192,35461,1,8,0:0:0:0:
142,192,35975,1,2,0:0:0:0:
369,192,36146,1,8,0:0:0:0:
142,192,36489,1,2,0:0:0:0:
369,192,36832,1,8,0:0:0:0:
142,192,37346,1,2,0:0:0:0:
369,192,37518,1,8,0:0:0:0:
142,192,37689,1,2,0:0:0:0:
142,192,38032,1,2,0:0:0:0:
369,192,38203,1,8,0:0:0:0:
142,192,38718,1,2,0:0:0:0:
369,192,38889,1,8,0:0:0:0:
369,192,39061,1,8,0:0:0:0:
369,192,39146,1,8,0:0:0:0:
142,192,39232,1,2,0:0:0:0:
28,192,39232,1,0,0:0:0:70:LR_Drum Finish.wav
369,192,39575,1,8,0:0:0:0:
142,192,40089,1,2,0:0:0:0:
369,192,40261,1,8,0:0:0:0:
142,192,40775,1,2,0:0:0:0:
369,192,40946,1,8,0:0:0:0:
142,192,41461,1,2,0:0:0:0:
369,192,41632,1,8,0:0:0:0:
142,192,41975,1,2,0:0:0:0:
369,192,42318,1,8,0:0:0:0:
142,192,42832,1,2,0:0:0:0:
369,192,43003,1,8,0:0:0:0:
142,192,43346,1,2,0:0:0:0:
369,192,43518,1,8,0:0:0:0:
85,192,43861,1,0,0:0:0:70:tom01.wav
369,192,44032,1,8,0:0:0:0:
256,192,44203,1,0,0:0:0:70:tom02.wav
85,192,44375,1,0,0:0:0:70:tom01.wav
142,192,44718,1,2,0:0:0:0:
483,192,44718,1,0,0:0:0:70:Splash.wav
142,192,45061,1,2,0:0:0:0:
369,192,45403,1,8,0:0:0:0:
142,192,45746,1,2,0:0:0:0:
369,192,45918,1,8,0:0:0:0:
142,192,46089,1,2,0:0:0:0:
369,192,46261,1,8,0:0:0:0:
142,192,46432,1,2,0:0:0:0:
369,192,46775,1,8,0:0:0:0:
142,192,47118,1,2,0:0:0:0:
369,192,47289,1,8,0:0:0:0:
142,192,47461,1,2,0:0:0:0:
28,192,47461,1,0,0:0:0:70:LR_Drum Finish.wav
369,192,47803,1,8,0:0:0:0:
142,192,48146,1,2,0:0:0:0:
142,192,48318,1,2,0:0:0:0:
369,192,48489,1,8,0:0:0:0:
142,192,48832,1,2,0:0:0:0:
142,192,49003,1,2,0:0:0:0:
369,192,49175,1,8,0:0:0:0:
142,192,49518,1,2,0:0:0:0:
142,192,49689,1,2,0:0:0:0:
369,192,49861,1,8,0:0:0:0:
142,192,50032,1,2,0:0:0:0:
369,192,50203,1,8,0:0:0:0:
369,192,50546,1,8,0:0:0:0:
369,192,50889,1,8,0:0:0:0:
142,192,51061,1,2,0:0:0:0:
369,192,51146,1,8,0:0:0:0:
369,192,51232,1,8,0:0:0:0:
142,192,51403,1,2,0:0:0:0:
483,192,51403,1,0,0:0:0:70:Splash.wav
483,438,51918,5,0,0:0:0:70:B4S_s.wav
426,0,51918,1,0,0:0:0:70:B5S_s.wav
142,192,51918,1,2,0:0:0:0:
256,192,52175,1,0,0:0:0:30:LR_Drum EDge.wav
426,326,52261,1,0,0:0:0:70:D#5S_Eb5S_s.wav
483,102,52261,1,0,0:0:0:70:D#6S_Eb6S_s.wav
256,192,52261,1,0,0:0:0:30:LR_Drum EDge.wav
256,192,52346,1,0,0:0:0:30:LR_Drum EDge.wav
256,192,52432,1,0,0:0:0:30:LR_Drum EDge.wav
256,192,52518,5,0,0:0:0:30:LR_Drum EDge.wav
426,270,52603,1,0,0:0:0:70:E5S_s.wav
483,158,52603,1,0,0:0:0:70:E6S_s.wav
256,192,52603,1,0,0:0:0:30:LR_Drum EDge.wav
256,192,52689,1,0,0:0:0:30:LR_Drum EDge.wav
256,192,52775,1,0,0:0:0:30:LR_Drum EDge.wav
256,192,52861,5,0,0:0:0:30:LR_Drum EDge.wav
28,192,52946,1,0,0:0:0:70:LR_Drum Finish.wav
142,192,52946,1,2,0:0:0:0:
369,192,53289,1,8,0:0:0:0:
142,192,53632,1,2,0:0:0:0:
142,192,53803,1,2,0:0:0:0:
369,192,53975,1,8,0:0:0:0:
142,192,54146,1,2,0:0:0:0:
142,192,54489,1,2,0:0:0:0:
369,192,54661,1,8,0:0:0:0:
142,192,55175,1,2,0:0:0:0:
369,192,55346,1,8,0:0:0:0:
142,192,55689,1,2,0:0:0:0:
369,192,56032,1,8,0:0:0:0:
142,192,56375,1,2,0:0:0:0:
142,192,56546,1,2,0:0:0:0:
369,192,56718,1,8,0:0:0:0:
142,192,56889,1,2,0:0:0:0:
142,192,57232,1,2,0:0:0:0:
369,192,57403,1,8,0:0:0:0:
142,192,57918,1,2,0:0:0:0:
369,192,58089,1,8,0:0:0:0:
369,192,58261,1,8,0:0:0:0:
369,192,58346,1,8,0:0:0:0:
142,192,58432,1,2,0:0:0:0:
28,192,58432,1,0,0:0:0:70:Splash.wav
369,192,58775,1,8,0:0:0:0:
142,192,59289,1,2,0:0:0:0:
369,192,59461,1,8,0:0:0:0:
142,192,59632,1,2,0:0:0:0:
142,192,59803,1,2,0:0:0:0:
369,192,60146,1,8,0:0:0:0:
142,192,60661,1,2,0:0:0:0:
369,192,60832,1,8,0:0:0:0:
142,192,61003,1,2,0:0:0:0:
142,192,61175,1,2,0:0:0:0:
369,192,61518,1,8,0:0:0:0:
369,192,61861,1,8,0:0:0:0:
142,192,62032,1,2,0:0:0:0:
369,192,62203,1,8,0:0:0:0:
142,192,62375,1,2,0:0:0:0:
142,192,62718,1,2,0:0:0:0:
142,192,62889,1,2,0:0:0:0:
369,192,63061,1,8,0:0:0:0:
369,192,63146,1,8,0:0:0:0:
142,192,63232,1,2,0:0:0:0:
369,192,63403,1,8,0:0:0:0:
369,192,63489,1,8,0:0:0:0:
142,192,63575,1,2,0:0:0:0:
369,192,63746,1,8,0:0:0:0:
369,192,63832,1,8,0:0:0:0:
142,192,63918,1,2,0:0:0:0:
483,192,63918,1,0,0:0:0:70:LR_Drum Finish.wav
369,192,64261,1,8,0:0:0:0:
142,192,64603,1,2,0:0:0:0:
142,192,64775,1,2,0:0:0:0:
369,192,64946,1,8,0:0:0:0:
142,192,65118,1,2,0:0:0:0:
142,192,65461,1,2,0:0:0:0:
369,192,65632,1,8,0:0:0:0:
142,192,66146,1,2,0:0:0:0:
369,192,66318,1,8,0:0:0:0:
142,192,66661,1,2,0:0:0:0:
369,192,67003,1,8,0:0:0:0:
142,192,67346,1,2,0:0:0:0:
142,192,67518,1,2,0:0:0:0:
369,192,67689,1,8,0:0:0:0:
142,192,67861,1,2,0:0:0:0:
142,192,68203,1,2,0:0:0:0:
369,192,68375,1,8,0:0:0:0:
142,192,68889,1,2,0:0:0:0:
369,192,69061,1,8,0:0:0:0:
369,192,69232,1,8,0:0:0:0:
369,192,69318,1,8,0:0:0:0:
142,192,69403,1,2,0:0:0:0:
28,192,69403,1,0,0:0:0:70:Splash.wav
369,192,69746,1,8,0:0:0:0:
142,192,70261,1,2,0:0:0:0:
369,192,70432,1,8,0:0:0:0:
142,192,70603,1,2,0:0:0:0:
142,192,70775,1,2,0:0:0:0:
369,192,71118,1,8,0:0:0:0:
142,192,71632,1,2,0:0:0:0:
369,192,71803,1,8,0:0:0:0:
142,192,71975,1,2,0:0:0:0:
142,192,72146,1,2,0:0:0:0:
369,192,72146,1,8,0:0:0:0:
28,192,72146,1,0,0:0:0:70:LR_Drum Finish.wav
142,192,72318,1,2,0:0:0:0:
142,192,72489,1,2,0:0:0:0:
142,192,72661,1,2,0:0:0:0:
369,192,72661,1,8,0:0:0:0:
28,192,72661,1,0,0:0:0:70:Splash.wav
142,192,72832,1,2,0:0:0:0:
142,192,73003,1,2,0:0:0:0:
142,192,73175,1,2,0:0:0:0:
369,192,73175,1,8,0:0:0:0:
28,192,73175,1,0,0:0:0:70:Splash.wav
142,192,73346,1,2,0:0:0:0:
142,192,73518,1,2,0:0:0:0:
28,192,73689,1,0,0:0:0:70:Splash.wav
142,192,73689,1,2,0:0:0:0:
369,192,73689,1,8,0:0:0:0:
142,192,73861,1,2,0:0:0:0:
142,192,74032,1,2,0:0:0:0:
142,192,74203,1,2,0:0:0:0:
369,192,74203,1,8,0:0:0:0:
28,192,74203,1,0,0:0:0:70:Splash.wav
369,192,74461,1,8,0:0:0:0:
142,192,74546,1,2,0:0:0:0:
142,192,74718,1,2,0:0:0:0:
28,192,74718,1,0,0:0:0:70:LR_Drum Finish.wav
369,192,75403,1,8,0:0:0:0:
256,192,75489,1,0,0:0:0:30:LR_Drum EDge.wav
369,192,75575,1,8,0:0:0:0:
142,192,75746,1,2,0:0:0:0:
142,192,75832,1,2,0:0:0:0:
369,192,75918,1,8,0:0:0:0:
142,192,76261,1,2,0:0:0:0:
28,192,76261,1,0,0:0:0:70:LR_Drum Finish.wav
369,192,76603,1,8,0:0:0:0:
142,192,76946,1,2,0:0:0:0:
142,192,77118,1,2,0:0:0:0:
369,192,77289,1,8,0:0:0:0:
142,192,77461,1,2,0:0:0:0:
142,192,77803,1,2,0:0:0:0:
369,192,77975,1,8,0:0:0:0:
142,192,78318,1,2,0:0:0:0:
142,192,78489,1,2,0:0:0:0:
369,192,78661,1,8,0:0:0:0:
142,192,79003,1,2,0:0:0:0:
142,192,79261,1,2,0:0:0:0:
369,192,79346,1,8,0:0:0:0:
28,192,79346,1,0,0:0:0:70:LR_Drum Finish.wav
142,192,79689,1,2,0:0:0:0:
142,192,79861,1,2,0:0:0:0:
369,192,80032,1,8,0:0:0:0:
142,192,80203,1,2,0:0:0:0:
369,192,80289,1,8,0:0:0:0:
142,192,80546,1,2,0:0:0:0:
369,192,80718,1,8,0:0:0:0:
369,192,80889,1,8,0:0:0:0:
369,192,80975,1,8,0:0:0:0:
142,192,81061,1,2,0:0:0:0:
142,192,81232,1,2,0:0:0:0:
369,192,81403,1,8,0:0:0:0:
142,192,81746,1,2,0:0:0:0:
369,192,82089,1,8,0:0:0:0:
369,192,82261,1,8,0:0:0:0:
369,192,82346,1,8,0:0:0:0:
142,192,82432,1,2,0:0:0:0:
142,192,82603,1,2,0:0:0:0:
369,192,82775,1,8,0:0:0:0:
142,192,82946,1,2,0:0:0:0:
369,192,83032,1,8,0:0:0:0:
142,192,83289,1,2,0:0:0:0:
369,192,83461,1,8,0:0:0:0:
369,192,83632,1,8,0:0:0:0:
369,192,83718,1,8,0:0:0:0:
142,192,83803,1,2,0:0:0:0:
142,192,83975,1,2,0:0:0:0:
369,192,84146,1,8,0:0:0:0:
369,192,84318,1,8,0:0:0:0:
369,192,84489,1,8,0:0:0:0:
142,192,84661,1,2,0:0:0:0:
369,192,84832,1,8,0:0:0:0:
369,192,85175,1,8,0:0:0:0:
142,192,85346,1,2,0:0:0:0:
369,192,85518,1,8,0:0:0:0:
142,192,85689,1,2,0:0:0:0:
142,192,86032,1,2,0:0:0:0:
369,192,86203,1,8,0:0:0:0:
28,192,86203,1,0,0:0:0:70:LR_Drum Finish.wav
142,192,86546,1,2,0:0:0:0:
369,192,86889,1,8,0:0:0:0:
369,192,87232,1,8,0:0:0:0:
142,192,87318,1,2,0:0:0:0:
142,192,87403,1,2,0:0:0:0:
28,192,87575,1,0,0:0:0:70:LR_Drum Finish.wav
142,192,87575,1,2,0:0:0:0:
