osu file format v14

[General]
AudioFilename: audio.mp3
AudioLeadIn: 0
PreviewTime: 52861
Countdown: 0
SampleSet: None
StackLeniency: 0.7
Mode: 3
LetterboxInBreaks: 0
SpecialStyle: 0
WidescreenStoryboard: 0

[Editor]
DistanceSpacing: 0.8
BeatDivisor: 1
GridSize: 16
TimelineZoom: 1.3

[Metadata]
Title:Gotoubun no Kimochi (TV Size)
TitleUnicode:五等分の気持ち (TV Size)
Artist:Nakanoke no Itsutsugo
ArtistUnicode:中野家の五つ子
Creator:MISTERNOPAL
Version:Marry me!
Source:五等分の花嫁
Tags:dudehacker go toubun go-toubun hanayome nakano-ke nakano ichika nino miku yotsuba itsuki anime japanese famoss
BeatmapID:1942665
BeatmapSetID:930229

[Difficulty]
HPDrainRate:8
CircleSize:4
OverallDifficulty:8
ApproachRate:5
SliderMultiplier:1.4
SliderTickRate:1

[Events]
//Background and Video events
0,0,"R-13 background.jpg",0,0
//Break Periods
//Storyboard Layer 0 (Background)
//Storyboard Layer 1 (Fail)
//Storyboard Layer 2 (Pass)
//Storyboard Layer 3 (Foreground)
//Storyboard Sound Samples
Sample,2889,0,"A6S_s.wav",70
Sample,3575,0,"G#6S_Ab6S_s.wav",70
Sample,4261,0,"G#6S_Ab6S_s.wav",70
Sample,4946,0,"G#6S_Ab6S_s.wav",70
Sample,4946,0,"B5S_s.wav",70
Sample,5632,0,"G#6S_Ab6S_s.wav",70
Sample,5632,0,"B5S_s.wav",70
Sample,51918,0,"B4S_s.wav",70
Sample,52261,0,"D#6S_Eb6S_s.wav",70
Sample,52603,0,"E6S_s.wav",70
Sample,52603,0,"E5S_s.wav",70

[TimingPoints]
-539,342.857142857143,4,2,1,30,1,0
11802,-100,4,3,1,70,0,0
52946,-100,4,3,1,70,0,1
58432,-100,4,3,1,70,0,0
63918,-100,4,3,1,70,0,1
69403,-100,4,3,1,70,0,0
74718,-100,4,3,1,70,0,0

[HitObjects]
320,192,832,5,0,0:0:0:70:A6S_s.wav
448,192,832,1,0,0:0:0:70:E6S_s.wav
320,192,1518,1,0,0:0:0:70:E6S_s.wav
448,192,1518,1,0,0:0:0:70:A6S_s.wav
320,192,2203,1,0,0:0:0:70:E6S_s.wav
448,192,2203,1,0,0:0:0:70:A6S_s.wav
64,192,2546,1,0,0:0:0:70:E5S_s.wav
192,192,2546,1,0,0:0:0:0:
192,192,2889,1,0,0:0:0:70:E6S_s.wav
320,192,2889,1,0,0:0:0:70:B5S_s.wav
64,192,3232,1,0,0:0:0:70:E6S_s.wav
192,192,3232,1,0,0:0:0:70:E5S_s.wav
320,192,3575,1,0,0:0:0:70:E6S_s.wav
448,192,3575,1,0,0:0:0:70:B5S_s.wav
320,192,4261,1,0,0:0:0:70:E6S_s.wav
448,192,4261,1,0,0:0:0:70:B5S_s.wav
192,192,4775,1,0,0:0:0:0:
64,192,4861,1,0,0:0:0:30:LR_Drum EDge.wav
320,192,4946,1,0,0:0:0:30:LR_Drum EDge.wav
448,192,4946,1,0,0:0:0:70:E6S_s.wav
192,192,5032,1,0,0:0:0:0:
64,192,5118,1,0,0:0:0:30:LR_Drum EDge.wav
320,192,5203,1,0,0:0:0:30:LR_Drum EDge.wav
192,192,5289,1,0,0:0:0:40:LR_Drum EDge.wav
448,192,5289,1,0,0:0:0:70:E5S.wav
64,192,5375,1,0,0:0:0:40:LR_Drum EDge.wav
192,192,5461,1,0,0:0:0:40:LR_Drum EDge.wav
320,192,5546,1,0,0:0:0:40:LR_Drum EDge.wav
64,192,5632,1,0,0:0:0:70:LR_Drum EDge.wav
448,192,5632,1,0,0:0:0:70:E6S_s.wav
320,192,5718,1,0,0:0:0:70:LR_Drum EDge.wav
192,192,5803,1,0,0:0:0:70:LR_Drum EDge.wav
64,192,5889,1,0,0:0:0:70:LR_Drum EDge.wav
192,192,5975,1,0,0:0:0:85:LR_Drum EDge.wav
320,192,6061,1,0,0:0:0:85:LR_Drum EDge.wav
448,192,6146,1,0,0:0:0:100:LR_Drum EDge.wav
64,192,6232,1,0,0:0:0:100:LR_Drum EDge.wav
192,192,6318,1,0,0:0:0:70:Splash.wav
320,192,6318,1,0,0:0:0:70:drum-hitwhistle.wav
448,192,6318,1,0,0:0:0:0:
64,192,6661,1,0,0:0:0:0:
192,192,7003,1,0,0:0:0:0:
320,192,7003,1,0,0:0:0:0:
448,192,7003,1,0,0:0:0:0:
64,192,7346,1,0,0:0:0:30:LR_Clap Fast Low.wav
192,192,7346,1,0,0:0:0:0:
64,192,7689,1,0,0:0:0:0:
192,192,7689,1,0,0:0:0:0:
320,192,7689,1,0,0:0:0:0:
320,192,8032,1,0,0:0:0:30:LR_Clap Fast Low.wav
448,192,8032,1,0,0:0:0:0:
64,192,8203,1,0,0:0:0:0:
192,192,8203,1,0,0:0:0:0:
448,192,8203,1,0,0:0:0:0:
192,192,8546,1,0,0:0:0:50:LR_Clap Fast Low.wav
320,192,8546,1,0,0:0:0:0:
192,192,8718,1,0,0:0:0:50:LR_Clap Fast Low.wav
320,192,8718,1,0,0:0:0:0:
64,192,9061,1,0,0:0:0:0:
448,192,9061,1,0,0:0:0:0:
192,192,9403,1,0,0:0:0:30:LR_Clap Fast Low.wav
320,192,9403,1,0,0:0:0:0:
64,192,9746,1,0,0:0:0:0:
320,192,9746,1,0,0:0:0:0:
448,192,9746,1,0,0:0:0:0:
64,192,10089,1,0,0:0:0:30:LR_Clap Fast Low.wav
192,192,10089,1,0,0:0:0:0:
448,192,10261,1,0,0:0:0:30:LR_Drum EDge.wav
320,192,10346,1,0,0:0:0:30:LR_Drum EDge.wav
192,192,10432,1,0,0:0:0:30:LR_Drum EDge.wav
448,192,10432,1,0,0:0:0:0:
320,192,10518,1,0,0:0:0:30:LR_Drum EDge.wav
192,192,10603,1,0,0:0:0:30:LR_Drum EDge.wav
64,192,10689,1,0,0:0:0:30:LR_Drum EDge.wav
192,192,10775,1,0,0:0:0:30:LR_Clap Fast Low.wav
448,192,10775,1,0,0:0:0:40:LR_Drum EDge.wav
320,192,10861,1,0,0:0:0:40:LR_Drum EDge.wav
448,192,10946,1,0,0:0:0:40:LR_Drum EDge.wav
320,192,11032,1,0,0:0:0:40:LR_Drum EDge.wav
192,192,11118,1,0,0:0:0:70:LR_Drum EDge.wav
64,192,11203,1,0,0:0:0:70:LR_Drum EDge.wav
192,192,11289,1,0,0:0:0:30:LR_Clap Fast Low.wav
320,192,11289,1,0,0:0:0:70:LR_Drum EDge.wav
448,192,11375,1,0,0:0:0:70:LR_Drum EDge.wav
64,192,11461,1,0,0:0:0:30:LR_Clap Fast Low.wav
192,192,11461,1,0,0:0:0:85:LR_Drum EDge.wav
320,192,11546,1,0,0:0:0:85:LR_Drum EDge.wav
448,192,11632,1,0,0:0:0:100:LR_Drum EDge.wav
192,192,11718,1,0,0:0:0:100:LR_Drum EDge.wav
64,192,11803,1,2,0:0:0:0:
320,192,11803,1,0,0:0:0:70:LR_Drum Finish.wav
448,192,11803,1,0,0:0:0:0:
192,192,12146,1,2,0:0:0:0:
320,192,12146,1,0,0:0:0:70:LR_Clap Fast Low.wav
64,192,12489,1,2,0:0:0:0:
192,192,12489,1,0,0:0:0:0:
448,192,12489,1,0,0:0:0:0:
192,192,12832,1,2,0:0:0:0:
320,192,12832,1,0,0:0:0:70:LR_Clap Fast Low.wav
64,192,13175,1,2,0:0:0:0:
320,192,13175,1,0,0:0:0:0:
448,192,13175,1,0,0:0:0:0:
192,192,13518,1,2,0:0:0:0:
320,192,13518,1,0,0:0:0:70:LR_Clap Fast Low.wav
64,192,13689,1,0,0:0:0:0:
192,192,13689,1,0,0:0:0:0:
448,192,13689,1,0,0:0:0:0:
320,192,13861,1,2,0:0:0:0:
64,192,14032,1,0,0:0:0:70:LR_Clap Fast Low.wav
448,192,14032,1,0,0:0:0:0:
64,192,14203,1,2,0:0:0:0:
448,192,14203,1,0,0:0:0:70:LR_Clap Fast Low.wav
64,192,14546,1,2,0:0:0:0:
192,192,14546,1,0,0:0:0:0:
320,192,14546,1,0,0:0:0:0:
192,192,14889,1,2,0:0:0:0:
320,192,14889,1,0,0:0:0:70:LR_Clap Fast Low.wav
448,192,14889,1,0,0:0:0:0:
64,192,15232,1,2,0:0:0:0:
320,192,15232,1,0,0:0:0:0:
448,192,15232,1,0,0:0:0:0:
64,192,15575,1,2,0:0:0:0:
192,192,15575,1,0,0:0:0:70:LR_Clap Fast Low.wav
448,192,15575,1,0,0:0:0:0:
64,192,15918,1,2,0:0:0:0:
192,192,15918,1,0,0:0:0:0:
320,192,15918,1,0,0:0:0:0:
320,192,16261,1,2,0:0:0:0:
448,192,16261,1,0,0:0:0:70:LR_Clap Fast Low.wav
64,192,16603,1,2,0:0:0:0:
192,192,16603,1,0,0:0:0:0:
192,192,16775,1,0,0:0:0:70:LR_Clap Fast Low.wav
320,192,16775,1,0,0:0:0:0:
448,192,16946,1,2,0:0:0:0:
320,192,16946,1,0,0:0:0:70:LR_Clap Fast Low.wav
64,192,17289,1,2,0:0:0:0:
192,192,17289,1,0,0:0:0:70:LR_Drum Finish.wav
448,192,17289,1,0,0:0:0:0:
320,192,17461,1,0,0:0:0:0:
64,192,17632,1,8,0:0:0:0:
448,192,17632,1,0,0:0:0:0:
320,192,17803,1,0,0:0:0:0:
192,192,17975,1,2,0:0:0:0:
448,192,17975,1,0,0:0:0:0:
320,192,18146,1,0,0:0:0:0:
64,192,18318,1,8,0:0:0:0:
448,192,18318,1,0,0:0:0:0:
192,192,18489,1,2,0:0:0:0:
320,192,18489,1,0,0:0:0:0:
192,192,18832,1,2,0:0:0:0:
320,192,18832,1,0,0:0:0:0:
64,192,19003,1,8,0:0:0:0:
448,192,19003,1,0,0:0:0:0:
448,192,19175,1,0,0:0:0:0:
192,192,19346,1,2,0:0:0:0:
320,192,19346,1,0,0:0:0:0:
64,192,19518,1,0,0:0:0:0:
192,192,19689,1,8,0:0:0:0:
320,192,19689,1,0,0:0:0:0:
448,192,19861,1,0,0:0:0:0:
192,192,19946,1,0,0:0:0:0:
64,192,20032,1,2,0:0:0:0:
320,192,20032,1,0,0:0:0:0:
192,192,20203,1,0,0:0:0:0:
64,192,20375,1,8,0:0:0:0:
448,192,20375,1,0,0:0:0:0:
192,192,20546,1,0,0:0:0:0:
64,192,20718,1,2,0:0:0:0:
320,192,20718,1,0,0:0:0:0:
192,192,20889,1,0,0:0:0:0:
64,192,21061,1,8,0:0:0:0:
448,192,21061,1,0,0:0:0:0:
320,192,21232,1,2,0:0:0:0:
192,192,21232,1,0,0:0:0:0:
192,192,21575,1,2,0:0:0:0:
320,192,21575,1,0,0:0:0:0:
64,192,21746,1,8,0:0:0:0:
448,192,21746,1,0,0:0:0:0:
64,192,21918,1,0,0:0:0:0:
192,192,22089,1,2,0:0:0:0:
320,192,22089,1,0,0:0:0:0:
448,192,22261,1,0,0:0:0:0:
192,192,22432,1,8,0:0:0:0:
320,192,22432,1,0,0:0:0:0:
64,192,22603,1,0,0:0:0:0:
192,192,22689,1,0,0:0:0:0:
320,192,22775,1,2,0:0:0:0:
448,192,22775,1,0,0:0:0:0:
192,192,22946,1,0,0:0:0:0:
320,192,23118,1,8,0:0:0:0:
64,192,23118,1,0,0:0:0:0:
448,192,23289,1,0,0:0:0:0:
64,192,23461,1,2,0:0:0:0:
192,192,23461,1,0,0:0:0:0:
320,192,23632,1,0,0:0:0:0:
192,192,23803,1,8,0:0:0:0:
448,192,23803,1,0,0:0:0:0:
64,192,23975,1,2,0:0:0:0:
320,192,23975,1,0,0:0:0:0:
320,192,24318,1,0,0:0:0:0:
64,192,24318,1,2,0:0:0:0:
448,192,24489,1,8,0:0:0:0:
192,192,24489,1,0,0:0:0:0:
320,192,24661,1,0,0:0:0:0:
64,192,24832,1,2,0:0:0:0:
192,192,24832,1,0,0:0:0:0:
448,192,25003,1,0,0:0:0:0:
192,192,25175,1,8,0:0:0:0:
320,192,25175,1,0,0:0:0:0:
448,192,25346,1,0,0:0:0:0:
320,192,25432,1,0,0:0:0:0:
64,192,25518,1,2,0:0:0:0:
192,192,25518,1,0,0:0:0:0:
64,192,25689,1,2,0:0:0:0:
192,192,25689,1,0,0:0:0:0:
192,192,25861,1,2,0:0:0:0:
320,192,25861,1,0,0:0:0:70:Splash.wav
448,192,26032,1,0,0:0:0:0:
192,192,26203,1,2,0:0:0:0:
320,192,26203,1,0,0:0:0:0:
64,192,26375,1,8,0:0:0:0:
192,192,26375,1,0,0:0:0:0:
192,192,26546,1,8,0:0:0:0:
320,192,26546,1,0,0:0:0:0:
320,192,26718,1,2,0:0:0:0:
448,192,26718,1,0,0:0:0:70:Splash.wav
320,192,27061,1,2,0:0:0:0:
448,192,27146,1,2,0:0:0:0:
64,192,27232,1,0,0:0:0:0:
192,192,27232,1,8,0:0:0:0:
320,192,27232,1,0,0:0:0:70:LR_Drum Finish.wav
192,192,27575,1,2,0:0:0:0:
64,192,27918,1,8,0:0:0:0:
192,192,27918,1,0,0:0:0:0:
320,192,28089,1,8,0:0:0:0:
192,192,28175,1,0,0:0:0:0:
64,192,28261,1,2,0:0:0:0:
320,192,28261,1,0,0:0:0:70:LR_Drum Finish.wav
448,192,28261,1,0,0:0:0:0:
192,192,28432,1,0,0:0:0:0:
192,192,28603,1,8,0:0:0:0:
448,192,28603,1,0,0:0:0:0:
320,192,28775,1,0,0:0:0:0:
64,192,28946,1,0,0:0:0:0:
192,192,28946,1,0,0:0:0:0:
64,192,29118,1,2,0:0:0:0:
192,192,29289,1,8,0:0:0:0:
320,192,29289,1,0,0:0:0:0:
448,192,29461,1,2,0:0:0:0:
320,192,29461,1,0,0:0:0:0:
448,192,29632,1,0,0:0:0:0:
192,192,29803,1,2,0:0:0:0:
64,192,29975,1,8,0:0:0:0:
448,192,29975,1,0,0:0:0:0:
320,192,30146,1,0,0:0:0:0:
192,192,30318,1,0,0:0:0:0:
448,192,30318,1,0,0:0:0:0:
64,192,30489,1,2,0:0:0:0:
192,192,30661,1,8,0:0:0:0:
320,192,30661,1,0,0:0:0:0:
448,192,30832,1,0,0:0:0:0:
64,192,31003,1,2,0:0:0:0:
192,192,31003,1,0,0:0:0:0:
320,192,31175,1,0,0:0:0:0:
192,192,31346,1,8,0:0:0:0:
320,192,31346,1,0,0:0:0:0:
448,192,31518,1,0,0:0:0:0:
64,192,31689,1,0,0:0:0:0:
192,192,31689,1,0,0:0:0:0:
192,192,31861,1,2,0:0:0:0:
320,192,31861,1,0,0:0:0:0:
448,192,32032,1,8,0:0:0:0:
320,192,32032,1,0,0:0:0:0:
64,192,32203,1,2,0:0:0:0:
448,192,32203,1,0,0:0:0:0:
192,192,32375,1,0,0:0:0:0:
64,192,32546,1,2,0:0:0:0:
448,192,32546,1,0,0:0:0:0:
64,192,32718,1,8,0:0:0:0:
320,192,32718,1,0,0:0:0:0:
192,192,32889,1,0,0:0:0:0:
448,192,32889,1,0,0:0:0:0:
448,192,33061,1,0,0:0:0:0:
192,192,33232,1,2,0:0:0:0:
320,192,33232,1,0,0:0:0:0:
64,192,33403,1,8,0:0:0:0:
320,192,33403,1,0,0:0:0:0:
448,192,33575,1,0,0:0:0:0:
192,192,33746,1,2,0:0:0:0:
320,192,33746,1,0,0:0:0:0:
192,192,33918,1,0,0:0:0:0:
64,192,34089,1,8,0:0:0:0:
448,192,34089,1,0,0:0:0:0:
192,192,34261,1,0,0:0:0:0:
320,192,34432,1,0,0:0:0:0:
448,192,34432,1,0,0:0:0:0:
192,192,34603,1,2,0:0:0:0:
64,192,34775,1,8,0:0:0:0:
448,192,34775,1,0,0:0:0:0:
64,192,34946,1,2,0:0:0:0:
320,192,34946,1,0,0:0:0:0:
448,192,34946,1,0,0:0:0:0:
320,192,35118,1,0,0:0:0:0:
64,192,35289,1,2,0:0:0:0:
192,192,35289,1,0,0:0:0:0:
192,192,35461,1,8,0:0:0:0:
448,192,35461,1,0,0:0:0:0:
64,192,35632,1,0,0:0:0:0:
320,192,35632,1,0,0:0:0:0:
448,192,35803,1,0,0:0:0:0:
192,192,35975,1,2,0:0:0:0:
320,192,35975,1,0,0:0:0:0:
320,192,36146,1,8,0:0:0:0:
448,192,36146,1,0,0:0:0:0:
64,192,36318,1,0,0:0:0:0:
192,192,36489,1,2,0:0:0:0:
320,192,36489,1,0,0:0:0:0:
448,192,36661,1,0,0:0:0:0:
64,192,36832,1,8,0:0:0:0:
192,192,36832,1,0,0:0:0:0:
320,192,36832,1,0,0:0:0:0:
64,192,37175,1,0,0:0:0:0:
320,192,37175,1,0,0:0:0:0:
192,192,37346,1,2,0:0:0:0:
448,192,37346,1,0,0:0:0:0:
320,192,37518,1,8,0:0:0:0:
448,192,37518,1,0,0:0:0:0:
192,192,37689,1,2,0:0:0:0:
320,192,37689,1,0,0:0:0:0:
64,192,38032,1,2,0:0:0:0:
192,192,38032,1,0,0:0:0:0:
192,192,38203,1,8,0:0:0:0:
320,192,38203,1,0,0:0:0:0:
64,192,38375,1,0,0:0:0:0:
448,192,38546,1,0,0:0:0:0:
64,192,38718,1,2,0:0:0:0:
192,192,38889,1,8,0:0:0:0:
320,192,38889,1,0,0:0:0:0:
64,192,39061,1,8,0:0:0:0:
448,192,39061,1,0,0:0:0:0:
320,192,39146,1,8,0:0:0:0:
64,192,39232,1,2,0:0:0:0:
192,192,39232,1,0,0:0:0:70:LR_Drum Finish.wav
448,192,39232,1,0,0:0:0:0:
320,192,39403,1,0,0:0:0:0:
64,192,39575,1,8,0:0:0:0:
192,192,39575,1,0,0:0:0:0:
448,192,39746,1,0,0:0:0:0:
192,192,39918,1,0,0:0:0:0:
320,192,39918,1,0,0:0:0:0:
64,192,40089,1,2,0:0:0:0:
320,192,40261,1,8,0:0:0:0:
448,192,40261,1,0,0:0:0:0:
448,192,40432,1,0,0:0:0:0:
192,192,40603,1,0,0:0:0:0:
320,192,40603,1,0,0:0:0:0:
192,192,40775,1,2,0:0:0:0:
64,192,40946,1,8,0:0:0:0:
448,192,40946,1,0,0:0:0:0:
64,192,41118,1,0,0:0:0:0:
320,192,41118,1,0,0:0:0:0:
192,192,41289,1,0,0:0:0:0:
320,192,41461,1,2,0:0:0:0:
448,192,41461,1,0,0:0:0:0:
320,192,41632,1,8,0:0:0:0:
192,192,41803,1,0,0:0:0:0:
64,192,41975,1,2,0:0:0:0:
448,192,41975,1,0,0:0:0:0:
320,192,42146,1,0,0:0:0:0:
64,192,42318,1,8,0:0:0:0:
448,192,42318,1,0,0:0:0:0:
192,192,42489,1,0,0:0:0:0:
192,192,42661,1,0,0:0:0:0:
320,192,42661,1,0,0:0:0:0:
448,192,42832,1,2,0:0:0:0:
64,192,43003,1,8,0:0:0:0:
192,192,43003,1,0,0:0:0:0:
64,192,43175,1,0,0:0:0:0:
320,192,43346,1,2,0:0:0:0:
448,192,43346,1,0,0:0:0:0:
192,192,43518,1,8,0:0:0:0:
320,192,43518,1,0,0:0:0:0:
448,192,43689,1,0,0:0:0:0:
64,192,43861,1,0,0:0:0:70:tom01.wav
192,192,43861,1,0,0:0:0:0:
320,192,44032,1,8,0:0:0:0:
448,192,44032,1,0,0:0:0:0:
64,192,44203,1,0,0:0:0:70:tom02.wav
448,192,44203,1,0,0:0:0:0:
64,192,44375,1,0,0:0:0:70:tom01.wav
320,192,44375,1,0,0:0:0:0:
192,192,44546,1,0,0:0:0:0:
320,192,44546,1,0,0:0:0:0:
64,192,44718,1,2,0:0:0:0:
192,192,44718,1,0,0:0:0:70:Splash.wav
448,192,44718,1,0,0:0:0:0:
192,192,45061,1,2,0:0:0:0:
320,192,45061,1,0,0:0:0:0:
64,192,45403,1,8,0:0:0:0:
448,192,45403,1,0,0:0:0:0:
192,192,45746,1,2,0:0:0:0:
320,192,45746,1,0,0:0:0:0:
64,192,45918,1,8,0:0:0:0:
192,192,45918,1,0,0:0:0:0:
320,192,46089,1,2,0:0:0:0:
448,192,46089,1,0,0:0:0:0:
192,192,46261,1,8,0:0:0:0:
320,192,46261,1,0,0:0:0:0:
64,192,46432,1,2,0:0:0:0:
448,192,46603,1,0,0:0:0:0:
192,192,46775,1,8,0:0:0:0:
320,192,46775,1,0,0:0:0:0:
64,192,47118,1,2,0:0:0:0:
320,192,47118,1,0,0:0:0:0:
192,192,47289,1,8,0:0:0:0:
64,192,47461,1,2,0:0:0:0:
320,192,47461,1,0,0:0:0:70:LR_Drum Finish.wav
448,192,47461,1,0,0:0:0:0:
192,192,47632,1,0,0:0:0:0:
64,192,47803,1,8,0:0:0:0:
448,192,47803,1,0,0:0:0:0:
320,192,47975,1,0,0:0:0:0:
64,192,48146,1,2,0:0:0:0:
192,192,48146,1,0,0:0:0:0:
192,192,48318,1,2,0:0:0:0:
320,192,48318,1,0,0:0:0:0:
320,192,48489,1,8,0:0:0:0:
448,192,48489,1,0,0:0:0:0:
64,192,48661,1,0,0:0:0:0:
192,192,48832,1,2,0:0:0:0:
448,192,48832,1,0,0:0:0:0:
320,192,49003,1,2,0:0:0:0:
448,192,49175,1,8,0:0:0:0:
64,192,49175,1,0,0:0:0:0:
192,192,49346,1,0,0:0:0:0:
320,192,49518,1,2,0:0:0:0:
448,192,49518,1,0,0:0:0:0:
192,192,49689,1,2,0:0:0:0:
320,192,49689,1,0,0:0:0:0:
192,192,49861,1,8,0:0:0:0:
64,192,49861,1,0,0:0:0:0:
320,192,50032,1,2,0:0:0:0:
64,192,50203,1,8,0:0:0:0:
448,192,50203,1,0,0:0:0:0:
192,192,50375,1,0,0:0:0:0:
64,192,50546,1,8,0:0:0:0:
448,192,50546,1,0,0:0:0:0:
320,192,50718,1,0,0:0:0:0:
64,192,50889,1,8,0:0:0:0:
448,192,50889,1,0,0:0:0:0:
192,192,51061,1,2,0:0:0:0:
320,192,51146,1,8,0:0:0:0:
64,192,51232,1,8,0:0:0:0:
448,192,51232,1,0,0:0:0:0:
192,192,51403,1,2,0:0:0:0:
320,192,51403,1,0,0:0:0:70:Splash.wav
320,192,51918,1,2,0:0:0:0:
448,192,51918,1,0,0:0:0:70:B5S_s.wav
192,192,52175,1,0,0:0:0:30:LR_Drum EDge.wav
64,192,52261,1,0,0:0:0:30:LR_Drum EDge.wav
320,192,52261,1,0,0:0:0:70:D#5S_Eb5S_s.wav
192,192,52346,1,0,0:0:0:30:LR_Drum EDge.wav
448,192,52346,1,0,0:0:0:0:
64,192,52432,1,0,0:0:0:30:LR_Drum EDge.wav
320,192,52432,1,0,0:0:0:0:
448,192,52518,1,0,0:0:0:30:LR_Drum EDge.wav
320,192,52603,1,0,0:0:0:30:LR_Drum EDge.wav
192,192,52646,1,0,0:0:0:0:
64,192,52689,1,0,0:0:0:30:LR_Drum EDge.wav
320,192,52732,1,0,0:0:0:0:
448,192,52775,1,0,0:0:0:30:LR_Drum EDge.wav
192,192,52818,1,0,0:0:0:0:
64,192,52861,1,0,0:0:0:30:LR_Drum EDge.wav
320,192,52903,1,0,0:0:0:0:
64,192,52946,1,2,0:0:0:0:
192,192,52946,1,0,0:0:0:70:LR_Drum Finish.wav
448,192,52946,1,0,0:0:0:0:
320,192,53118,1,0,0:0:0:0:
64,192,53289,1,8,0:0:0:0:
448,192,53289,1,0,0:0:0:0:
448,192,53461,1,0,0:0:0:0:
192,192,53632,1,2,0:0:0:0:
320,192,53632,1,0,0:0:0:0:
64,192,53803,1,2,0:0:0:0:
320,192,53975,1,8,0:0:0:0:
448,192,53975,1,0,0:0:0:0:
192,192,54146,1,2,0:0:0:0:
64,192,54318,1,0,0:0:0:0:
448,192,54318,1,0,0:0:0:0:
320,192,54489,1,2,0:0:0:0:
64,192,54661,1,8,0:0:0:0:
192,192,54661,1,0,0:0:0:0:
64,192,54832,1,0,0:0:0:0:
320,192,55003,1,0,0:0:0:0:
448,192,55003,1,0,0:0:0:0:
192,192,55175,1,2,0:0:0:0:
320,192,55175,1,0,0:0:0:0:
64,192,55346,1,8,0:0:0:0:
448,192,55346,1,0,0:0:0:0:
192,192,55518,1,0,0:0:0:0:
320,192,55603,1,0,0:0:0:0:
64,192,55689,1,2,0:0:0:0:
448,192,55689,1,0,0:0:0:0:
192,192,55861,1,0,0:0:0:0:
320,192,56032,1,8,0:0:0:0:
448,192,56032,1,0,0:0:0:0:
320,192,56203,1,0,0:0:0:0:
64,192,56375,1,2,0:0:0:0:
192,192,56375,1,0,0:0:0:0:
192,192,56546,1,2,0:0:0:0:
320,192,56546,1,0,0:0:0:0:
64,192,56718,1,8,0:0:0:0:
448,192,56718,1,0,0:0:0:0:
320,192,56889,1,2,0:0:0:0:
192,192,57061,1,0,0:0:0:0:
448,192,57061,1,0,0:0:0:0:
320,192,57232,1,2,0:0:0:0:
64,192,57403,1,8,0:0:0:0:
192,192,57403,1,0,0:0:0:0:
192,192,57575,1,0,0:0:0:0:
64,192,57746,1,0,0:0:0:0:
320,192,57746,1,0,0:0:0:0:
448,192,57918,1,2,0:0:0:0:
192,192,58089,1,8,0:0:0:0:
320,192,58089,1,0,0:0:0:0:
64,192,58261,1,8,0:0:0:0:
192,192,58346,1,8,0:0:0:0:
320,192,58432,1,2,0:0:0:0:
448,192,58432,1,0,0:0:0:70:Splash.wav
192,192,58603,1,0,0:0:0:0:
64,192,58775,1,8,0:0:0:0:
320,192,58775,1,0,0:0:0:0:
448,192,58946,1,0,0:0:0:0:
192,192,59118,1,0,0:0:0:0:
320,192,59118,1,0,0:0:0:0:
64,192,59289,1,2,0:0:0:0:
320,192,59461,1,8,0:0:0:0:
448,192,59461,1,0,0:0:0:0:
192,192,59632,1,2,0:0:0:0:
64,192,59803,1,2,0:0:0:0:
320,192,59803,1,0,0:0:0:0:
64,192,59975,1,0,0:0:0:0:
192,192,60146,1,8,0:0:0:0:
448,192,60146,1,0,0:0:0:0:
448,192,60318,1,0,0:0:0:0:
320,192,60489,1,0,0:0:0:0:
64,192,60661,1,2,0:0:0:0:
192,192,60661,1,0,0:0:0:0:
320,192,60832,1,8,0:0:0:0:
448,192,60832,1,0,0:0:0:0:
192,192,61003,1,2,0:0:0:0:
64,192,61175,1,2,0:0:0:0:
448,192,61175,1,0,0:0:0:0:
320,192,61346,1,0,0:0:0:0:
64,192,61518,1,8,0:0:0:0:
192,192,61518,1,0,0:0:0:0:
448,192,61518,1,0,0:0:0:0:
320,192,61689,1,0,0:0:0:0:
64,192,61861,1,8,0:0:0:0:
192,192,61861,1,0,0:0:0:0:
64,192,62032,1,2,0:0:0:0:
192,192,62032,1,0,0:0:0:0:
320,192,62203,1,8,0:0:0:0:
448,192,62203,1,0,0:0:0:0:
192,192,62375,1,2,0:0:0:0:
320,192,62375,1,0,0:0:0:0:
64,192,62718,1,2,0:0:0:0:
192,192,62718,1,0,0:0:0:0:
192,192,62889,1,2,0:0:0:0:
320,192,62889,1,0,0:0:0:0:
448,192,63061,1,8,0:0:0:0:
320,192,63146,1,8,0:0:0:0:
192,192,63232,1,2,0:0:0:0:
192,192,63403,1,8,0:0:0:0:
320,192,63489,1,8,0:0:0:0:
448,192,63575,1,2,0:0:0:0:
192,192,63661,1,0,0:0:0:0:
64,192,63746,1,8,0:0:0:0:
192,192,63832,1,8,0:0:0:0:
64,192,63918,1,2,0:0:0:0:
320,192,63918,1,0,0:0:0:70:LR_Drum Finish.wav
448,192,63918,1,0,0:0:0:0:
192,192,64089,1,0,0:0:0:0:
64,192,64261,1,8,0:0:0:0:
320,192,64261,1,0,0:0:0:0:
320,192,64432,1,0,0:0:0:0:
192,192,64603,1,2,0:0:0:0:
448,192,64603,1,0,0:0:0:0:
320,192,64775,1,2,0:0:0:0:
64,192,64946,1,8,0:0:0:0:
192,192,64946,1,0,0:0:0:0:
320,192,65118,1,2,0:0:0:0:
64,192,65289,1,0,0:0:0:0:
448,192,65289,1,0,0:0:0:0:
320,192,65461,1,2,0:0:0:0:
192,192,65632,1,8,0:0:0:0:
448,192,65632,1,0,0:0:0:0:
192,192,65803,1,0,0:0:0:0:
320,192,65975,1,0,0:0:0:0:
448,192,65975,1,0,0:0:0:0:
192,192,66146,1,2,0:0:0:0:
320,192,66146,1,0,0:0:0:0:
64,192,66318,1,8,0:0:0:0:
448,192,66318,1,0,0:0:0:0:
320,192,66489,1,0,0:0:0:0:
192,192,66575,1,0,0:0:0:0:
64,192,66661,1,2,0:0:0:0:
448,192,66661,1,0,0:0:0:0:
192,192,66832,1,0,0:0:0:0:
320,192,67003,1,8,0:0:0:0:
448,192,67003,1,0,0:0:0:0:
448,192,67175,1,0,0:0:0:0:
64,192,67346,1,2,0:0:0:0:
192,192,67346,1,0,0:0:0:0:
192,192,67518,1,2,0:0:0:0:
320,192,67518,1,0,0:0:0:0:
64,192,67689,1,8,0:0:0:0:
448,192,67689,1,0,0:0:0:0:
192,192,67861,1,2,0:0:0:0:
64,192,68032,1,0,0:0:0:0:
320,192,68032,1,0,0:0:0:0:
192,192,68203,1,2,0:0:0:0:
64,192,68375,1,8,0:0:0:0:
448,192,68375,1,0,0:0:0:0:
64,192,68546,1,0,0:0:0:0:
192,192,68718,1,0,0:0:0:0:
320,192,68718,1,0,0:0:0:0:
448,192,68889,1,2,0:0:0:0:
64,192,69061,1,8,0:0:0:0:
320,192,69061,1,0,0:0:0:0:
192,192,69232,1,8,0:0:0:0:
320,192,69318,1,8,0:0:0:0:
64,192,69403,1,2,0:0:0:0:
448,192,69403,1,0,0:0:0:70:Splash.wav
320,192,69575,1,0,0:0:0:0:
64,192,69746,1,8,0:0:0:0:
192,192,69746,1,0,0:0:0:0:
320,192,69918,1,0,0:0:0:0:
192,192,70089,1,0,0:0:0:0:
448,192,70089,1,0,0:0:0:0:
64,192,70261,1,2,0:0:0:0:
192,192,70432,1,8,0:0:0:0:
320,192,70432,1,0,0:0:0:0:
448,192,70603,1,2,0:0:0:0:
64,192,70775,1,2,0:0:0:0:
320,192,70775,1,0,0:0:0:0:
320,192,70946,1,0,0:0:0:0:
192,192,71118,1,8,0:0:0:0:
448,192,71118,1,0,0:0:0:0:
64,192,71289,1,0,0:0:0:0:
320,192,71289,1,0,0:0:0:0:
192,192,71632,1,2,0:0:0:0:
320,192,71632,1,0,0:0:0:0:
64,192,71803,1,8,0:0:0:0:
448,192,71803,1,0,0:0:0:0:
320,192,71975,1,2,0:0:0:0:
64,192,72146,1,10,0:0:0:0:
192,192,72146,1,0,0:0:0:70:LR_Drum Finish.wav
64,192,72318,1,2,0:0:0:0:
192,192,72489,1,2,0:0:0:0:
320,192,72489,1,0,0:0:0:0:
320,192,72661,1,10,0:0:0:0:
448,192,72661,1,0,0:0:0:70:Splash.wav
448,192,72832,1,2,0:0:0:0:
192,192,73003,1,2,0:0:0:0:
320,192,73003,1,0,0:0:0:0:
64,192,73175,1,10,0:0:0:0:
192,192,73175,1,0,0:0:0:70:Splash.wav
64,192,73346,1,2,0:0:0:0:
192,192,73518,1,2,0:0:0:0:
320,192,73518,1,0,0:0:0:0:
320,192,73689,1,10,0:0:0:0:
448,192,73689,1,0,0:0:0:70:Splash.wav
448,192,73861,1,2,0:0:0:0:
192,192,74032,1,2,0:0:0:0:
320,192,74032,1,0,0:0:0:0:
64,192,74203,1,10,0:0:0:0:
192,192,74203,1,0,0:0:0:70:Splash.wav
64,192,74375,1,0,0:0:0:0:
192,192,74461,1,8,0:0:0:0:
320,192,74546,1,2,0:0:0:0:
448,192,74546,1,0,0:0:0:0:
192,192,74718,1,2,0:0:0:0:
320,192,74718,1,0,0:0:0:70:LR_Drum Finish.wav
64,192,75403,1,8,0:0:0:0:
448,192,75403,1,0,0:0:0:0:
192,192,75489,1,0,0:0:0:30:LR_Drum EDge.wav
64,192,75575,1,8,0:0:0:0:
448,192,75575,1,0,0:0:0:0:
320,192,75746,1,2,0:0:0:0:
192,192,75832,1,2,0:0:0:0:
64,192,75918,1,8,0:0:0:0:
448,192,75918,1,0,0:0:0:0:
64,192,76261,1,2,0:0:0:0:
320,192,76261,1,0,0:0:0:70:LR_Drum Finish.wav
448,192,76261,1,0,0:0:0:0:
192,192,76432,1,0,0:0:0:0:
64,192,76603,1,8,0:0:0:0:
320,192,76603,1,0,0:0:0:0:
192,192,76775,1,0,0:0:0:0:
64,192,76946,1,2,0:0:0:0:
448,192,76946,1,0,0:0:0:0:
192,192,77118,1,2,0:0:0:0:
64,192,77289,1,8,0:0:0:0:
320,192,77289,1,0,0:0:0:0:
448,192,77461,1,2,0:0:0:0:
192,192,77632,1,0,0:0:0:0:
320,192,77632,1,0,0:0:0:0:
64,192,77803,1,2,0:0:0:0:
320,192,77803,1,0,0:0:0:0:
192,192,77975,1,8,0:0:0:0:
448,192,77975,1,0,0:0:0:0:
64,192,78146,1,0,0:0:0:0:
320,192,78146,1,0,0:0:0:0:
192,192,78318,1,2,0:0:0:0:
320,192,78489,1,2,0:0:0:0:
448,192,78489,1,0,0:0:0:0:
192,192,78661,1,8,0:0:0:0:
320,192,78661,1,0,0:0:0:0:
64,192,78832,1,0,0:0:0:0:
192,192,79003,1,2,0:0:0:0:
448,192,79003,1,0,0:0:0:0:
320,192,79175,1,0,0:0:0:0:
64,192,79346,1,8,0:0:0:0:
192,192,79346,1,0,0:0:0:70:LR_Drum Finish.wav
448,192,79346,1,0,0:0:0:0:
320,192,79518,1,0,0:0:0:0:
64,192,79689,1,2,0:0:0:0:
448,192,79689,1,0,0:0:0:0:
320,192,79861,1,2,0:0:0:0:
192,192,80032,1,8,0:0:0:0:
448,192,80032,1,0,0:0:0:0:
64,192,80203,1,2,0:0:0:0:
192,192,80375,1,0,0:0:0:0:
320,192,80375,1,0,0:0:0:0:
192,192,80546,1,2,0:0:0:0:
448,192,80546,1,0,0:0:0:0:
64,192,80718,1,8,0:0:0:0:
320,192,80718,1,0,0:0:0:0:
192,192,80889,1,8,0:0:0:0:
448,192,80889,1,0,0:0:0:0:
320,192,81061,1,2,0:0:0:0:
64,192,81232,1,2,0:0:0:0:
192,192,81232,1,0,0:0:0:0:
192,192,81403,1,8,0:0:0:0:
320,192,81403,1,0,0:0:0:0:
448,192,81575,1,0,0:0:0:0:
192,192,81746,1,2,0:0:0:0:
320,192,81746,1,0,0:0:0:0:
64,192,81918,1,0,0:0:0:0:
320,192,82089,1,8,0:0:0:0:
448,192,82089,1,0,0:0:0:0:
192,192,82261,1,8,0:0:0:0:
320,192,82346,1,8,0:0:0:0:
64,192,82432,1,2,0:0:0:0:
448,192,82432,1,0,0:0:0:0:
192,192,82603,1,2,0:0:0:0:
320,192,82603,1,0,0:0:0:0:
64,192,82775,1,8,0:0:0:0:
448,192,82775,1,0,0:0:0:0:
320,192,82946,1,2,0:0:0:0:
192,192,83032,1,8,0:0:0:0:
64,192,83118,1,0,0:0:0:0:
448,192,83118,1,0,0:0:0:0:
320,192,83289,1,2,0:0:0:0:
192,192,83461,1,8,0:0:0:0:
448,192,83461,1,0,0:0:0:0:
64,192,83632,1,8,0:0:0:0:
192,192,83803,1,2,0:0:0:0:
320,192,83803,1,0,0:0:0:0:
448,192,83975,1,2,0:0:0:0:
192,192,84146,1,8,0:0:0:0:
320,192,84146,1,0,0:0:0:0:
64,192,84318,1,8,0:0:0:0:
320,192,84489,1,8,0:0:0:0:
448,192,84489,1,0,0:0:0:0:
448,192,84661,1,2,0:0:0:0:
64,192,84832,1,8,0:0:0:0:
320,192,84832,1,0,0:0:0:0:
320,192,85003,1,0,0:0:0:0:
192,192,85175,1,8,0:0:0:0:
448,192,85175,1,0,0:0:0:0:
192,192,85346,1,2,0:0:0:0:
448,192,85518,1,8,0:0:0:0:
64,192,85518,1,0,0:0:0:0:
192,192,85689,1,2,0:0:0:0:
320,192,85689,1,0,0:0:0:0:
192,192,86032,1,2,0:0:0:0:
320,192,86032,1,0,0:0:0:0:
64,192,86203,1,8,0:0:0:0:
320,192,86203,1,0,0:0:0:70:LR_Drum Finish.wav
448,192,86203,1,0,0:0:0:0:
192,192,86546,1,2,0:0:0:0:
320,192,86546,1,0,0:0:0:0:
448,192,86889,1,8,0:0:0:0:
64,192,87232,1,8,0:0:0:0:
320,192,87232,1,0,0:0:0:0:
448,192,87318,1,2,0:0:0:0:
192,192,87403,1,2,0:0:0:0:
320,192,87403,1,0,0:0:0:0:
64,192,87575,1,2,0:0:0:0:
192,192,87575,1,0,0:0:0:70:LR_Drum Finish.wav
448,192,87575,1,0,0:0:0:0:
