osu file format v14

[General]
AudioFilename: audio.mp3
AudioLeadIn: 0
PreviewTime: 52945
Countdown: 0
SampleSet: Soft
StackLeniency: 0.7
Mode: 3
LetterboxInBreaks: 0
SpecialStyle: 0
WidescreenStoryboard: 1

[Editor]
Bookmarks: 6317,10345,11802,17288,28260,39231,52945,55688,63917,72145,76260
DistanceSpacing: 0.5
BeatDivisor: 4
GridSize: 32
TimelineZoom: 1.8

[Metadata]
Title:Gotoubun no Kimochi (TV Size)
TitleUnicode:五等分の気持ち (TV Size)
Artist:Nakanoke no Itsutsugo
ArtistUnicode:中野家の五つ子
Creator:keksikosu
Version:Nabi's Hard
Source:五等分の花嫁
Tags:5toubun no hanayome 5hanayome 5-toubun go-toubun 中野一花 中野二乃 中野三玖 中野四葉 中野五月 Nakano Miku Nakano Yotsuba Nakano Nino Nakano Itsuki Nakano Ichika 水瀬いのり Inori Minase Inori 佐倉綾音 Sakura Ayane ayaneru 伊藤美来 Itou Miku Ito Miku 竹達彩奈 Taketatsu Ayana 花澤香菜 Hanazawa Kana hanakana The Five Wedded Brides The Quintessential Quintuplets 2nd opening op anime japanese pop jpop j-pop PCCG-01751 ML-ysg 123ysg Drum-Hitnormal dudehacker Nabi- female vocal
BeatmapID:3548206
BeatmapSetID:1736091

[Difficulty]
HPDrainRate:7.5
CircleSize:4
OverallDifficulty:7.5
ApproachRate:5
SliderMultiplier:1.4
SliderTickRate:1

[Events]
//Background and Video events
0,0,"BG.jpg",0,0
Video,-100,"videokeksik.mp4"
//Break Periods
//Storyboard Layer 0 (Background)
//Storyboard Layer 1 (Fail)
//Storyboard Layer 2 (Pass)
//Storyboard Layer 3 (Foreground)
//Storyboard Layer 4 (Overlay)
//Storyboard Sound Samples
Sample,10774,0,"Clap.wav",40
Sample,11288,0,"Clap.wav",40
Sample,11460,0,"Clap.wav",40
Sample,19345,0,"Hat Open2.wav",50
Sample,22088,0,"Hat Open2.wav",50
Sample,23460,0,"Hat Open2.wav",50
Sample,24831,0,"Hat Open2.wav",50
Sample,32717,0,"Hat Open2.wav",50
Sample,43860,0,"Tom2.wav",40
Sample,44374,0,"Tom3.wav",40
Sample,48317,0,"Hat Open.wav",60
Sample,49002,0,"Hat Open.wav",60
Sample,49688,0,"Hat Open.wav",60
Sample,53631,0,"Hat Open.wav",60
Sample,56374,0,"Hat Open.wav",60
Sample,59288,0,"Hat Close.wav",70
Sample,59631,0,"Hat Close.wav",70
Sample,61002,0,"Hat Close.wav",70
Sample,64602,0,"Hat Open.wav",60
Sample,67345,0,"Hat Open.wav",60
Sample,70260,0,"Hat Close.wav",70
Sample,70602,0,"Hat Close.wav",70
Sample,78317,0,"Hat Open2.wav",50
Sample,81060,0,"Hat Open2.wav",50
Sample,82431,0,"Hat Open2.wav",50
Sample,83802,0,"Hat Open2.wav",50

[TimingPoints]
-540,342.857142857143,4,2,1,50,1,0
52945,-100,4,2,1,50,0,1
72145,-100,4,2,1,50,0,0

[HitObjects]
64,192,831,5,0,0:0:0:0:
448,192,831,1,0,0:0:0:0:
64,192,1517,1,0,0:0:0:0:
448,192,1517,1,0,0:0:0:0:
64,192,2202,1,0,0:0:0:0:
448,192,2202,1,0,0:0:0:0:
192,192,2545,1,0,0:0:0:0:
64,192,2888,1,0,0:0:0:0:
448,192,2888,1,0,0:0:0:0:
320,192,3231,1,0,0:0:0:0:
192,192,3574,1,0,0:0:0:0:
448,192,3574,1,0,0:0:0:0:
192,192,4260,1,0,0:0:0:0:
448,192,4260,1,0,0:0:0:0:
320,192,4602,1,0,0:0:0:20:soft-hitclap.wav
320,192,4860,1,0,0:0:0:10:soft-hitclap.wav
64,192,4945,1,0,0:0:0:20:soft-hitclap.wav
448,192,5117,1,0,0:0:0:20:soft-hitclap.wav
192,192,5202,1,0,0:0:0:10:soft-hitclap.wav
320,192,5288,1,0,0:0:0:20:soft-hitclap.wav
64,192,5460,1,0,0:0:0:25:soft-hitclap.wav
320,192,5545,1,0,0:0:0:15:soft-hitclap.wav
448,192,5631,1,0,0:0:0:25:soft-hitclap.wav
64,192,5717,1,0,0:0:0:15:soft-hitclap.wav
192,192,5802,1,0,0:0:0:30:soft-hitclap.wav
320,192,5888,1,0,0:0:0:15:soft-hitclap.wav
64,192,5974,1,0,0:0:0:40:soft-hitclap.wav
448,192,6060,1,0,0:0:0:40:soft-hitclap.wav
320,192,6145,1,0,0:0:0:40:soft-hitclap.wav
192,192,6231,1,0,0:0:0:40:soft-hitclap.wav
64,192,6317,128,4,6660:0:0:0:0:
448,192,6317,1,2,0:0:0:0:
320,192,6660,1,0,0:0:0:40:Clap.wav
448,192,6660,128,0,6745:0:0:0:0:
448,192,6831,128,0,7174:0:0:0:0:
64,192,7002,1,0,0:0:0:0:
192,192,7174,128,0,7517:0:0:0:0:
64,192,7345,1,0,0:0:0:40:Clap.wav
448,192,7345,1,0,0:0:0:0:
320,192,7517,128,0,7688:0:0:0:0:
64,192,7688,128,0,8031:0:0:0:0:
320,192,8031,128,0,8117:0:0:0:40:Clap.wav
448,192,8031,1,0,0:0:0:0:
320,192,8202,128,0,8545:0:0:0:0:
192,192,8374,1,0,0:0:0:0:
64,192,8545,128,0,8888:0:0:0:40:Clap.wav
448,192,8545,1,0,0:0:0:0:
320,192,8717,1,0,0:0:0:40:Clap.wav
448,192,8717,1,0,0:0:0:0:
192,192,8888,128,0,9060:0:0:0:0:
448,192,9060,128,0,9402:0:0:0:0:
64,192,9402,128,0,9488:0:0:0:40:Clap.wav
192,192,9402,1,0,0:0:0:0:
64,192,9574,128,0,9917:0:0:0:0:
448,192,9745,1,0,0:0:0:0:
320,192,9917,128,0,10260:0:0:0:0:
64,192,10088,1,0,0:0:0:40:Clap.wav
448,192,10088,1,0,0:0:0:0:
192,192,10260,128,0,10431:0:0:0:10:soft-hitclap.wav
320,192,10345,1,0,0:0:0:10:soft-hitclap.wav
448,192,10431,1,0,0:0:0:15:soft-hitclap.wav
64,192,10602,1,0,0:0:0:15:soft-hitclap.wav
192,192,10688,1,0,0:0:0:15:soft-hitclap.wav
320,192,10774,1,0,0:0:0:15:soft-hitclap.wav
448,192,10860,1,0,0:0:0:15:soft-hitclap.wav
192,192,10945,1,0,0:0:0:15:soft-hitclap.wav
64,192,11031,1,0,0:0:0:10:soft-hitclap.wav
320,192,11117,1,0,0:0:0:20:soft-hitclap.wav
448,192,11202,1,0,0:0:0:10:soft-hitclap.wav
64,192,11288,1,0,0:0:0:20:soft-hitclap.wav
192,192,11374,1,0,0:0:0:10:soft-hitclap.wav
448,192,11460,1,0,0:0:0:30:soft-hitclap.wav
320,192,11545,1,0,0:0:0:30:soft-hitclap.wav
192,192,11631,1,0,0:0:0:30:soft-hitclap.wav
64,192,11717,1,0,0:0:0:30:soft-hitclap.wav
320,192,11802,128,4,12145:0:0:0:0:
448,192,11802,1,2,0:0:0:0:
64,192,12145,1,2,0:0:0:0:
192,192,12145,1,0,0:0:0:40:Clap.wav
448,192,12317,128,0,12660:0:0:0:0:
192,192,12488,1,2,0:0:0:0:
320,192,12660,128,0,13002:0:0:0:0:
64,192,12831,1,2,0:0:0:0:
448,192,12831,1,0,0:0:0:40:Clap.wav
192,192,13002,128,0,13860:0:0:0:0:
448,192,13174,1,2,0:0:0:0:
64,192,13345,1,0,0:0:0:0:
320,192,13517,1,2,0:0:0:0:
448,192,13517,1,0,0:0:0:40:Clap.wav
64,192,13688,1,0,0:0:0:0:
320,192,13860,1,2,0:0:0:0:
448,192,13860,1,0,0:0:0:0:
64,192,14031,1,0,0:0:0:40:Clap.wav
192,192,14031,1,0,0:0:0:0:
64,192,14202,1,2,0:0:0:0:
192,192,14202,1,0,0:0:0:40:Clap.wav
320,192,14374,1,0,0:0:0:0:
64,192,14545,1,2,0:0:0:0:
448,192,14545,128,0,14888:0:0:0:0:
64,192,14888,1,2,0:0:0:0:
320,192,14888,128,0,15231:0:0:0:40:Clap.wav
192,192,15231,128,2,15574:0:0:0:0:
448,192,15231,1,0,0:0:0:0:
64,192,15574,128,2,15917:0:0:0:0:
448,192,15574,1,0,0:0:0:40:Clap.wav
192,192,15917,1,2,0:0:0:0:
320,192,15917,128,0,16260:0:0:0:0:
64,192,16260,1,2,0:0:0:0:
448,192,16260,1,0,0:0:0:40:Clap.wav
64,192,16602,1,2,0:0:0:0:
192,192,16602,128,0,16945:0:0:0:0:
320,192,16774,1,0,0:0:0:40:Clap.wav
448,192,16774,1,0,0:0:0:0:
64,192,16945,1,2,0:0:0:0:
448,192,16945,1,0,0:0:0:40:Clap.wav
320,192,17117,1,0,0:0:0:0:
64,192,17288,128,2,17460:0:0:0:0:
192,192,17288,1,4,0:0:0:0:
448,192,17288,1,0,0:0:0:0:
320,192,17460,128,0,17631:0:0:0:0:
64,192,17631,1,8,0:0:0:0:
192,192,17631,128,0,17802:0:0:0:70:Hat Close.wav
448,192,17802,128,0,17974:0:0:0:0:
64,192,17974,128,2,18145:0:0:0:0:
320,192,17974,1,0,0:0:0:50:Hat Open2.wav
192,192,18145,128,0,18317:0:0:0:0:
320,192,18317,1,8,0:0:0:0:
448,192,18317,128,0,18488:0:0:0:70:Hat Close.wav
64,192,18488,128,2,18660:0:0:0:0:
192,192,18488,1,0,0:0:0:50:Hat Open2.wav
320,192,18660,128,0,18831:0:0:0:0:
192,192,18831,128,2,19002:0:0:0:0:
448,192,18831,1,0,0:0:0:0:
64,192,19002,1,8,0:0:0:0:
320,192,19002,1,0,0:0:0:70:Hat Close.wav
448,192,19174,128,0,19860:0:0:0:0:
64,192,19345,1,2,0:0:0:0:
192,192,19517,1,0,0:0:0:0:
64,192,19688,1,8,0:0:0:0:
192,192,19688,1,0,0:0:0:70:Hat Close.wav
320,192,19860,1,0,0:0:0:0:
192,192,19945,1,8,0:0:0:20:soft-hitclap.wav
64,192,20031,128,2,20202:0:0:0:0:
448,192,20031,1,0,0:0:0:50:Hat Open2.wav
320,192,20202,128,0,20374:0:0:0:0:
64,192,20374,1,8,0:0:0:0:
192,192,20374,128,0,20545:0:0:0:70:Hat Close.wav
448,192,20545,128,0,20717:0:0:0:0:
64,192,20717,128,2,20888:0:0:0:0:
320,192,20717,1,0,0:0:0:50:Hat Open2.wav
192,192,20888,128,0,21060:0:0:0:0:
320,192,21060,1,8,0:0:0:0:
448,192,21060,128,0,21231:0:0:0:70:Hat Close.wav
64,192,21231,128,2,21402:0:0:0:0:
192,192,21231,1,0,0:0:0:50:Hat Open2.wav
320,192,21402,128,0,21574:0:0:0:0:
192,192,21574,128,2,21745:0:0:0:0:
448,192,21574,1,0,0:0:0:0:
64,192,21745,1,8,0:0:0:0:
320,192,21745,1,0,0:0:0:70:Hat Close.wav
448,192,21917,128,0,22602:0:0:0:0:
64,192,22088,1,2,0:0:0:0:
192,192,22260,1,0,0:0:0:0:
64,192,22431,1,8,0:0:0:0:
192,192,22431,1,0,0:0:0:70:Hat Close.wav
320,192,22602,1,0,0:0:0:0:
192,192,22688,1,8,0:0:0:20:soft-hitclap.wav
64,192,22774,128,2,23288:0:0:0:0:
448,192,22774,1,0,0:0:0:50:Hat Open2.wav
192,192,23117,1,8,0:0:0:0:
448,192,23117,1,0,0:0:0:70:Hat Close.wav
320,192,23288,128,0,23802:0:0:0:0:
64,192,23460,1,2,0:0:0:0:
448,192,23631,1,0,0:0:0:0:
64,192,23802,1,8,0:0:0:0:
192,192,23802,1,0,0:0:0:70:Hat Close.wav
64,192,23974,128,2,24488:0:0:0:0:
320,192,23974,1,0,0:0:0:50:Hat Open2.wav
192,192,24145,1,0,0:0:0:0:
448,192,24317,1,2,0:0:0:0:
192,192,24488,1,8,0:0:0:0:
320,192,24488,1,0,0:0:0:70:Hat Close.wav
448,192,24660,128,0,25345:0:0:0:0:
64,192,24831,1,2,0:0:0:0:
320,192,25002,1,0,0:0:0:0:
64,192,25174,1,8,0:0:0:0:
192,192,25174,1,0,0:0:0:70:Hat Close.wav
320,192,25345,1,0,0:0:0:0:
192,192,25431,1,8,0:0:0:20:soft-hitclap.wav
64,192,25517,1,2,0:0:0:0:
448,192,25517,1,0,0:0:0:0:
64,192,25688,1,2,0:0:0:0:
320,192,25688,1,0,0:0:0:0:
192,192,25860,1,2,0:0:0:0:
320,192,25860,1,8,0:0:0:0:
448,192,25860,1,4,0:0:0:0:
192,192,26031,1,0,0:0:0:0:
320,192,26202,1,2,0:0:0:0:
448,192,26202,1,8,0:0:0:0:
320,192,26374,1,8,0:0:0:0:
192,192,26460,1,8,0:0:0:0:
64,192,26545,1,8,0:0:0:0:
448,192,26545,1,0,0:0:0:0:
64,192,26717,1,4,0:0:0:0:
320,192,26717,1,2,0:0:0:0:
448,192,26717,1,0,0:0:0:0:
192,192,27060,1,2,0:0:0:0:
320,192,27145,1,2,0:0:0:0:
64,192,27231,128,2,28088:0:0:0:0:
448,192,27231,128,8,27574:0:0:0:0:
192,192,27574,1,2,0:0:0:0:
320,192,27745,1,8,0:0:0:20:soft-hitclap.wav
192,192,27917,1,8,0:0:0:0:
448,192,27917,1,0,0:0:0:0:
448,192,28088,1,8,0:0:0:0:
320,192,28174,1,8,0:0:0:0:
64,192,28260,1,4,0:0:0:0:
192,192,28260,1,2,0:0:0:0:
448,192,28431,1,0,0:0:0:70:Hat Close.wav
64,192,28602,1,8,0:0:0:0:
320,192,28602,1,0,0:0:0:50:Hat Open2.wav
192,192,28774,1,0,0:0:0:0:
448,192,28945,1,0,0:0:0:70:Hat Close.wav
64,192,29117,1,2,0:0:0:0:
192,192,29117,1,0,0:0:0:70:Hat Close.wav
320,192,29288,1,8,0:0:0:0:
448,192,29288,1,0,0:0:0:70:Hat Close.wav
64,192,29460,1,2,0:0:0:0:
192,192,29460,1,0,0:0:0:50:Hat Open2.wav
320,192,29631,1,0,0:0:0:0:
64,192,29802,1,2,0:0:0:0:
448,192,29802,1,0,0:0:0:70:Hat Close.wav
192,192,29974,1,8,0:0:0:0:
320,192,29974,1,0,0:0:0:50:Hat Open2.wav
64,192,30145,1,0,0:0:0:70:Hat Close.wav
448,192,30317,1,0,0:0:0:70:Hat Close.wav
192,192,30488,1,2,0:0:0:0:
320,192,30488,1,0,0:0:0:70:Hat Close.wav
64,192,30660,128,8,31002:0:0:0:0:
448,192,30660,1,0,0:0:0:50:Hat Open2.wav
320,192,31002,1,2,0:0:0:0:
448,192,31002,1,0,0:0:0:70:Hat Close.wav
192,192,31174,1,0,0:0:0:70:Hat Close.wav
64,192,31345,1,8,0:0:0:0:
448,192,31345,1,0,0:0:0:50:Hat Open2.wav
320,192,31517,1,0,0:0:0:0:
192,192,31688,1,0,0:0:0:70:Hat Close.wav
320,192,31860,1,2,0:0:0:0:
448,192,31860,1,0,0:0:0:70:Hat Close.wav
64,192,32031,1,8,0:0:0:0:
192,192,32031,1,0,0:0:0:70:Hat Close.wav
320,192,32202,1,2,0:0:0:0:
448,192,32202,128,0,32374:0:0:0:50:Hat Open2.wav
64,192,32374,1,0,0:0:0:0:
192,192,32545,1,2,0:0:0:0:
320,192,32545,128,0,32717:0:0:0:70:Hat Close.wav
448,192,32717,1,8,0:0:0:0:
192,192,32888,128,0,33060:0:0:0:70:Hat Close.wav
320,192,33060,1,0,0:0:0:70:Hat Close.wav
64,192,33231,128,2,33402:0:0:0:0:
448,192,33231,1,0,0:0:0:70:Hat Close.wav
192,192,33402,1,8,0:0:0:0:
320,192,33402,1,0,0:0:0:50:Hat Open2.wav
448,192,33574,128,0,33745:0:0:0:0:
64,192,33745,1,2,0:0:0:0:
192,192,33745,1,0,0:0:0:70:Hat Close.wav
320,192,33917,1,0,0:0:0:70:Hat Close.wav
64,192,34088,1,8,0:0:0:0:
448,192,34088,1,0,0:0:0:50:Hat Open2.wav
192,192,34260,1,0,0:0:0:0:
320,192,34431,1,0,0:0:0:70:Hat Close.wav
64,192,34602,1,2,0:0:0:0:
192,192,34602,1,0,0:0:0:70:Hat Close.wav
320,192,34774,1,8,0:0:0:0:
448,192,34774,1,0,0:0:0:70:Hat Close.wav
64,192,34945,128,2,35117:0:0:0:0:
192,192,34945,1,0,0:0:0:50:Hat Open2.wav
448,192,35117,1,0,0:0:0:0:
192,192,35288,128,2,35460:0:0:0:0:
320,192,35288,1,0,0:0:0:70:Hat Close.wav
64,192,35460,1,8,0:0:0:0:
448,192,35460,1,0,0:0:0:50:Hat Open2.wav
320,192,35631,128,0,35974:0:0:0:70:Hat Close.wav
192,192,35802,1,0,0:0:0:70:Hat Close.wav
64,192,35974,128,2,36145:0:0:0:0:
448,192,35974,1,0,0:0:0:70:Hat Close.wav
192,192,36145,128,8,36317:0:0:0:0:
320,192,36145,1,0,0:0:0:50:Hat Open2.wav
448,192,36317,128,0,36488:0:0:0:0:
64,192,36488,128,2,36831:0:0:0:0:
192,192,36488,1,0,0:0:0:70:Hat Close.wav
320,192,36660,1,0,0:0:0:70:Hat Close.wav
192,192,36831,1,8,0:0:0:0:
448,192,36831,1,0,0:0:0:50:Hat Open2.wav
64,192,37002,1,0,0:0:0:0:
320,192,37174,1,0,0:0:0:70:Hat Close.wav
64,192,37345,1,2,0:0:0:0:
192,192,37345,1,0,0:0:0:70:Hat Close.wav
320,192,37517,1,8,0:0:0:0:
448,192,37517,1,0,0:0:0:70:Hat Close.wav
64,192,37688,1,2,0:0:0:0:
192,192,37688,128,0,38031:0:0:0:50:Hat Open2.wav
320,192,37860,1,0,0:0:0:0:
64,192,38031,1,2,0:0:0:0:
448,192,38031,128,0,38202:0:0:0:70:Hat Close.wav
192,192,38202,1,8,0:0:0:0:
320,192,38202,128,0,38374:0:0:0:50:Hat Open2.wav
64,192,38374,128,0,38717:0:0:0:70:Hat Close.wav
448,192,38545,1,0,0:0:0:70:Hat Close.wav
192,192,38717,1,2,0:0:0:0:
320,192,38717,1,0,0:0:0:70:Hat Close.wav
64,192,38888,1,8,0:0:0:0:
448,192,38888,1,0,0:0:0:50:Hat Open2.wav
448,192,39060,1,8,0:0:0:0:
320,192,39145,1,8,0:0:0:0:
64,192,39231,128,4,39574:0:0:0:0:
192,192,39231,1,2,0:0:0:0:
320,192,39574,1,8,0:0:0:0:
448,192,39574,1,0,0:0:0:70:Hat Close.wav
192,192,39745,1,0,0:0:0:70:Hat Close.wav
448,192,39917,1,0,0:0:0:70:Hat Close.wav
64,192,40088,1,2,0:0:0:0:
192,192,40088,1,0,0:0:0:70:Hat Close.wav
320,192,40260,1,8,0:0:0:0:
448,192,40260,1,0,0:0:0:70:Hat Close.wav
64,192,40431,1,0,0:0:0:70:Hat Close.wav
192,192,40602,1,0,0:0:0:70:Hat Close.wav
320,192,40774,1,2,0:0:0:0:
448,192,40774,1,0,0:0:0:70:Hat Close.wav
64,192,40945,1,8,0:0:0:0:
192,192,40945,1,0,0:0:0:70:Hat Close.wav
448,192,41117,1,0,0:0:0:70:Hat Close.wav
320,192,41288,1,0,0:0:0:70:Hat Close.wav
64,192,41460,1,2,0:0:0:0:
192,192,41460,1,0,0:0:0:70:Hat Close.wav
320,192,41631,128,8,41974:0:0:0:0:
448,192,41631,1,0,0:0:0:70:Hat Close.wav
64,192,41974,128,2,42317:0:0:0:0:
192,192,41974,1,0,0:0:0:70:Hat Close.wav
448,192,42145,1,0,0:0:0:70:Hat Close.wav
192,192,42317,1,8,0:0:0:0:
320,192,42317,1,0,0:0:0:70:Hat Close.wav
64,192,42488,1,0,0:0:0:70:Hat Close.wav
320,192,42660,1,0,0:0:0:70:Hat Close.wav
192,192,42831,1,2,0:0:0:0:
448,192,42831,1,0,0:0:0:70:Hat Close.wav
64,192,43002,1,8,0:0:0:0:
320,192,43002,1,0,0:0:0:70:Hat Close.wav
192,192,43174,1,0,0:0:0:70:Hat Close.wav
64,192,43345,128,2,43688:0:0:0:0:
448,192,43345,1,0,0:0:0:70:Hat Close.wav
192,192,43517,1,8,0:0:0:0:
320,192,43517,1,0,0:0:0:70:Hat Close.wav
448,192,43688,128,0,43860:0:0:0:70:Hat Close.wav
192,192,43860,128,0,44202:0:0:0:70:Hat Close.wav
64,192,44031,1,8,0:0:0:0:
320,192,44031,1,0,0:0:0:70:Hat Close.wav
64,192,44202,1,8,0:0:0:0:
320,192,44202,128,0,44545:0:0:0:70:Hat Close.wav
448,192,44374,1,0,0:0:0:70:Hat Close.wav
192,192,44545,1,0,0:0:0:70:Hat Close.wav
64,192,44717,128,2,45402:0:0:0:0:
320,192,44717,1,4,0:0:0:0:
448,192,44717,1,0,0:0:0:0:
320,192,45060,1,2,0:0:0:0:
448,192,45060,1,0,0:0:0:0:
192,192,45402,1,8,0:0:0:0:
320,192,45402,1,0,0:0:0:0:
192,192,45745,128,2,46088:0:0:0:0:
448,192,45745,1,0,0:0:0:0:
64,192,45917,1,8,0:0:0:0:
320,192,46088,1,2,0:0:0:0:
448,192,46088,128,0,46431:0:0:0:0:
192,192,46260,1,8,0:0:0:0:
64,192,46431,128,2,46774:0:0:0:0:
320,192,46431,1,0,0:0:0:0:
192,192,46774,1,8,0:0:0:0:
320,192,46774,128,0,47117:0:0:0:0:
64,192,47117,1,2,0:0:0:0:
192,192,47117,128,0,47460:0:0:0:0:
320,192,47288,1,8,0:0:0:0:
64,192,47460,1,4,0:0:0:0:
448,192,47460,128,2,47802:0:0:0:0:
64,192,47802,1,8,0:0:0:0:
192,192,47802,1,0,0:0:0:60:Hat Open.wav
320,192,47974,128,0,48060:0:0:0:60:Hat Open.wav
64,192,48145,1,2,0:0:0:0:
320,192,48145,128,0,48488:0:0:0:60:Hat Open.wav
192,192,48317,1,2,0:0:0:0:
64,192,48488,1,8,0:0:0:0:
448,192,48488,1,0,0:0:0:60:Hat Open.wav
320,192,48660,1,0,0:0:0:0:
64,192,48831,128,2,49174:0:0:0:0:
448,192,48831,1,4,0:0:0:0:
192,192,49002,1,2,0:0:0:0:
320,192,49174,1,8,0:0:0:0:
448,192,49174,1,0,0:0:0:60:Hat Open.wav
192,192,49345,128,0,49431:0:0:0:60:Hat Open.wav
192,192,49517,128,2,49860:0:0:0:0:
448,192,49517,1,0,0:0:0:60:Hat Open.wav
320,192,49688,1,2,0:0:0:0:
64,192,49860,1,8,0:0:0:0:
448,192,49860,1,0,0:0:0:60:Hat Open.wav
192,192,50031,1,2,0:0:0:0:
64,192,50202,1,8,0:0:0:0:
448,192,50202,1,4,0:0:0:0:
192,192,50288,1,0,0:0:0:0:
320,192,50374,1,0,0:0:0:60:Hat Open.wav
448,192,50460,1,0,0:0:0:30:Hat Open.wav
64,192,50545,1,12,0:0:0:0:
192,192,50631,1,0,0:0:0:0:
320,192,50717,1,0,0:0:0:60:Hat Open.wav
448,192,50802,1,0,0:0:0:30:Hat Open.wav
64,192,50888,1,12,0:0:0:0:
192,192,50974,1,0,0:0:0:0:
320,192,51060,1,2,0:0:0:0:
448,192,51145,1,8,0:0:0:0:
64,192,51231,1,8,0:0:0:0:
192,192,51231,1,0,0:0:0:0:
64,192,51402,128,2,51574:0:0:0:0:
320,192,51402,1,4,0:0:0:0:
448,192,51402,128,0,51574:0:0:0:0:
64,192,51917,1,0,0:0:0:0:
192,192,51917,128,0,52260:0:0:0:0:
320,192,52260,1,8,0:0:0:0:
448,192,52260,1,0,0:0:0:0:
64,192,52345,1,8,0:0:0:30:soft-hitclap.wav
192,192,52431,1,8,0:0:0:0:
320,192,52517,1,8,0:0:0:30:soft-hitclap.wav
64,192,52602,1,8,0:0:0:0:
192,192,52602,1,0,0:0:0:0:
448,192,52688,1,8,0:0:0:0:
320,192,52774,1,8,0:0:0:0:
192,192,52860,1,8,0:0:0:0:
64,192,52945,128,4,53288:0:0:0:0:
320,192,52945,1,2,0:0:0:0:
448,192,52945,1,0,0:0:0:0:
320,192,53288,1,8,0:0:0:0:
448,192,53288,128,0,53374:0:0:0:60:Hat Open.wav
448,192,53460,128,0,53802:0:0:0:0:
192,192,53631,128,2,53802:0:0:0:0:
64,192,53802,1,2,0:0:0:0:
320,192,53802,128,0,53974:0:0:0:0:
192,192,53974,1,8,0:0:0:0:
448,192,53974,1,0,0:0:0:60:Hat Open.wav
320,192,54145,1,2,0:0:0:0:
448,192,54145,128,0,54317:0:0:0:0:
64,192,54317,128,0,54660:0:0:0:60:Hat Open.wav
192,192,54488,128,2,54660:0:0:0:0:
320,192,54660,128,8,54745:0:0:0:0:
448,192,54660,1,0,0:0:0:60:Hat Open.wav
320,192,54831,128,0,55174:0:0:0:0:
448,192,55002,128,0,55174:0:0:0:60:Hat Open.wav
64,192,55174,128,2,55345:0:0:0:0:
192,192,55174,1,0,0:0:0:0:
320,192,55345,1,8,0:0:0:0:
448,192,55345,1,0,0:0:0:60:Hat Open.wav
192,192,55517,128,0,55688:0:0:0:0:
320,192,55602,1,8,0:0:0:30:soft-hitclap.wav
64,192,55688,1,2,0:0:0:0:
448,192,55688,128,0,56031:0:0:0:60:Hat Open.wav
64,192,56031,128,8,56117:0:0:0:0:
192,192,56031,1,0,0:0:0:60:Hat Open.wav
64,192,56202,128,0,56545:0:0:0:0:
448,192,56374,1,2,0:0:0:0:
192,192,56545,1,2,0:0:0:0:
320,192,56545,128,0,56717:0:0:0:0:
64,192,56717,1,8,0:0:0:0:
448,192,56717,1,0,0:0:0:60:Hat Open.wav
64,192,56888,128,2,57060:0:0:0:0:
192,192,56888,1,0,0:0:0:0:
448,192,57060,128,0,57402:0:0:0:60:Hat Open.wav
320,192,57231,128,2,57402:0:0:0:0:
64,192,57402,1,8,0:0:0:0:
192,192,57402,128,0,57488:0:0:0:60:Hat Open.wav
192,192,57574,128,0,57917:0:0:0:0:
64,192,57745,1,0,0:0:0:60:Hat Open.wav
320,192,57917,1,2,0:0:0:0:
448,192,57917,128,0,58088:0:0:0:0:
64,192,58088,1,8,0:0:0:0:
192,192,58088,1,0,0:0:0:60:Hat Open.wav
320,192,58260,128,0,58431:0:0:0:0:
192,192,58345,1,8,0:0:0:30:soft-hitclap.wav
64,192,58431,128,2,58774:0:0:0:0:
448,192,58431,1,4,0:0:0:0:
320,192,58774,1,8,0:0:0:0:
448,192,58774,128,0,59117:0:0:0:70:Hat Close.wav
64,192,58945,1,0,0:0:0:70:Hat Close.wav
192,192,59117,128,0,59460:0:0:0:70:Hat Close.wav
448,192,59288,1,2,0:0:0:0:
64,192,59460,1,8,0:0:0:0:
320,192,59460,128,0,59802:0:0:0:70:Hat Close.wav
192,192,59631,1,2,0:0:0:0:
64,192,59802,128,2,59888:0:0:0:0:
448,192,59802,1,0,0:0:0:70:Hat Close.wav
64,192,59974,128,0,60145:0:0:0:70:Hat Close.wav
320,192,60145,128,8,60488:0:0:0:0:
448,192,60145,1,0,0:0:0:70:Hat Close.wav
192,192,60317,128,0,60488:0:0:0:70:Hat Close.wav
448,192,60488,1,0,0:0:0:70:Hat Close.wav
64,192,60660,1,2,0:0:0:0:
192,192,60660,1,0,0:0:0:70:Hat Close.wav
320,192,60831,1,8,0:0:0:0:
448,192,60831,128,0,61002:0:0:0:70:Hat Close.wav
192,192,61002,128,2,61174:0:0:0:0:
64,192,61174,1,8,0:0:0:0:
320,192,61174,128,2,61517:0:0:0:0:
192,192,61345,1,0,0:0:0:0:
64,192,61517,1,8,0:0:0:0:
448,192,61517,1,2,0:0:0:0:
320,192,61688,128,0,61860:0:0:0:0:
192,192,61860,128,8,62202:0:0:0:0:
448,192,61860,1,0,0:0:0:0:
320,192,62031,1,2,0:0:0:0:
64,192,62202,1,8,0:0:0:0:
448,192,62202,1,0,0:0:0:0:
192,192,62374,1,10,0:0:0:0:
320,192,62374,1,4,0:0:0:0:
64,192,62545,128,0,62888:0:0:0:0:
320,192,62717,1,2,0:0:0:0:
192,192,62888,1,8,0:0:0:0:
448,192,62888,1,2,0:0:0:0:
320,192,63060,1,8,0:0:0:0:
192,192,63145,1,8,0:0:0:0:
64,192,63231,1,2,0:0:0:0:
448,192,63231,1,8,0:0:0:0:
192,192,63402,1,8,0:0:0:0:
320,192,63488,1,8,0:0:0:0:
64,192,63574,1,8,0:0:0:0:
448,192,63574,1,2,0:0:0:0:
320,192,63745,1,8,0:0:0:0:
192,192,63831,1,8,0:0:0:0:
64,192,63917,1,4,0:0:0:0:
448,192,63917,128,2,64260:0:0:0:0:
320,192,64088,1,0,0:0:0:0:
64,192,64260,1,8,0:0:0:0:
192,192,64260,128,0,64345:0:0:0:60:Hat Open.wav
192,192,64431,128,0,64774:0:0:0:0:
448,192,64602,1,2,0:0:0:0:
64,192,64774,1,2,0:0:0:0:
320,192,64774,128,0,64945:0:0:0:0:
192,192,64945,1,8,0:0:0:0:
448,192,64945,1,0,0:0:0:60:Hat Open.wav
320,192,65117,1,2,0:0:0:0:
448,192,65117,128,0,65288:0:0:0:0:
64,192,65288,128,0,65631:0:0:0:60:Hat Open.wav
192,192,65460,1,2,0:0:0:0:
320,192,65631,128,8,65717:0:0:0:0:
448,192,65631,1,0,0:0:0:60:Hat Open.wav
320,192,65802,128,0,66145:0:0:0:0:
448,192,65974,1,0,0:0:0:60:Hat Open.wav
64,192,66145,1,2,0:0:0:0:
192,192,66145,128,0,66317:0:0:0:0:
320,192,66317,1,8,0:0:0:0:
448,192,66317,1,0,0:0:0:60:Hat Open.wav
64,192,66488,128,0,66660:0:0:0:0:
192,192,66574,1,8,0:0:0:30:soft-hitclap.wav
320,192,66660,1,2,0:0:0:0:
448,192,66660,128,0,67002:0:0:0:60:Hat Open.wav
64,192,67002,128,8,67088:0:0:0:0:
192,192,67002,1,0,0:0:0:60:Hat Open.wav
64,192,67174,128,0,67517:0:0:0:0:
320,192,67345,1,2,0:0:0:0:
192,192,67517,1,2,0:0:0:0:
448,192,67517,128,0,67688:0:0:0:0:
64,192,67688,1,8,0:0:0:0:
320,192,67688,1,0,0:0:0:60:Hat Open.wav
320,192,67860,128,2,68031:0:0:0:0:
448,192,67860,1,0,0:0:0:0:
64,192,68031,128,0,68374:0:0:0:60:Hat Open.wav
192,192,68202,1,2,0:0:0:0:
320,192,68374,1,8,0:0:0:0:
448,192,68374,128,0,68460:0:0:0:60:Hat Open.wav
448,192,68545,128,0,68888:0:0:0:0:
320,192,68717,1,0,0:0:0:60:Hat Open.wav
64,192,68888,128,2,69060:0:0:0:0:
192,192,68888,1,0,0:0:0:0:
320,192,69060,1,8,0:0:0:0:
448,192,69060,1,0,0:0:0:60:Hat Open.wav
192,192,69231,128,0,69402:0:0:0:0:
320,192,69317,1,8,0:0:0:30:soft-hitclap.wav
64,192,69402,1,2,0:0:0:0:
448,192,69402,1,4,0:0:0:0:
64,192,69745,128,8,70088:0:0:0:0:
192,192,69745,1,0,0:0:0:70:Hat Close.wav
448,192,69917,1,0,0:0:0:70:Hat Close.wav
192,192,70088,128,0,70431:0:0:0:70:Hat Close.wav
64,192,70260,1,2,0:0:0:0:
320,192,70431,128,8,70774:0:0:0:0:
448,192,70431,1,0,0:0:0:70:Hat Close.wav
192,192,70602,1,2,0:0:0:0:
64,192,70774,128,2,71117:0:0:0:0:
448,192,70774,1,0,0:0:0:70:Hat Close.wav
320,192,70945,1,0,0:0:0:70:Hat Close.wav
192,192,71117,1,8,0:0:0:0:
448,192,71117,1,0,0:0:0:70:Hat Close.wav
448,192,71288,128,0,71631:0:0:0:70:Hat Close.wav
320,192,71460,1,0,0:0:0:70:Hat Close.wav
64,192,71631,1,2,0:0:0:0:
192,192,71631,1,0,0:0:0:70:Hat Close.wav
320,192,71802,1,8,0:0:0:0:
448,192,71802,1,0,0:0:0:70:Hat Close.wav
64,192,71974,1,2,0:0:0:0:
192,192,71974,1,0,0:0:0:70:Hat Close.wav
64,192,72145,128,10,72488:0:0:0:0:
448,192,72145,1,4,0:0:0:0:
192,192,72317,128,0,72488:0:0:0:40:Tom1.wav
448,192,72317,1,0,0:0:0:0:
320,192,72488,1,2,0:0:0:0:
448,192,72488,1,0,0:0:0:0:
64,192,72660,1,10,0:0:0:0:
320,192,72660,128,4,73002:0:0:0:0:
64,192,72831,1,0,0:0:0:40:Tom2.wav
448,192,72831,128,0,73002:0:0:0:0:
64,192,73002,1,2,0:0:0:0:
192,192,73002,1,0,0:0:0:0:
192,192,73174,128,10,73517:0:0:0:0:
320,192,73174,1,4,0:0:0:0:
64,192,73345,128,0,73517:0:0:0:40:Tom3.wav
320,192,73345,1,0,0:0:0:0:
320,192,73517,1,2,0:0:0:0:
448,192,73517,1,0,0:0:0:0:
192,192,73688,1,12,0:0:0:0:
448,192,73688,128,2,74031:0:0:0:0:
192,192,73860,1,0,0:0:0:40:Tom2.wav
320,192,73860,128,0,74031:0:0:0:0:
64,192,74031,1,2,0:0:0:0:
192,192,74031,1,0,0:0:0:0:
64,192,74202,1,8,0:0:0:0:
448,192,74202,1,2,0:0:0:0:
448,192,74374,1,0,0:0:0:0:
320,192,74460,1,8,0:0:0:0:
64,192,74545,1,8,0:0:0:0:
192,192,74545,1,2,0:0:0:0:
64,192,74717,128,2,74888:0:0:0:0:
320,192,74717,1,4,0:0:0:0:
448,192,74717,128,0,74888:0:0:0:0:
192,192,75060,1,0,0:0:0:0:
192,192,75231,1,0,0:0:0:0:
320,192,75402,1,8,0:0:0:0:
448,192,75402,1,0,0:0:0:0:
192,192,75488,1,8,0:0:0:0:
64,192,75574,1,8,0:0:0:0:
448,192,75574,1,0,0:0:0:0:
192,192,75745,1,2,0:0:0:0:
320,192,75831,1,2,0:0:0:0:
64,192,75917,1,8,0:0:0:0:
192,192,75917,128,0,76260:0:0:0:0:
64,192,76260,1,4,0:0:0:0:
320,192,76260,1,2,0:0:0:0:
448,192,76260,128,0,76431:0:0:0:0:
192,192,76431,128,0,76602:0:0:0:0:
320,192,76602,128,8,76774:0:0:0:0:
448,192,76602,1,0,0:0:0:70:Hat Close.wav
64,192,76774,128,0,76945:0:0:0:0:
192,192,76945,1,2,0:0:0:0:
448,192,76945,128,0,77117:0:0:0:50:Hat Open2.wav
320,192,77117,128,2,77288:0:0:0:0:
64,192,77288,128,8,77460:0:0:0:0:
192,192,77288,1,0,0:0:0:0:
320,192,77460,1,2,0:0:0:0:
448,192,77460,128,0,77631:0:0:0:50:Hat Open2.wav
192,192,77631,128,0,77802:0:0:0:0:
64,192,77802,1,2,0:0:0:0:
320,192,77802,128,0,77974:0:0:0:0:
192,192,77974,1,8,0:0:0:0:
448,192,77974,1,0,0:0:0:50:Hat Open2.wav
64,192,78145,128,0,78831:0:0:0:0:
448,192,78317,1,2,0:0:0:0:
320,192,78488,1,2,0:0:0:0:
320,192,78660,1,8,0:0:0:0:
448,192,78660,1,0,0:0:0:70:Hat Close.wav
192,192,78831,1,0,0:0:0:0:
320,192,78917,1,0,0:0:0:0:
64,192,79002,1,2,0:0:0:0:
448,192,79002,128,0,79174:0:0:0:50:Hat Open2.wav
192,192,79174,128,0,79345:0:0:0:0:
320,192,79345,128,8,79517:0:0:0:0:
448,192,79345,1,4,0:0:0:0:
64,192,79517,128,0,79688:0:0:0:0:
192,192,79688,1,2,0:0:0:0:
448,192,79688,128,0,79860:0:0:0:50:Hat Open2.wav
320,192,79860,128,2,80031:0:0:0:0:
64,192,80031,128,8,80202:0:0:0:0:
192,192,80031,1,0,0:0:0:0:
320,192,80202,1,2,0:0:0:0:
448,192,80202,128,0,80374:0:0:0:50:Hat Open2.wav
192,192,80374,128,0,80545:0:0:0:0:
64,192,80545,1,2,0:0:0:0:
320,192,80545,128,0,80717:0:0:0:0:
192,192,80717,1,8,0:0:0:0:
448,192,80717,1,0,0:0:0:50:Hat Open2.wav
64,192,80888,128,0,81574:0:0:0:0:
448,192,81060,1,2,0:0:0:0:
320,192,81231,1,2,0:0:0:0:
320,192,81402,1,8,0:0:0:0:
448,192,81402,1,0,0:0:0:70:Hat Close.wav
192,192,81574,1,0,0:0:0:0:
320,192,81660,1,0,0:0:0:0:
64,192,81745,1,2,0:0:0:0:
448,192,81745,128,0,82260:0:0:0:50:Hat Open2.wav
192,192,81917,1,0,0:0:0:0:
64,192,82088,1,8,0:0:0:0:
320,192,82088,1,0,0:0:0:70:Hat Close.wav
192,192,82260,128,0,82774:0:0:0:0:
448,192,82431,1,2,0:0:0:0:
64,192,82602,1,2,0:0:0:0:
320,192,82774,1,8,0:0:0:0:
448,192,82774,1,0,0:0:0:0:
192,192,82945,1,2,0:0:0:0:
448,192,82945,128,0,83460:0:0:0:50:Hat Open2.wav
320,192,83117,1,0,0:0:0:0:
64,192,83288,1,2,0:0:0:0:
192,192,83460,1,8,0:0:0:0:
320,192,83460,1,0,0:0:0:70:Hat Close.wav
64,192,83631,128,0,84145:0:0:0:0:
448,192,83802,1,2,0:0:0:0:
192,192,83974,1,0,0:0:0:0:
320,192,84145,1,8,0:0:0:0:
448,192,84145,1,0,0:0:0:70:Hat Close.wav
64,192,84317,1,0,0:0:0:0:
192,192,84488,1,8,0:0:0:0:
448,192,84488,1,0,0:0:0:50:Hat Open2.wav
64,192,84660,1,2,0:0:0:0:
320,192,84660,1,0,0:0:0:0:
192,192,84831,1,8,0:0:0:0:
448,192,84831,128,0,85002:0:0:0:50:Hat Open2.wav
320,192,85002,128,0,85174:0:0:0:0:
64,192,85174,1,8,0:0:0:0:
192,192,85174,1,0,0:0:0:50:Hat Open2.wav
320,192,85345,1,2,0:0:0:0:
448,192,85345,128,0,85517:0:0:0:0:
64,192,85517,128,8,85688:0:0:0:0:
192,192,85517,1,0,0:0:0:0:
320,192,85688,1,2,0:0:0:0:
448,192,85688,1,0,0:0:0:50:Hat Open2.wav
64,192,86031,1,2,0:0:0:0:
192,192,86031,1,0,0:0:0:0:
64,192,86202,1,8,0:0:0:0:
320,192,86202,128,4,86374:0:0:0:0:
448,192,86202,1,0,0:0:0:0:
192,192,86374,128,0,86545:0:0:0:0:
64,192,86545,1,2,0:0:0:0:
448,192,86545,1,0,0:0:0:50:Hat Open2.wav
320,192,86717,128,0,86888:0:0:0:0:
192,192,86888,128,8,87060:0:0:0:0:
448,192,86888,1,0,0:0:0:0:
64,192,87060,1,0,0:0:0:0:
320,192,87231,1,8,0:0:0:0:
448,192,87231,1,0,0:0:0:0:
192,192,87317,1,2,0:0:0:0:
320,192,87402,1,2,0:0:0:0:
64,192,87574,1,2,0:0:0:0:
192,192,87574,128,4,88431:0:0:0:0:
448,192,87574,128,0,88260:0:0:0:0:
