osu file format v14

[General]
AudioFilename: audio.mp3
AudioLeadIn: 0
PreviewTime: 52945
Countdown: 0
SampleSet: Soft
StackLeniency: 0.7
Mode: 3
LetterboxInBreaks: 0
SpecialStyle: 0
WidescreenStoryboard: 1

[Editor]
Bookmarks: 6317,10345,11802,17288,28260,39231,52945,63917,72145,76260
DistanceSpacing: 0.5
BeatDivisor: 4
GridSize: 32
TimelineZoom: 1.2

[Metadata]
Title:Gotoubun no Kimochi (TV Size)
TitleUnicode:五等分の気持ち (TV Size)
Artist:Nakanoke no Itsutsugo
ArtistUnicode:中野家の五つ子
Creator:keksikosu
Version:DH's Normal
Source:五等分の花嫁
Tags:5toubun no hanayome 5hanayome 5-toubun go-toubun 中野一花 中野二乃 中野三玖 中野四葉 中野五月 Nakano Miku Nakano Yotsuba Nakano Nino Nakano Itsuki Nakano Ichika 水瀬いのり Inori Minase Inori 佐倉綾音 Sakura Ayane ayaneru 伊藤美来 Itou Miku Ito Miku 竹達彩奈 Taketatsu Ayana 花澤香菜 Hanazawa Kana hanakana The Five Wedded Brides The Quintessential Quintuplets 2nd opening op anime japanese pop jpop j-pop PCCG-01751 ML-ysg 123ysg Drum-Hitnormal dudehacker Nabi- female vocal
BeatmapID:3548208
BeatmapSetID:1736091

[Difficulty]
HPDrainRate:7
CircleSize:4
OverallDifficulty:7
ApproachRate:5
SliderMultiplier:1.4
SliderTickRate:1

[Events]
//Background and Video events
Video,-100,"videokeksik.mp4"
0,0,"BG2.jpg",0,0
//Break Periods
//Storyboard Layer 0 (Background)
//Storyboard Layer 1 (Fail)
//Storyboard Layer 2 (Pass)
//Storyboard Layer 3 (Foreground)
//Storyboard Layer 4 (Overlay)
//Storyboard Sound Samples
Sample,10774,0,"Clap.wav",40
Sample,11288,0,"Clap.wav",40
Sample,11460,0,"Clap.wav",40
Sample,16945,0,"Clap.wav",40
Sample,17631,0,"Hat Close.wav",70
Sample,17974,0,"Hat Open2.wav",50
Sample,18317,0,"Hat Close.wav",70
Sample,18488,0,"Hat Open2.wav",50
Sample,19688,0,"Hat Close.wav",70
Sample,20031,0,"Hat Open2.wav",50
Sample,20374,0,"Hat Close.wav",70
Sample,20717,0,"Hat Open2.wav",50
Sample,21060,0,"Hat Close.wav",70
Sample,22431,0,"Hat Close.wav",70
Sample,22774,0,"Hat Open2.wav",50
Sample,23117,0,"Hat Close.wav",70
Sample,23460,0,"Hat Open2.wav",50
Sample,23802,0,"Hat Close.wav",70
Sample,23974,0,"Hat Open2.wav",50
Sample,24488,0,"Hat Close.wav",70
Sample,24831,0,"Hat Open2.wav",50
Sample,25174,0,"Hat Close.wav",70
Sample,28602,0,"Hat Open2.wav",50
Sample,29117,0,"Hat Close.wav",70
Sample,29288,0,"Hat Close.wav",70
Sample,29460,0,"Hat Open2.wav",50
Sample,29802,0,"Hat Close.wav",70
Sample,29974,0,"Hat Open2.wav",50
Sample,30488,0,"Hat Close.wav",70
Sample,30660,0,"Hat Open2.wav",50
Sample,31002,0,"Hat Close.wav",70
Sample,31345,0,"Hat Open2.wav",50
Sample,33231,0,"Hat Close.wav",70
Sample,34774,0,"Hat Close.wav",70
Sample,35974,0,"Hat Close.wav",70
Sample,36145,0,"Hat Open2.wav",50
Sample,36831,0,"Hat Open2.wav",50
Sample,37345,0,"Hat Close.wav",70
Sample,38717,0,"Hat Close.wav",70
Sample,39574,0,"Hat Close.wav",70
Sample,40260,0,"Hat Close.wav",70
Sample,40774,0,"Hat Close.wav",70
Sample,40945,0,"Hat Close.wav",70
Sample,41460,0,"Hat Close.wav",70
Sample,42317,0,"Hat Close.wav",70
Sample,43002,0,"Hat Close.wav",70
Sample,43345,0,"Hat Close.wav",70
Sample,43860,0,"Tom2.wav",40
Sample,44202,0,"Hat Close.wav",70
Sample,48317,0,"Hat Open.wav",60
Sample,49002,0,"Hat Open.wav",60
Sample,49174,0,"Hat Open.wav",60
Sample,53288,0,"Hat Open.wav",60
Sample,54660,0,"Hat Open.wav",60
Sample,56031,0,"Hat Open.wav",60
Sample,57402,0,"Hat Open.wav",60
Sample,58774,0,"Hat Close.wav",70
Sample,59802,0,"Hat Close.wav",70
Sample,60145,0,"Hat Close.wav",70
Sample,60660,0,"Hat Close.wav",70
Sample,60831,0,"Hat Close.wav",70
Sample,61002,0,"Hat Close.wav",70
Sample,64260,0,"Hat Open.wav",60
Sample,65631,0,"Hat Open.wav",60
Sample,67002,0,"Hat Open.wav",60
Sample,68374,0,"Hat Open.wav",60
Sample,69745,0,"Hat Close.wav",70
Sample,70774,0,"Hat Close.wav",70
Sample,71117,0,"Hat Close.wav",70
Sample,71631,0,"Hat Close.wav",70
Sample,71802,0,"Hat Close.wav",70
Sample,71974,0,"Hat Close.wav",70
Sample,76602,0,"Hat Close.wav",70
Sample,76945,0,"Hat Open2.wav",50
Sample,77974,0,"Hat Open2.wav",50
Sample,78660,0,"Hat Close.wav",70
Sample,79002,0,"Hat Open2.wav",50
Sample,79688,0,"Hat Open2.wav",50
Sample,80717,0,"Hat Open2.wav",50
Sample,81402,0,"Hat Close.wav",70
Sample,81745,0,"Hat Open2.wav",50
Sample,82088,0,"Hat Close.wav",70
Sample,82431,0,"Hat Open2.wav",50
Sample,82945,0,"Hat Open2.wav",50
Sample,83460,0,"Hat Close.wav",70
Sample,83802,0,"Hat Open2.wav",50
Sample,84145,0,"Hat Close.wav",70
Sample,84488,0,"Hat Open2.wav",50
Sample,84831,0,"Hat Open2.wav",50
Sample,85174,0,"Hat Open2.wav",50
Sample,85688,0,"Hat Open2.wav",50

[TimingPoints]
-540,342.857142857143,4,2,1,50,1,0
52945,-100,4,2,1,50,0,1
72145,-100,4,2,1,50,0,0

[HitObjects]
320,192,831,128,0,1345:0:0:0:0:
320,192,1517,128,0,2031:0:0:0:0:
320,192,2202,128,0,2545:0:0:0:0:
192,192,2545,128,0,2888:0:0:0:0:
448,192,2888,128,0,3231:0:0:0:0:
192,192,3231,128,0,3574:0:0:0:0:
64,192,3574,128,0,4088:0:0:0:0:
64,192,4260,128,0,4945:0:0:0:0:
320,192,4602,1,0,0:0:0:20:soft-hitclap.wav
320,192,4945,128,0,5288:0:0:0:20:soft-hitclap.wav
448,192,4945,128,0,5288:0:0:0:0:
192,192,5288,128,0,5631:0:0:0:20:soft-hitclap.wav
320,192,5631,128,0,5974:0:0:0:25:soft-hitclap.wav
448,192,5631,128,0,5974:0:0:0:0:
192,192,5974,128,0,6317:0:0:0:40:soft-hitclap.wav
64,192,6317,1,4,0:0:0:0:
448,192,6317,128,2,6660:0:0:0:0:
320,192,6660,1,0,0:0:0:40:Clap.wav
192,192,6831,128,0,7174:0:0:0:0:
320,192,7174,128,0,7517:0:0:0:0:
448,192,7517,128,0,8031:0:0:0:0:
64,192,7688,128,0,8031:0:0:0:0:
320,192,8031,1,0,0:0:0:40:Clap.wav
192,192,8202,128,0,8545:0:0:0:0:
320,192,8545,128,0,8888:0:0:0:40:Clap.wav
448,192,8888,128,0,9402:0:0:0:0:
64,192,9060,128,0,9402:0:0:0:0:
192,192,9402,1,0,0:0:0:40:Clap.wav
320,192,9574,128,0,9917:0:0:0:0:
192,192,9917,128,0,10260:0:0:0:0:
64,192,10260,128,0,10774:0:0:0:10:soft-hitclap.wav
448,192,10431,128,0,10774:0:0:0:15:soft-hitclap.wav
320,192,10774,1,0,0:0:0:15:soft-hitclap.wav
192,192,10945,1,0,0:0:0:15:soft-hitclap.wav
64,192,11117,1,0,0:0:0:20:soft-hitclap.wav
448,192,11288,1,0,0:0:0:20:soft-hitclap.wav
320,192,11460,1,0,0:0:0:30:soft-hitclap.wav
192,192,11631,1,0,0:0:0:30:soft-hitclap.wav
64,192,11802,1,4,0:0:0:0:
320,192,11802,1,2,0:0:0:0:
64,192,12145,1,2,0:0:0:0:
448,192,12145,1,0,0:0:0:40:Clap.wav
192,192,12488,1,2,0:0:0:0:
320,192,12488,1,0,0:0:0:0:
64,192,12831,1,2,0:0:0:0:
320,192,12831,1,0,0:0:0:40:Clap.wav
192,192,13174,1,2,0:0:0:0:
448,192,13174,1,0,0:0:0:0:
320,192,13517,1,2,0:0:0:0:
448,192,13517,1,0,0:0:0:40:Clap.wav
64,192,13860,1,2,0:0:0:0:
192,192,13860,1,0,0:0:0:0:
448,192,14031,1,0,0:0:0:40:Clap.wav
64,192,14202,1,2,0:0:0:0:
448,192,14202,1,0,0:0:0:40:Clap.wav
320,192,14545,128,2,14888:0:0:0:0:
448,192,14545,1,0,0:0:0:0:
64,192,14888,1,2,0:0:0:0:
192,192,14888,128,0,15231:0:0:0:40:Clap.wav
320,192,15231,1,2,0:0:0:0:
448,192,15231,128,0,15574:0:0:0:0:
64,192,15574,128,2,15917:0:0:0:0:
192,192,15574,1,0,0:0:0:40:Clap.wav
320,192,15917,128,2,16260:0:0:0:0:
448,192,15917,1,0,0:0:0:0:
64,192,16260,1,2,0:0:0:0:
192,192,16260,1,0,0:0:0:40:Clap.wav
320,192,16602,1,2,0:0:0:0:
448,192,16602,128,0,16945:0:0:0:0:
64,192,16774,1,0,0:0:0:40:Clap.wav
64,192,16945,1,2,0:0:0:0:
320,192,17288,1,2,0:0:0:0:
448,192,17288,1,4,0:0:0:0:
192,192,17460,1,0,0:0:0:0:
448,192,17631,1,8,0:0:0:0:
192,192,17802,1,0,0:0:0:0:
64,192,17974,1,2,0:0:0:0:
320,192,18145,1,0,0:0:0:0:
192,192,18317,1,8,0:0:0:0:
320,192,18488,1,2,0:0:0:0:
448,192,18660,1,0,0:0:0:0:
64,192,18831,1,2,0:0:0:0:
192,192,18831,1,0,0:0:0:0:
320,192,19174,128,0,19517:0:0:0:0:
192,192,19517,1,0,0:0:0:0:
192,192,19688,1,8,0:0:0:0:
448,192,19860,1,0,0:0:0:0:
64,192,20031,1,2,0:0:0:0:
320,192,20202,1,0,0:0:0:0:
192,192,20374,1,8,0:0:0:0:
320,192,20545,1,0,0:0:0:0:
448,192,20717,1,2,0:0:0:0:
64,192,20888,1,0,0:0:0:0:
320,192,21060,1,8,0:0:0:0:
64,192,21231,1,2,0:0:0:0:
192,192,21231,1,0,0:0:0:50:Hat Open2.wav
320,192,21574,1,2,0:0:0:0:
448,192,21574,1,0,0:0:0:0:
64,192,21917,128,0,22260:0:0:0:0:
448,192,22260,1,0,0:0:0:0:
448,192,22431,1,8,0:0:0:0:
192,192,22602,1,0,0:0:0:0:
320,192,22774,128,2,23117:0:0:0:0:
64,192,23117,1,8,0:0:0:0:
448,192,23288,1,0,0:0:0:0:
320,192,23460,1,2,0:0:0:0:
64,192,23631,1,0,0:0:0:0:
192,192,23802,1,8,0:0:0:0:
448,192,23974,1,2,0:0:0:0:
320,192,24145,128,0,24488:0:0:0:0:
64,192,24488,1,8,0:0:0:0:
192,192,24660,1,0,0:0:0:0:
448,192,24831,1,2,0:0:0:0:
64,192,25002,1,0,0:0:0:0:
448,192,25174,1,8,0:0:0:0:
64,192,25345,1,0,0:0:0:0:
320,192,25517,1,2,0:0:0:0:
192,192,25688,1,2,0:0:0:0:
320,192,25860,1,14,0:0:0:0:
192,192,26031,1,0,0:0:0:0:
320,192,26202,1,10,0:0:0:0:
192,192,26374,1,8,0:0:0:0:
448,192,26545,1,8,0:0:0:0:
64,192,26717,1,4,0:0:0:0:
448,192,26717,1,2,0:0:0:0:
64,192,27060,1,2,0:0:0:0:
192,192,27145,1,2,0:0:0:0:
320,192,27231,1,2,0:0:0:0:
448,192,27231,128,8,28088:0:0:0:0:
64,192,27574,1,2,0:0:0:0:
320,192,27917,1,8,0:0:0:0:
64,192,28088,1,8,0:0:0:0:
192,192,28174,1,8,0:0:0:0:
320,192,28260,1,4,0:0:0:0:
448,192,28260,1,2,0:0:0:0:
64,192,28431,128,0,28602:0:0:0:70:Hat Close.wav
192,192,28602,1,8,0:0:0:0:
448,192,28945,1,0,0:0:0:70:Hat Close.wav
192,192,29117,1,2,0:0:0:0:
320,192,29288,1,8,0:0:0:0:
64,192,29460,1,2,0:0:0:0:
448,192,29631,1,0,0:0:0:0:
192,192,29802,1,2,0:0:0:0:
320,192,29974,1,8,0:0:0:0:
64,192,30145,1,0,0:0:0:70:Hat Close.wav
448,192,30317,1,0,0:0:0:70:Hat Close.wav
320,192,30488,1,2,0:0:0:0:
192,192,30660,1,8,0:0:0:0:
448,192,31002,1,2,0:0:0:0:
192,192,31174,128,0,31345:0:0:0:70:Hat Close.wav
64,192,31345,1,8,0:0:0:0:
320,192,31688,1,0,0:0:0:70:Hat Close.wav
64,192,32031,1,8,0:0:0:0:
192,192,32031,1,0,0:0:0:70:Hat Close.wav
320,192,32202,1,2,0:0:0:0:
448,192,32202,1,0,0:0:0:50:Hat Open2.wav
192,192,32545,1,2,0:0:0:0:
320,192,32545,1,0,0:0:0:70:Hat Close.wav
64,192,32888,128,0,33231:0:0:0:70:Hat Close.wav
448,192,33231,1,2,0:0:0:0:
320,192,33317,1,0,0:0:0:0:
192,192,33574,1,0,0:0:0:0:
320,192,33917,128,0,34088:0:0:0:70:Hat Close.wav
448,192,34260,1,0,0:0:0:0:
64,192,34431,1,0,0:0:0:70:Hat Close.wav
192,192,34774,1,8,0:0:0:0:
320,192,34945,1,2,0:0:0:0:
448,192,34945,128,0,35288:0:0:0:50:Hat Open2.wav
64,192,35288,1,2,0:0:0:0:
192,192,35288,1,0,0:0:0:70:Hat Close.wav
320,192,35631,128,0,35974:0:0:0:70:Hat Close.wav
64,192,35974,1,2,0:0:0:0:
448,192,36145,1,8,0:0:0:0:
320,192,36317,1,0,0:0:0:0:
64,192,36488,1,2,0:0:0:0:
448,192,36488,128,0,37174:0:0:0:70:Hat Close.wav
192,192,36660,1,0,0:0:0:70:Hat Close.wav
320,192,36831,128,8,37174:0:0:0:0:
64,192,37174,1,0,0:0:0:70:Hat Close.wav
192,192,37345,1,2,0:0:0:0:
320,192,37517,1,8,0:0:0:0:
448,192,37517,1,0,0:0:0:70:Hat Close.wav
64,192,37688,1,2,0:0:0:0:
192,192,37688,1,0,0:0:0:50:Hat Open2.wav
320,192,38031,1,2,0:0:0:0:
448,192,38031,1,0,0:0:0:70:Hat Close.wav
64,192,38202,1,8,0:0:0:0:
192,192,38202,1,0,0:0:0:50:Hat Open2.wav
320,192,38374,128,0,38717:0:0:0:70:Hat Close.wav
448,192,38717,1,2,0:0:0:0:
64,192,38888,1,8,0:0:0:0:
192,192,38888,1,0,0:0:0:50:Hat Open2.wav
320,192,39060,1,8,0:0:0:0:
192,192,39145,1,8,0:0:0:0:
64,192,39231,1,4,0:0:0:0:
448,192,39231,128,2,39574:0:0:0:0:
320,192,39574,1,8,0:0:0:0:
192,192,39745,128,0,39917:0:0:0:70:Hat Close.wav
448,192,39917,1,0,0:0:0:70:Hat Close.wav
64,192,40260,1,8,0:0:0:0:
320,192,40431,1,0,0:0:0:70:Hat Close.wav
192,192,40602,1,0,0:0:0:70:Hat Close.wav
448,192,40774,1,2,0:0:0:0:
64,192,40945,1,8,0:0:0:0:
320,192,41117,1,0,0:0:0:70:Hat Close.wav
320,192,41460,1,2,0:0:0:0:
64,192,41631,1,8,0:0:0:0:
192,192,41631,1,0,0:0:0:70:Hat Close.wav
64,192,41974,128,2,42317:0:0:0:0:
320,192,41974,1,0,0:0:0:70:Hat Close.wav
448,192,42317,1,8,0:0:0:0:
320,192,42488,128,0,42660:0:0:0:70:Hat Close.wav
192,192,42660,1,0,0:0:0:70:Hat Close.wav
64,192,43002,1,8,0:0:0:0:
320,192,43174,1,0,0:0:0:70:Hat Close.wav
448,192,43345,128,2,43517:0:0:0:0:
64,192,43688,1,0,0:0:0:70:Hat Close.wav
192,192,43860,128,0,44031:0:0:0:70:Hat Close.wav
320,192,44202,128,8,44717:0:0:0:0:
64,192,44717,1,2,0:0:0:0:
192,192,44717,1,4,0:0:0:0:
64,192,45060,1,2,0:0:0:0:
448,192,45060,1,0,0:0:0:0:
320,192,45231,1,0,0:0:0:0:
192,192,45402,1,8,0:0:0:0:
448,192,45402,1,0,0:0:0:0:
64,192,45745,1,2,0:0:0:0:
320,192,45745,1,0,0:0:0:0:
192,192,45917,1,8,0:0:0:0:
64,192,46088,1,2,0:0:0:0:
448,192,46088,1,0,0:0:0:0:
320,192,46260,1,8,0:0:0:0:
192,192,46431,1,2,0:0:0:0:
448,192,46431,1,0,0:0:0:0:
64,192,46774,1,8,0:0:0:0:
320,192,46774,1,0,0:0:0:0:
192,192,47117,1,2,0:0:0:0:
448,192,47117,1,0,0:0:0:0:
320,192,47288,1,8,0:0:0:0:
64,192,47460,1,4,0:0:0:0:
448,192,47460,128,2,47802:0:0:0:0:
64,192,47802,1,8,0:0:0:0:
192,192,47802,1,0,0:0:0:60:Hat Open.wav
320,192,47974,1,0,0:0:0:60:Hat Open.wav
64,192,48145,128,2,48488:0:0:0:0:
448,192,48145,1,0,0:0:0:60:Hat Open.wav
192,192,48317,1,2,0:0:0:0:
320,192,48488,1,8,0:0:0:0:
448,192,48488,1,0,0:0:0:60:Hat Open.wav
192,192,48831,1,2,0:0:0:0:
320,192,48831,128,4,49174:0:0:0:0:
448,192,49002,1,2,0:0:0:0:
64,192,49174,1,8,0:0:0:0:
192,192,49345,1,0,0:0:0:60:Hat Open.wav
320,192,49517,1,2,0:0:0:0:
448,192,49517,1,0,0:0:0:60:Hat Open.wav
64,192,49688,1,2,0:0:0:0:
192,192,49688,1,0,0:0:0:60:Hat Open.wav
64,192,49860,1,8,0:0:0:0:
448,192,49860,128,0,50202:0:0:0:60:Hat Open.wav
320,192,50031,1,2,0:0:0:0:
64,192,50202,128,8,50888:0:0:0:0:
192,192,50202,1,4,0:0:0:0:
320,192,50545,1,8,0:0:0:0:
448,192,50545,1,4,0:0:0:0:
192,192,50888,1,8,0:0:0:0:
448,192,50888,1,4,0:0:0:0:
320,192,51060,1,2,0:0:0:0:
192,192,51145,1,8,0:0:0:0:
448,192,51231,128,8,51402:0:0:0:0:
64,192,51402,128,2,51574:0:0:0:0:
192,192,51402,1,4,0:0:0:0:
192,192,51917,128,0,52260:0:0:0:0:
320,192,52260,128,8,52602:0:0:0:0:
64,192,52431,128,8,52602:0:0:0:0:
448,192,52602,128,8,52945:0:0:0:0:
320,192,52774,128,8,52945:0:0:0:0:
64,192,52945,1,4,0:0:0:0:
192,192,52945,128,2,53288:0:0:0:0:
64,192,53288,1,8,0:0:0:0:
320,192,53460,128,0,53802:0:0:0:0:
448,192,53460,1,0,0:0:0:0:
64,192,53802,1,2,0:0:0:0:
192,192,53802,128,0,54145:0:0:0:0:
64,192,54145,128,2,54660:0:0:0:0:
320,192,54317,1,0,0:0:0:60:Hat Open.wav
448,192,54317,128,0,54660:0:0:0:0:
192,192,54660,1,8,0:0:0:0:
320,192,54831,128,0,55174:0:0:0:0:
448,192,54831,1,0,0:0:0:0:
64,192,55174,1,2,0:0:0:0:
192,192,55174,128,0,55517:0:0:0:0:
64,192,55517,128,0,56031:0:0:0:0:
320,192,55688,1,2,0:0:0:0:
448,192,55688,128,0,56031:0:0:0:60:Hat Open.wav
320,192,56031,1,8,0:0:0:0:
64,192,56202,1,0,0:0:0:0:
192,192,56202,128,0,56545:0:0:0:0:
320,192,56545,128,2,56888:0:0:0:0:
448,192,56545,1,0,0:0:0:0:
448,192,56888,128,2,57402:0:0:0:0:
64,192,57060,128,0,57402:0:0:0:60:Hat Open.wav
192,192,57060,1,0,0:0:0:0:
320,192,57402,1,8,0:0:0:0:
64,192,57574,1,0,0:0:0:0:
192,192,57574,128,0,57917:0:0:0:0:
320,192,57917,128,2,58260:0:0:0:0:
448,192,57917,1,0,0:0:0:0:
448,192,58260,128,0,59117:0:0:0:0:
64,192,58431,1,2,0:0:0:0:
192,192,58431,1,4,0:0:0:0:
192,192,58774,128,8,59117:0:0:0:0:
320,192,59117,128,0,59460:0:0:0:70:Hat Close.wav
64,192,59460,1,8,0:0:0:0:
192,192,59460,1,0,0:0:0:70:Hat Close.wav
448,192,59802,1,2,0:0:0:0:
64,192,59974,1,0,0:0:0:70:Hat Close.wav
320,192,60145,1,8,0:0:0:0:
192,192,60317,1,0,0:0:0:70:Hat Close.wav
64,192,60660,1,2,0:0:0:0:
320,192,60831,1,8,0:0:0:0:
192,192,61002,1,2,0:0:0:0:
64,192,61174,1,8,0:0:0:0:
448,192,61174,1,2,0:0:0:0:
320,192,61345,1,0,0:0:0:0:
64,192,61517,1,8,0:0:0:0:
192,192,61517,128,2,61860:0:0:0:0:
320,192,61860,1,8,0:0:0:0:
64,192,62031,1,2,0:0:0:0:
448,192,62202,1,8,0:0:0:0:
192,192,62374,1,10,0:0:0:0:
320,192,62374,128,4,62717:0:0:0:0:
448,192,62717,1,2,0:0:0:0:
64,192,62888,1,10,0:0:0:0:
192,192,63060,1,8,0:0:0:0:
320,192,63145,1,8,0:0:0:0:
448,192,63231,1,10,0:0:0:0:
320,192,63402,1,8,0:0:0:0:
192,192,63488,1,8,0:0:0:0:
64,192,63574,1,10,0:0:0:0:
192,192,63745,1,8,0:0:0:0:
320,192,63831,1,8,0:0:0:0:
64,192,63917,1,4,0:0:0:0:
448,192,63917,128,2,64260:0:0:0:0:
192,192,64260,1,8,0:0:0:0:
320,192,64431,128,0,64774:0:0:0:0:
448,192,64431,1,0,0:0:0:0:
64,192,64774,1,2,0:0:0:0:
192,192,64774,128,0,65117:0:0:0:0:
64,192,65117,128,2,65631:0:0:0:0:
320,192,65288,1,0,0:0:0:60:Hat Open.wav
448,192,65288,128,0,65631:0:0:0:0:
192,192,65631,1,8,0:0:0:0:
320,192,65802,128,0,66145:0:0:0:0:
448,192,65802,1,0,0:0:0:0:
64,192,66145,1,2,0:0:0:0:
192,192,66145,128,0,66488:0:0:0:0:
64,192,66488,128,0,67002:0:0:0:0:
320,192,66660,1,2,0:0:0:0:
448,192,66660,128,0,67002:0:0:0:60:Hat Open.wav
320,192,67002,1,8,0:0:0:0:
64,192,67174,1,0,0:0:0:0:
192,192,67174,128,0,67517:0:0:0:0:
320,192,67517,128,2,67860:0:0:0:0:
448,192,67517,1,0,0:0:0:0:
448,192,67860,128,2,68374:0:0:0:0:
64,192,68031,128,0,68374:0:0:0:60:Hat Open.wav
192,192,68031,1,0,0:0:0:0:
320,192,68374,1,8,0:0:0:0:
64,192,68545,1,0,0:0:0:0:
192,192,68545,128,0,68888:0:0:0:0:
320,192,68888,128,2,69231:0:0:0:0:
448,192,68888,1,0,0:0:0:0:
448,192,69231,128,0,70088:0:0:0:0:
64,192,69402,1,2,0:0:0:0:
192,192,69402,1,4,0:0:0:0:
192,192,69745,128,8,70088:0:0:0:0:
320,192,70088,128,0,70431:0:0:0:70:Hat Close.wav
64,192,70431,1,8,0:0:0:0:
192,192,70431,1,0,0:0:0:70:Hat Close.wav
448,192,70774,1,2,0:0:0:0:
320,192,71117,1,8,0:0:0:0:
64,192,71288,1,0,0:0:0:70:Hat Close.wav
192,192,71631,1,2,0:0:0:0:
448,192,71802,1,8,0:0:0:0:
64,192,71974,1,2,0:0:0:0:
320,192,72145,128,10,72317:0:0:0:0:
448,192,72145,1,4,0:0:0:0:
192,192,72317,128,0,72488:0:0:0:40:Tom1.wav
64,192,72488,128,2,72660:0:0:0:0:
192,192,72660,1,10,0:0:0:0:
448,192,72660,128,4,72831:0:0:0:0:
320,192,72831,128,0,73002:0:0:0:40:Tom2.wav
192,192,73002,128,2,73174:0:0:0:0:
64,192,73174,1,10,0:0:0:0:
320,192,73174,128,4,73345:0:0:0:0:
192,192,73345,128,0,73517:0:0:0:40:Tom3.wav
64,192,73517,128,2,73688:0:0:0:0:
192,192,73688,1,12,0:0:0:0:
448,192,73688,128,2,73860:0:0:0:0:
320,192,73860,128,0,74031:0:0:0:40:Tom2.wav
192,192,74031,128,2,74202:0:0:0:0:
64,192,74202,1,8,0:0:0:0:
320,192,74202,128,2,74374:0:0:0:0:
192,192,74374,128,0,74545:0:0:0:0:
64,192,74545,128,10,74717:0:0:0:0:
320,192,74717,1,2,0:0:0:0:
448,192,74717,1,4,0:0:0:0:
192,192,75060,1,0,0:0:0:0:
320,192,75231,1,0,0:0:0:0:
448,192,75402,1,8,0:0:0:0:
192,192,75574,1,8,0:0:0:0:
320,192,75745,1,2,0:0:0:0:
64,192,75917,128,8,76260:0:0:0:0:
320,192,76260,1,4,0:0:0:0:
448,192,76260,1,2,0:0:0:0:
192,192,76431,1,0,0:0:0:0:
448,192,76602,1,8,0:0:0:0:
192,192,76774,1,0,0:0:0:0:
64,192,76945,1,2,0:0:0:0:
320,192,77117,1,2,0:0:0:0:
192,192,77288,1,8,0:0:0:0:
320,192,77460,1,2,0:0:0:0:
448,192,77460,1,0,0:0:0:50:Hat Open2.wav
64,192,77802,1,2,0:0:0:0:
448,192,77974,1,8,0:0:0:0:
320,192,78145,128,0,78488:0:0:0:0:
64,192,78488,1,2,0:0:0:0:
192,192,78660,128,8,78831:0:0:0:0:
448,192,78831,1,0,0:0:0:0:
64,192,79002,1,2,0:0:0:0:
320,192,79174,1,0,0:0:0:0:
192,192,79345,1,12,0:0:0:0:
320,192,79517,1,0,0:0:0:0:
448,192,79688,1,2,0:0:0:0:
64,192,79860,1,2,0:0:0:0:
320,192,80031,1,8,0:0:0:0:
64,192,80202,1,2,0:0:0:0:
192,192,80202,1,0,0:0:0:50:Hat Open2.wav
448,192,80545,1,2,0:0:0:0:
320,192,80717,1,8,0:0:0:0:
192,192,80888,128,0,81231:0:0:0:0:
448,192,81231,1,2,0:0:0:0:
64,192,81402,128,8,81574:0:0:0:0:
192,192,81574,1,0,0:0:0:0:
320,192,81745,128,2,82088:0:0:0:0:
64,192,82088,1,8,0:0:0:0:
448,192,82260,1,0,0:0:0:0:
320,192,82431,1,2,0:0:0:0:
64,192,82602,1,2,0:0:0:0:
192,192,82774,1,8,0:0:0:0:
448,192,82945,1,2,0:0:0:0:
320,192,83117,128,0,83460:0:0:0:0:
64,192,83460,1,8,0:0:0:0:
192,192,83631,1,0,0:0:0:0:
448,192,83802,1,2,0:0:0:0:
64,192,83974,1,0,0:0:0:0:
448,192,84145,1,8,0:0:0:0:
64,192,84317,1,0,0:0:0:0:
320,192,84488,1,8,0:0:0:0:
192,192,84660,1,2,0:0:0:0:
320,192,84831,1,8,0:0:0:0:
64,192,85002,128,0,85345:0:0:0:0:
320,192,85174,1,8,0:0:0:0:
192,192,85345,1,2,0:0:0:0:
448,192,85517,128,8,85688:0:0:0:0:
64,192,85688,1,2,0:0:0:0:
320,192,86031,1,2,0:0:0:0:
448,192,86031,1,0,0:0:0:0:
64,192,86202,1,8,0:0:0:0:
192,192,86202,1,4,0:0:0:0:
320,192,86374,128,0,86717:0:0:0:0:
448,192,86717,1,0,0:0:0:0:
192,192,86888,128,8,87060:0:0:0:0:
64,192,87231,1,8,0:0:0:0:
320,192,87317,1,2,0:0:0:0:
192,192,87402,1,2,0:0:0:0:
320,192,87574,1,2,0:0:0:0:
448,192,87574,128,4,88260:0:0:0:0:
