osu file format v14

[General]
AudioFilename: audio.mp3
AudioLeadIn: 0
PreviewTime: 52860
Countdown: 0
SampleSet: Soft
StackLeniency: 0.4
Mode: 2
LetterboxInBreaks: 0
WidescreenStoryboard: 1

[Editor]
DistanceSpacing: 0.5
BeatDivisor: 4
GridSize: 32
TimelineZoom: 1.9

[Metadata]
Title:Gotoubun no Kimochi (TV Size)
TitleUnicode:五等分の気持ち (TV Size)
Artist:Nakanoke no Itsutsugo
ArtistUnicode:中野家の五つ子
Creator:Xetopia
Version:Salad
Source:五等分の花嫁
Tags:Dapuluous AJamez MBomb -_Magic_Bomb_- Nelly 5toubun no hanayome 5hanayome 5-toubun go-toubun 中野 一花 二乃 三玖 四葉 五月 Miku Yotsuba Nino Itsuki Ichika 水瀬 いのり Minase Inori 佐倉 綾音 Sakura Ayane ayaneru 伊藤 美来 Itou 竹達 彩奈 Taketatsu Ayana 花澤 香菜 Hanazawa Kana hanakana The Five Wedded Brides The Quintessential Quintuplets opening op
BeatmapID:1942054
BeatmapSetID:921468

[Difficulty]
HPDrainRate:4
CircleSize:3
OverallDifficulty:7
ApproachRate:7
SliderMultiplier:1.58
SliderTickRate:1

[Events]
//Background and Video events
0,0,"hanayome.jpg",0,0
//Break Periods
//Storyboard Layer 0 (Background)
//Storyboard Layer 1 (Fail)
//Storyboard Layer 2 (Pass)
//Storyboard Layer 3 (Foreground)
//Storyboard Sound Samples

[TimingPoints]
831,342.857142857143,4,2,1,50,1,0
831,-133.333333333333,4,2,1,50,0,0
6316,-111.111111111111,4,2,1,60,0,0
10431,-111.111111111111,4,2,1,30,0,0
10773,-111.111111111111,4,2,1,40,0,0
11116,-100,4,2,1,60,0,0
11802,-111.111111111111,4,2,1,60,0,0
17288,-100,4,2,1,60,0,0
28259,-100,4,2,1,60,0,0
44716,-100,4,2,1,50,0,0
47459,-100,4,2,1,60,0,0
52945,-100,4,2,1,70,0,1
74716,-100,4,2,1,70,0,0
76259,-100,4,2,1,60,0,0
88259,-100,4,2,1,20,0,0
88602,-100,4,2,1,5,0,0

[Colours]
Combo1 : 255,83,83
Combo2 : 255,170,213
Combo3 : 255,128,128
Combo4 : 189,123,123
Combo5 : 255,139,83

[HitObjects]
211,40,831,6,0,P|141:86|216:190,1,237.000009040833,2|2,0:0|0:0,0:0:0:0:
452,200,2202,1,2,0:0:0:0:
178,294,2888,2,0,L|430:297,1,237.000009040833,2|2,0:0|0:0,0:0:0:0:
256,192,3917,12,2,5974,1:2:0:0:
338,53,6317,6,0,L|342:205,1,142.199995660401,6|8,3:2|0:0,0:0:0:0:
167,347,7002,2,0,P|211:307|288:270,1,142.199995660401,2|8,0:0|0:0,0:0:0:0:
366,265,7517,1,0,0:0:0:0:
264,213,7688,6,0,L|259:53,1,142.199995660401,2|8,0:0|0:0,0:0:0:0:
187,40,8202,1,2,0:0:0:0:
347,138,8545,2,0,L|424:140,1,71.0999978302003,10|8,0:0|0:0,0:0:0:0:
139,331,9060,6,0,L|135:176,1,142.199995660401,2|8,0:0|0:0,0:0:0:0:
313,51,9745,2,0,L|165:55,1,142.199995660401,2|8,0:0|0:0,0:0:0:0:
99,59,10260,1,0,3:0:0:0:
193,102,10431,5,0,3:0:0:0:
315,154,10773,1,8,3:2:0:0:
309,288,11116,1,0,1:2:0:0:
183,330,11460,2,0,L|96:333,1,79,0|0,1:2|1:2,0:0:0:0:
280,224,11802,6,0,L|433:227,2,142.199995660401,6|8|0,3:2|3:2|3:0,0:0:0:0:
135,221,12831,1,8,3:2:0:0:
308,36,13173,5,0,3:2:0:0:
242,57,13344,1,0,0:0:0:0:
213,120,13515,1,8,3:2:0:0:
239,184,13687,1,0,0:0:0:0:
303,209,13859,2,0,L|448:210,1,142.199995660401,0|8,3:2|3:2,0:0:0:0:
148,50,14545,5,2,3:2:0:0:
291,52,14887,1,10,3:2:0:0:
433,54,15230,1,2,3:2:0:0:
291,52,15574,1,10,3:2:0:0:
148,50,15917,6,0,L|141:208,1,142.199995660401,2|8,3:2|3:2,0:0:0:0:
335,208,16602,2,0,L|415:210,2,71.0999978302003,2|8|8,3:2|0:0|3:2,0:0:0:0:
53,335,17288,6,0,L|224:335,1,158,6|0,3:2|1:0,0:0:0:0:
301,338,17802,2,0,L|301:248,1,79,2|0,0:0|3:0,0:0:0:0:
114,221,18317,1,0,1:1:0:0:
205,202,18488,2,0,L|208:30,1,158,2|2,0:0|3:2,0:0:0:0:
114,221,19002,1,0,1:0:0:0:
402,40,19345,6,0,P|438:126|387:156,1,158,0|0,3:0|1:0,0:0:0:0:
311,161,19860,1,0,1:0:0:0:
135,164,20031,6,0,L|125:329,1,158,0|0,3:2|1:2,0:0:0:0:
292,325,20717,2,0,L|131:325,1,158,0|0,3:0|1:0,0:0:0:0:
214,248,21231,1,2,3:2:0:0:
387,165,21402,6,0,L|389:75,1,79,2|2,0:0|3:2,0:0:0:0:
196,29,21917,2,0,L|188:198,1,158,2|0,3:2|0:0,0:0:0:0:
272,189,22431,2,0,L|360:188,1,79,0|2,1:0|0:0,0:0:0:0:
176,321,22774,6,0,L|11:326,2,158,0|0|0,3:2|1:0|3:0,0:0:0:0:
345,307,23802,2,0,L|348:225,1,79,0|2,1:2|3:2,0:0:0:0:
243,128,24145,6,0,L|208:213,2,79,2|0|0,0:0|3:2|1:0,0:0:0:0:
343,31,24659,2,0,P|403:60|331:183,1,237,2|0,0:0|1:0,0:0:0:0:
263,189,25345,1,2,0:0:0:0:
93,264,25517,5,0,3:0:0:0:
90,185,25688,1,0,3:0:0:0:
88,106,25859,1,6,3:2:0:0:
293,43,26202,2,0,L|377:42,2,79,0|0|0,3:0|1:0|1:0,0:0:0:0:
116,50,26717,5,4,3:1:0:0:
111,160,27060,1,0,3:0:0:0:
295,126,27231,6,0,P|392:169|282:365,1,395,4|0,1:2|1:0,0:0:0:0:
110,303,28260,6,0,L|109:140,1,158,4|2,3:2|1:2,0:0:0:0:
217,137,28774,2,0,L|136:137,1,79,0|2,0:0|0:0,0:0:0:0:
56,88,29117,2,0,L|136:88,1,79,2|0,3:2|1:0,0:0:0:0:
317,30,29460,6,0,L|326:197,1,158,2|0,3:2|3:2,0:0:0:0:
240,188,29974,1,0,1:0:0:0:
416,315,30317,2,0,L|467:250,2,79,0|2|0,0:0|3:2|1:0,0:0:0:0:
147,329,31002,6,0,L|143:236,1,79,2|0,3:2|0:0,0:0:0:0:
243,230,31345,2,0,P|286:194|229:120,1,158,2|2,1:2|0:0,0:0:0:0:
139,108,31860,2,0,L|136:28,1,79,0|2,3:0|1:2,0:0:0:0:
325,50,32202,6,0,L|491:48,2,158,2|2|2,3:2|3:2|3:2,0:0:0:0:
141,99,33231,2,0,L|136:179,1,79,0|0,3:0|1:0,0:0:0:0:
409,324,33745,6,0,P|453:285|396:208,1,158,0|0,3:2|1:2,0:0:0:0:
310,186,34260,2,0,L|307:95,1,79,2|0,0:0|3:0,0:0:0:0:
405,63,34602,2,0,L|501:62,1,79,0|0,3:2|1:0,0:0:0:0:
300,272,34945,6,0,L|131:269,1,158,2|2,3:2|3:2,0:0:0:0:
132,186,35460,1,0,1:0:0:0:
233,64,35631,2,0,L|238:230,1,158,2|2,3:2|3:2,0:0:0:0:
132,186,36145,1,0,1:0:0:0:
392,335,36488,5,0,3:2:0:0:
322,301,36659,1,0,0:0:0:0:
294,229,36830,1,0,1:0:0:0:
323,158,37002,1,2,0:0:0:0:
394,127,37174,2,0,L|488:125,2,79,2|0|0,0:0|3:0|1:0,0:0:0:0:
215,31,37688,6,0,L|205:205,1,158,2|0,3:2|3:0,0:0:0:0:
123,233,38202,1,0,1:0:0:0:
217,295,38374,2,0,L|391:301,1,158,2|2,0:0|3:2,0:0:0:0:
456,298,38888,1,2,1:2:0:0:
161,303,39231,6,0,L|156:134,1,158,6|0,3:2|1:0,0:0:0:0:
245,137,39745,2,0,L|249:59,1,79,2|2,0:0|0:0,0:0:0:0:
88,36,40260,2,0,L|84:122,1,79,0|2,1:0|0:0,0:0:0:0:
177,178,40602,6,0,L|84:179,2,79,2|2|0,0:0|3:2|1:0,0:0:0:0:
352,335,41117,2,0,L|358:163,1,158,2|2,0:0|3:2,0:0:0:0:
438,132,41631,1,2,1:2:0:0:
181,32,41974,6,0,P|133:56|188:124,1,158,2|0,3:2|1:0,0:0:0:0:
264,130,42488,2,0,L|351:131,1,79,2|2,0:0|0:0,0:0:0:0:
154,237,43002,2,0,L|151:329,1,79,0|2,1:0|0:0,0:0:0:0:
331,338,43345,6,0,P|330:316|219:226,1,158,2|2,3:2|0:0,0:0:0:0:
149,219,43860,1,8,3:3:0:0:
76,197,44031,1,0,1:0:0:0:
43,128,44202,1,0,1:0:0:0:
74,57,44374,1,8,0:3:0:0:
147,34,44545,1,8,0:3:0:0:
330,142,44717,6,0,L|494:140,2,158,4|0|0,3:2|3:2|1:0,0:0:0:0:
156,223,45745,2,0,L|152:308,1,79,2|0,3:2|1:0,0:0:0:0:
321,340,46088,6,0,L|498:347,1,158,2|2,3:2|3:2,0:0:0:0:
197,98,46774,2,0,L|20:105,1,158,0|0,1:0|3:2,0:0:0:0:
349,127,47460,6,0,P|388:160|343:245,1,158,6|0,3:2|1:0,0:0:0:0:
267,258,47974,2,0,L|187:258,1,79,0|2,0:0|3:2,0:0:0:0:
365,347,48488,1,0,1:0:0:0:
87,105,48831,6,0,L|251:108,1,158,2|0,3:2|1:0,0:0:0:0:
331,151,49345,2,0,L|336:238,1,79,2|0,0:0|3:0,0:0:0:0:
156,318,49860,1,0,1:0:0:0:
416,311,50202,5,4,1:2:0:0:
346,278,50373,1,2,0:2:0:0:
318,206,50544,1,2,1:2:0:0:
349,135,50716,1,2,0:0:0:0:
420,105,50887,1,2,1:2:0:0:
323,48,51060,2,0,L|244:47,2,79,2|0|4,3:2|1:0|3:2,0:0:0:0:
108,83,51917,6,0,L|99:245,1,158,0|2,1:2|1:2,0:0:0:0:
194,273,52431,1,0,1:0:0:0:
99,240,52602,1,2,1:2:0:0:
352,338,52945,6,0,L|188:338,1,158,6|0,3:2|1:0,0:0:0:0:
286,258,53460,2,0,L|292:91,1,158,2|2,0:0|0:0,0:0:0:0:
206,76,53974,1,0,1:0:0:0:
460,39,54317,6,0,L|468:204,1,158,2|2,0:0|1:2,0:0:0:0:
361,223,54831,2,0,L|200:230,1,158,2|2,0:0|3:2,0:0:0:0:
286,309,55345,1,0,1:0:0:0:
43,142,55688,6,0,L|207:135,1,158,2|0,3:2|1:0,0:0:0:0:
293,32,56202,2,0,L|302:200,1,158,2|2,0:0|3:2,0:0:0:0:
214,233,56717,2,0,L|121:238,1,79,0|2,1:0|3:2,0:0:0:0:
315,338,57060,6,0,L|473:344,1,158,2|0,0:0|1:0,0:0:0:0:
374,262,57574,2,0,L|363:96,1,158,2|2,0:0|3:2,0:0:0:0:
445,101,58088,1,0,1:0:0:0:
186,43,58431,5,4,3:2:0:0:
356,188,58774,2,0,P|324:226|221:261,2,158,0|2|2,1:0|0:0|1:2,0:0:0:0:
115,336,59802,6,0,L|112:250,1,79,0|2,3:2|0:0,0:0:0:0:
32,227,60145,1,2,1:2:0:0:
112,257,60317,1,2,0:0:0:0:
275,101,60660,2,0,L|357:99,2,79,0|2|2,3:2|1:2|3:2,0:0:0:0:
96,105,61174,6,0,L|86:265,1,158,2|0,3:2|1:0,0:0:0:0:
260,329,61860,1,2,0:0:0:0:
97,336,62202,1,0,1:2:0:0:
350,243,62545,6,0,P|399:198|337:134,1,158,2|0,0:0|1:0,0:0:0:0:
258,119,63060,1,0,1:0:0:0:
430,40,63402,2,0,L|432:127,1,79,2|2,1:2|1:2,0:0:0:0:
176,296,63917,6,0,L|347:293,1,158,6|0,3:2|1:0,0:0:0:0:
429,283,64431,2,0,L|435:113,1,158,2|2,0:0|3:2,0:0:0:0:
344,113,64945,1,0,1:0:0:0:
90,47,65288,6,0,L|83:214,1,158,2|0,0:0|1:0,0:0:0:0:
187,302,65802,2,0,P|234:266|176:203,1,158,2|2,0:0|3:2,0:0:0:0:
96,199,66317,1,0,1:0:0:0:
361,47,66660,6,0,L|195:49,1,158,2|2,3:2|1:2,0:0:0:0:
293,131,67174,2,0,L|303:292,1,158,2|2,0:2|3:2,0:0:0:0:
216,335,67688,2,0,L|123:340,1,79,0|2,1:0|0:0,0:0:0:0:
313,242,68031,6,0,L|475:239,1,158,2|0,0:0|1:0,0:0:0:0:
385,193,68545,1,2,0:0:0:0:
216,137,68888,2,0,L|128:136,2,79,2|0|0,3:2|1:0|1:0,0:0:0:0:
403,29,69402,6,0,L|410:191,1,158,6|2,3:2|1:2,0:0:0:0:
231,264,70088,1,2,0:0:0:0:
409,186,70431,1,0,1:0:0:0:
151,334,70774,6,0,L|147:251,1,79,2|0,3:2|0:0,0:0:0:0:
245,260,71117,1,0,1:0:0:0:
147,255,71288,2,0,L|140:93,1,158,2|0,0:0|3:2,0:0:0:0:
54,55,71802,1,0,1:0:0:0:
311,44,72145,6,0,P|346:52|434:150,1,158,6|0,3:2|3:0,0:0:0:0:
255,172,72660,2,0,L|252:340,1,158,4|0,3:2|3:0,0:0:0:0:
429,248,73174,6,0,P|383:311|311:340,1,158,4|0,3:2|3:0,0:0:0:0:
143,248,73688,2,0,P|189:311|262:340,1,158,4|0,3:2|3:0,0:0:0:0:
442,297,74202,5,4,3:2:0:0:
429,224,74373,1,0,1:0:0:0:
399,157,74544,1,0,1:0:0:0:
234,91,74717,5,4,0:0:0:0:
76,242,75402,1,0,1:0:0:0:
165,199,75574,2,0,L|172:28,1,158,0|8,1:0|0:3,0:0:0:0:
439,308,76260,6,0,L|280:306,1,158,4|0,3:2|1:0,0:0:0:0:
361,227,76774,2,0,L|456:230,1,79,2|0,0:0|3:0,0:0:0:0:
261,49,77288,2,0,L|259:131,1,79,0|2,1:0|3:2,0:0:0:0:
349,160,77631,6,0,L|190:163,1,158,0|0,0:0|1:0,0:0:0:0:
300,132,78145,2,0,L|311:302,1,158,2|0,0:0|3:0,0:0:0:0:
401,313,78660,1,0,1:0:0:0:
141,319,79002,5,0,3:2:0:0:
396,166,79345,1,4,1:2:0:0:
394,95,79516,1,0,0:0:0:0:
313,93,79687,1,2,3:2:0:0:
118,46,80031,2,0,L|35:45,1,79,0|2,1:0|3:2,0:0:0:0:
217,86,80374,6,0,L|382:84,1,158,2|0,3:2|1:0,0:0:0:0:
266,177,80888,2,0,L|263:341,1,158,2|2,0:0|3:2,0:0:0:0:
179,354,81402,1,2,1:2:0:0:
446,196,81745,6,0,P|397:157|294:112,1,158,2|0,3:2|1:0,0:0:0:0:
233,114,82260,2,0,L|334:117,1,79,2|2,0:0|3:2,0:0:0:0:
148,29,82774,1,0,1:0:0:0:
408,319,83117,6,0,L|320:321,2,79,2|0|0,3:2|3:0|1:0,0:0:0:0:
290,250,83631,2,0,L|282:81,1,158,2|2,0:0|0:0,0:0:0:0:
387,94,84145,2,0,L|474:97,1,79,0|2,1:2|0:0,0:0:0:0:
300,42,84488,6,0,L|131:43,2,158,2|2|0,1:2|1:2|1:0,0:0:0:0:
418,120,85345,2,0,L|426:201,1,79,2|0,3:2|1:0,0:0:0:0:
250,206,85688,6,0,P|215:230|275:318,1,158,2|2,3:0|3:2,0:0:0:0:
368,306,86202,2,0,L|369:132,1,158,4|0,3:2|1:0,0:0:0:0:
270,126,86717,2,0,L|177:124,2,79,2|0|0,0:0|1:0|0:0,0:0:0:0:
373,57,87231,6,0,L|431:55,2,39.5,0|0|8,1:0|3:0|0:3,0:0:0:0:
183,58,87574,1,4,3:2:0:0:
256,192,87917,12,0,88602,0:0:0:0:
