osu file format v14

[General]
AudioFilename: audio.mp3
AudioLeadIn: 0
PreviewTime: 52860
Countdown: 0
SampleSet: Soft
StackLeniency: 0.7
Mode: 3
LetterboxInBreaks: 0
SpecialStyle: 0
WidescreenStoryboard: 1

[Editor]
DistanceSpacing: 0.5
BeatDivisor: 4
GridSize: 32
TimelineZoom: 1.7

[Metadata]
Title:Gotoubun no Kimochi (TV Size)
TitleUnicode:五等分の気持ち (TV Size)
Artist:Nakanoke no Itsutsugo
ArtistUnicode:中野家の五つ子
Creator:Remuring
Version:Itsuki
Source:五等分の花嫁
Tags:
BeatmapID:1896511
BeatmapSetID:908777

[Difficulty]
HPDrainRate:8.5
CircleSize:7
OverallDifficulty:8.5
ApproachRate:5
SliderMultiplier:1.4
SliderTickRate:1

[Events]
//Background and Video events
0,0,"Itsuki.jpg",0,0
//Break Periods
2,17488,50717
//Storyboard Layer 0 (Background)
//Storyboard Layer 1 (Fail)
//Storyboard Layer 2 (Pass)
//Storyboard Layer 3 (Foreground)
//Storyboard Sound Samples

[TimingPoints]
-540,342.857142857143,4,2,0,50,1,0

[HitObjects]
36,192,831,128,0,1174:0:0:0:0:
182,192,831,128,0,1174:0:0:0:0:
182,192,1517,128,0,1860:0:0:0:0:
36,192,1517,128,0,1860:0:0:0:0:
36,192,2202,128,0,2545:0:0:0:0:
182,192,2202,128,0,2545:0:0:0:0:
329,192,2545,128,0,2888:0:0:0:0:
36,192,2888,128,0,3231:0:0:0:0:
182,192,2888,128,0,3231:0:0:0:0:
402,192,3231,128,0,3574:0:0:0:0:
329,192,3574,128,0,3917:0:0:0:0:
475,192,3574,128,0,3917:0:0:0:0:
329,192,4260,128,0,4602:0:0:0:0:
475,192,4260,128,0,4602:0:0:0:0:
475,192,4945,128,0,5288:0:0:0:0:
329,192,4945,128,0,5288:0:0:0:0:
182,192,5288,128,0,5631:0:0:0:0:
329,192,5631,128,0,5888:0:0:0:0:
475,192,5631,128,0,5888:0:0:0:0:
36,192,5631,1,0,0:0:0:0:
109,192,5717,1,0,0:0:0:0:
182,192,5802,1,0,0:0:0:0:
256,192,5888,1,0,0:0:0:0:
329,192,5974,1,0,0:0:0:0:
109,192,5974,1,0,0:0:0:0:
182,192,6060,1,0,0:0:0:0:
256,192,6145,1,0,0:0:0:0:
329,192,6231,1,0,0:0:0:0:
402,192,6317,1,0,0:0:0:0:
475,192,6317,1,0,0:0:0:0:
36,192,6317,128,0,6660:0:0:0:0:
109,192,6317,1,0,0:0:0:0:
256,192,6317,1,0,0:0:0:0:
182,192,6660,128,0,6831:0:0:0:0:
402,192,6660,1,0,0:0:0:0:
475,192,6660,1,0,0:0:0:0:
36,192,6831,128,0,7174:0:0:0:0:
256,192,7002,1,0,0:0:0:0:
109,192,7174,128,0,7517:0:0:0:0:
402,192,7345,1,0,0:0:0:0:
475,192,7345,1,0,0:0:0:0:
182,192,7517,128,0,8717:0:0:0:0:
475,192,7688,128,0,8031:0:0:0:0:
256,192,7688,1,0,0:0:0:0:
329,192,8031,128,0,8374:0:0:0:0:
109,192,8031,1,0,0:0:0:0:
36,192,8031,1,0,0:0:0:0:
475,192,8202,128,0,8545:0:0:0:0:
256,192,8374,1,0,0:0:0:0:
402,192,8545,128,0,8888:0:0:0:0:
109,192,8545,1,0,0:0:0:0:
36,192,8545,1,0,0:0:0:0:
36,192,8717,1,0,0:0:0:0:
109,192,8717,1,0,0:0:0:0:
329,192,8888,128,0,10088:0:0:0:0:
36,192,9060,128,0,9402:0:0:0:0:
256,192,9060,1,0,0:0:0:0:
402,192,9402,1,0,0:0:0:0:
475,192,9402,1,0,0:0:0:0:
109,192,9402,128,0,9574:0:0:0:0:
36,192,9574,128,0,9917:0:0:0:0:
256,192,9745,1,0,0:0:0:0:
182,192,9917,128,0,10260:0:0:0:0:
402,192,10088,1,0,0:0:0:0:
475,192,10088,1,0,0:0:0:0:
109,192,10260,128,0,11460:0:0:0:0:
256,192,10431,1,0,0:0:0:0:
475,192,10431,128,0,10774:0:0:0:0:
402,192,10774,128,0,10945:0:0:0:0:
182,192,10774,1,0,0:0:0:0:
36,192,10774,1,0,0:0:0:0:
475,192,10945,128,0,11288:0:0:0:0:
329,192,11288,128,0,11631:0:0:0:0:
182,192,11460,1,0,0:0:0:0:
36,192,11460,1,0,0:0:0:0:
402,192,11631,128,0,12831:0:0:0:0:
36,192,11802,128,0,12145:0:0:0:0:
109,192,11802,1,0,0:0:0:0:
475,192,11802,1,0,0:0:0:0:
256,192,11802,1,0,0:0:0:0:
475,192,12145,1,0,0:0:0:0:
329,192,12145,1,0,0:0:0:0:
182,192,12145,128,0,12317:0:0:0:0:
36,192,12317,128,0,12660:0:0:0:0:
256,192,12488,1,0,0:0:0:0:
109,192,12660,128,0,13002:0:0:0:0:
329,192,12831,1,0,0:0:0:0:
475,192,12831,1,0,0:0:0:0:
182,192,13002,128,0,14202:0:0:0:0:
329,192,13174,1,0,0:0:0:0:
475,192,13174,1,0,0:0:0:0:
36,192,13517,1,0,0:0:0:0:
109,192,13517,1,0,0:0:0:0:
329,192,13860,1,0,0:0:0:0:
475,192,13860,1,0,0:0:0:0:
109,192,14031,1,0,0:0:0:0:
36,192,14031,1,0,0:0:0:0:
36,192,14202,1,0,0:0:0:0:
109,192,14202,1,0,0:0:0:0:
182,192,14545,128,0,15145:0:0:0:0:
36,192,14545,128,0,15145:0:0:0:0:
475,192,14545,128,0,14802:0:0:0:0:
329,192,14545,128,0,14802:0:0:0:0:
329,192,14888,128,0,15488:0:0:0:0:
475,192,14888,128,0,15488:0:0:0:0:
182,192,15231,128,0,15831:0:0:0:0:
36,192,15231,128,0,15831:0:0:0:0:
329,192,15574,128,0,15831:0:0:0:0:
475,192,15574,128,0,15831:0:0:0:0:
36,192,15917,1,0,0:0:0:0:
182,192,15917,1,0,0:0:0:0:
329,192,15917,1,0,0:0:0:0:
475,192,15917,1,0,0:0:0:0:
109,192,16260,1,0,0:0:0:0:
256,192,16260,1,0,0:0:0:0:
402,192,16260,1,0,0:0:0:0:
36,192,16602,128,0,17202:0:0:0:0:
475,192,16602,128,0,17202:0:0:0:0:
329,192,16774,1,0,0:0:0:0:
182,192,16774,1,0,0:0:0:0:
182,192,16945,128,0,17202:0:0:0:0:
329,192,16945,128,0,17202:0:0:0:0:
109,192,17288,1,0,0:0:0:0:
36,192,17288,1,0,0:0:0:0:
402,192,17288,1,0,0:0:0:0:
475,192,17288,1,0,0:0:0:0:
256,192,17288,1,0,0:0:0:0:
36,192,51917,5,0,0:0:0:0:
256,192,51917,1,0,0:0:0:0:
475,192,51917,1,0,0:0:0:0:
256,192,52174,1,0,0:0:0:0:
475,192,52174,1,0,0:0:0:0:
182,192,52260,1,0,0:0:0:0:
402,192,52260,1,0,0:0:0:0:
329,192,52345,1,0,0:0:0:0:
109,192,52345,1,0,0:0:0:0:
36,192,52431,1,0,0:0:0:0:
256,192,52431,1,0,0:0:0:0:
475,192,52431,1,0,0:0:0:0:
402,192,52517,1,0,0:0:0:0:
182,192,52517,1,0,0:0:0:0:
109,192,52602,1,0,0:0:0:0:
329,192,52602,1,0,0:0:0:0:
36,192,52602,128,0,52860:0:0:0:0:
256,192,52688,1,0,0:0:0:0:
475,192,52688,1,0,0:0:0:0:
182,192,52774,1,0,0:0:0:0:
402,192,52774,1,0,0:0:0:0:
329,192,52860,1,0,0:0:0:0:
109,192,52860,1,0,0:0:0:0:
