osu file format v14

[General]
AudioFilename: audio.mp3
AudioLeadIn: 0
PreviewTime: 52860
Countdown: 0
SampleSet: Soft
StackLeniency: 0.7
Mode: 0
LetterboxInBreaks: 0
WidescreenStoryboard: 0

[Editor]
DistanceSpacing: 1.1
BeatDivisor: 2
GridSize: 32
TimelineZoom: 1.5

[Metadata]
Title:Gotoubun no Kimochi (TV Size)
TitleUnicode:五等分の気持ち (TV Size)
Artist:Nakanoke no Itsutsugo
ArtistUnicode:中野家の五つ子
Creator:Gaia
Version:Easy
Source:五等分の花嫁
Tags:meyrink yasaija 714 einess akitoshi -laura- corinn 5toubun no hanayome 5hanayome 5-toubun go-toubun 中野 一花 二乃 三玖 四葉 五月 Miku Yotsuba Nino Itsuki Ichika 水瀬 いのり Minase Inori 佐倉 綾音 Sakura Ayane ayaneru 伊藤 美来 Itou 竹達 彩奈 Taketatsu Ayana 花澤 香菜 Hanazawa Kana hanakana The Five Wedded Brides The Quintessential Quintuplets opening op
BeatmapID:1883153
BeatmapSetID:901880

[Difficulty]
HPDrainRate:2
CircleSize:3
OverallDifficulty:2
ApproachRate:3
SliderMultiplier:0.9
SliderTickRate:1

[Events]
//Background and Video events
0,0,"mikuuuuuu.jpg",0,0
Video,-20,"RinkVid.flv"
//Break Periods
//Storyboard Layer 0 (Background)
//Storyboard Layer 1 (Fail)
//Storyboard Layer 2 (Pass)
//Storyboard Layer 3 (Foreground)
//Storyboard Sound Samples

[TimingPoints]
-540,342.857142857143,4,2,1,40,1,0
831,-125,4,2,1,40,0,0
4945,-125,4,2,1,20,0,0
5288,-125,4,2,1,30,0,0
5631,-125,4,2,1,40,0,0
6317,-100,4,2,1,50,0,0
10260,-100,4,2,1,20,0,0
10774,-100,4,2,1,30,0,0
11117,-100,4,2,1,50,0,0
44717,-100,4,2,1,40,0,0
47460,-100,4,2,1,50,0,0
52945,-100,4,2,1,60,0,0
76260,-100,4,2,1,50,0,0

[Colours]
Combo1 : 255,83,83
Combo2 : 255,170,213
Combo3 : 255,128,128
Combo4 : 189,123,123
Combo5 : 255,139,83

[HitObjects]
65,125,831,6,0,P|19:177|48:256,2,144,2|2|2,0:0|0:0|0:0,0:0:0:0:
140,69,2545,1,0,0:0:0:0:
229,96,2888,2,0,L|313:79,1,72,2|2,0:0|0:0,0:0:0:0:
374,138,3574,6,0,P|406:107|387:9,2,144,2|2|2,0:0|0:0|1:2,0:0:0:0:
344,226,5288,2,0,P|387:230|430:246,2,72,2|2|2,1:2|1:2|1:2,0:0:0:0:
244,226,6317,6,0,L|262:333,1,90,6|8,3:2|0:0,0:0:0:0:
165,348,7002,2,0,L|150:259,1,90,0|8,0:0|0:0,0:0:0:0:
131,161,7688,2,0,L|23:183,1,90,2|8,0:0|0:0,0:0:0:0:
31,80,8374,2,0,L|16:23,2,45,0|10|8,0:0|0:0|0:0,0:0:0:0:
125,50,9060,6,0,L|214:64,1,90,2|8,0:0|0:0,0:0:0:0:
312,39,9745,2,0,L|401:53,1,90,0|8,0:0|0:0,0:0:0:0:
482,109,10431,2,0,P|458:143|454:204,1,90,0|8,3:0|3:2,0:0:0:0:
505,273,11117,1,0,1:2:0:0:
435,343,11460,1,0,1:2:0:0:
361,275,11802,6,0,P|323:258|254:261,1,90,6|8,3:2|3:2,0:0:0:0:
214,334,12488,2,0,P|172:351|128:353,1,90,0|8,3:0|3:2,0:0:0:0:
52,287,13174,1,0,3:0:0:0:
21,192,13517,1,8,3:2:0:0:
51,97,13860,2,0,L|-6:84,2,45,0|8|8,3:2|0:0|3:2,0:0:0:0:
133,41,14545,6,0,L|241:28,2,90,2|10|2,3:2|3:2|3:2,0:0:0:0:
84,127,15574,1,10,3:2:0:0:
183,127,15917,2,0,P|229:135|293:162,1,90,2|8,3:2|3:2,0:0:0:0:
366,128,16602,2,0,L|389:77,2,45,2|8|8,3:2|0:0|3:2,0:0:0:0:
344,224,17288,5,6,3:2:0:0:
361,321,17631,1,0,1:0:0:0:
266,351,17974,2,0,P|209:314|127:328,1,135,0|2,3:0|0:0,0:0:0:0:
50,291,18831,2,0,L|33:343,2,45,2|0|2,3:2|1:0|0:2,0:0:0:0:
72,194,19517,2,0,L|62:123,1,45,2|0,0:0|1:0,0:0:0:0:
52,51,20031,5,0,3:2:0:0:
146,81,20374,1,0,1:0:0:0:
240,111,20717,2,0,P|290:71|373:80,1,135,0|2,3:0|3:2,0:0:0:0:
456,85,21574,1,2,3:2:0:0:
399,163,21917,2,0,B|391:249|391:249|425:263|443:297,1,135,2|0,3:2|1:0,0:0:0:0:
389,367,22774,6,0,P|429:329|519:337,2,135,0|2|0,3:2|0:0|1:2,0:0:0:0:
292,344,24145,1,2,0:0:0:0:
195,322,24488,1,0,1:0:0:0:
100,352,24831,2,0,P|76:316|81:243,1,90,0|0,3:0|1:0,0:0:0:0:
59,171,25517,6,0,L|1:182,2,45,0|0|6,3:0|3:0|3:2,0:0:0:0:
126,97,26202,2,0,P|145:43|227:39,2,135,0|4|4,3:0|3:1|1:2,0:0:0:0:
215,140,27574,2,0,P|257:150|328:153,1,90,0|0,3:0|1:0,0:0:0:0:
394,113,28260,6,0,P|417:152|412:201,1,90,4|2,3:2|1:2,0:0:0:0:
360,277,28945,2,0,P|431:243|492:262,2,135,2|2|0,0:0|3:2|1:0,0:0:0:0:
279,335,30317,2,0,P|251:303|249:243,1,90,0|0,0:0|1:0,0:0:0:0:
278,164,31002,5,2,3:2:0:0:
181,184,31345,1,0,1:0:0:0:
115,109,31688,2,0,P|41:141|38:208,1,135,2|2,0:0|3:2,0:0:0:0:
27,290,32545,2,0,L|16:342,2,45,2|0|2,3:2|1:2|3:2,0:0:0:0:
114,243,33231,2,0,L|184:232,1,45,0|0,3:0|1:0,0:0:0:0:
250,268,33745,5,2,3:2:0:0:
303,184,34088,1,2,1:2:0:0:
386,237,34431,2,0,P|469:233|492:177,1,135,0|2,3:0|3:2,0:0:0:0:
463,99,35288,2,0,L|475:47,2,45,0|0|2,3:2|1:0|3:2,0:0:0:0:
369,64,35974,2,0,L|287:49,1,45,2|0,3:2|1:0,0:0:0:0:
230,26,36488,6,0,P|181:29|122:43,1,90,0|0,3:2|1:0,0:0:0:0:
41,37,37174,2,0,P|100:64|96:158,1,135,2|2,0:0|3:2,0:0:0:0:
46,201,38031,1,0,3:0:0:0:
112,274,38374,2,0,B|180:258|166:335|254:302,1,135,2|2,0:0|1:2,0:0:0:0:
329,275,39231,6,0,P|317:327|311:392,1,90,6|0,3:2|1:0,0:0:0:0:
411,372,39917,2,0,P|423:320|429:255,1,90,2|0,0:0|1:0,0:0:0:0:
400,188,40602,2,0,B|448:177|489:207|489:207|519:183|504:146,2,135,2|2|2,0:0|0:0|1:2,0:0:0:0:
337,110,41974,6,0,P|288:105|240:80,1,90,2|0,3:2|1:0,0:0:0:0:
153,70,42660,2,0,P|104:75|56:100,1,90,2|0,0:0|1:0,0:0:0:0:
34,186,43345,2,0,B|38:232|18:271|18:271|43:283|58:313,2,135,2|8|8,3:2|3:3|0:3,0:0:0:0:
131,166,44717,5,4,3:2:0:0:
227,188,45060,1,0,3:2:0:0:
313,141,45402,2,0,P|336:183|334:249,1,90,0|2,1:0|3:2,0:0:0:0:
336,323,46088,2,0,L|425:311,2,90,2|2|0,3:2|3:2|1:0,0:0:0:0:
246,366,47117,1,0,3:2:0:0:
160,312,47460,6,0,P|137:270|139:204,1,90,6|0,3:2|1:0,0:0:0:0:
83,142,48145,2,0,L|21:153,2,45,2|2|0,3:2|3:2|1:0,0:0:0:0:
144,64,48831,2,0,P|189:72|232:82,1,90,2|0,3:2|1:0,0:0:0:0:
327,52,49517,2,0,P|371:38|436:32,1,90,0|0,3:0|1:0,0:0:0:0:
467,115,50202,5,4,1:2:0:0:
434,208,50545,1,2,1:2:0:0:
343,247,50888,2,0,B|420:237|398:305|471:291,2,135,2|4|2,1:2|3:2|1:2,0:0:0:0:
289,330,52260,1,2,1:2:0:0:
196,296,52602,1,2,1:2:0:0:
103,330,52945,6,0,B|57:352|57:352|-3:321|15:248,2,135,6|2|0,3:2|0:0|1:0,0:0:0:0:
196,296,54317,2,0,P|266:308|336:315,2,135,2|2|0,0:0|0:0|1:0,0:0:0:0:
116,237,55688,6,0,P|100:195|99:136,1,90,2|0,3:2|1:0,0:0:0:0:
104,51,56374,2,0,L|212:73,1,90,0|0,3:0|1:0,0:0:0:0:
289,42,57060,2,0,P|331:25|386:21,2,90,2|0|0,0:0|1:0|0:0,0:0:0:0:
211,103,58088,1,0,1:0:0:0:
291,161,58431,5,4,3:2:0:0:
248,250,58774,2,0,L|257:363,2,90,0|2|2,1:0|0:0|1:2,0:0:0:0:
351,241,59802,2,0,P|388:289|482:266,2,135,0|2|2,3:2|0:0|1:2,0:0:0:0:
291,161,61174,6,0,P|248:150|193:147,1,90,2|0,3:2|1:0,0:0:0:0:
113,190,61860,2,0,P|82:149|86:92,1,90,2|0,0:0|1:2,0:0:0:0:
154,46,62545,1,2,0:0:0:0:
249,20,62888,1,0,1:0:0:0:
333,71,63231,1,2,3:2:0:0:
428,45,63574,1,2,1:2:0:0:
492,119,63917,6,0,P|467:178|479:255,2,135,6|2|0,3:2|0:0|1:0,0:0:0:0:
428,45,65288,2,0,B|384:40|336:52|336:52|307:17,2,135,2|2|0,0:0|0:0|1:0,0:0:0:0:
389,136,66660,6,0,P|339:141|298:157,1,90,2|2,3:2|1:2,0:0:0:0:
220,211,67345,2,0,P|184:177|187:112,1,90,0|0,3:2|1:0,0:0:0:0:
81,113,68031,2,0,L|95:23,2,90,2|0|0,0:0|1:0|0:0,0:0:0:0:
13,185,69060,1,0,1:0:0:0:
89,252,69402,6,0,P|135:244|199:237,1,90,6|2,3:2|1:2,0:0:0:0:
244,312,70088,1,2,0:0:0:0:
342,298,70431,1,0,1:0:0:0:
434,333,70774,2,0,B|462:310|500:308|500:308|494:280|510:222,2,135,2|2|0,3:2|0:0|1:0,0:0:0:0:
352,277,72145,6,0,P|329:221|399:142,1,135,6|4,3:2|3:2,0:0:0:0:
362,9,73174,2,0,P|325:56|221:35,1,135,4|4,3:2|3:2,0:0:0:0:
123,129,74202,2,0,P|182:137|216:237,1,135,4|4,3:2|0:0,0:0:0:0:
139,376,75402,2,0,B|101:344|101:344|107:302|124:237,1,135,0|8,1:0|0:3,0:0:0:0:
209,221,76260,6,0,L|301:207,1,90,4|0,3:2|1:0,0:0:0:0:
379,263,76945,2,0,P|423:297|520:257,2,135,0|2|0,3:0|3:2|1:0,0:0:0:0:
406,167,78317,2,0,P|416:120|416:65,1,90,0|0,3:0|1:0,0:0:0:0:
344,10,79002,5,0,3:2:0:0:
268,73,79345,1,4,1:2:0:0:
177,33,79688,2,0,B|121:39|84:52|84:52|36:31,2,135,2|2|0,3:2|3:2|1:0,0:0:0:0:
160,130,81060,2,0,P|125:172|127:217,1,90,0|2,3:0|1:2,0:0:0:0:
131,304,81745,6,0,B|49:321|73:255|-18:276,2,135,2|2|0,3:2|0:0|1:0,0:0:0:0:
226,330,83117,2,0,B|274:337|316:349|316:349|350:309,2,135,2|2|0,3:2|0:0|1:2,0:0:0:0:
234,231,84488,5,2,1:2:0:0:
330,210,84831,1,2,1:2:0:0:
426,189,85174,2,0,P|460:135|396:69,2,135,0|2|4,1:0|3:0|3:2,0:0:0:0:
326,187,86545,2,0,L|307:93,1,90,0|0,1:0|1:0,0:0:0:0:
222,49,87231,5,0,1:0:0:0:
136,99,87574,2,0,P|98:166|182:235,1,180,4|0,3:2|0:0,0:0:0:0:
