osu file format v14

[General]
AudioFilename: audio.mp3
AudioLeadIn: 0
PreviewTime: 52860
Countdown: 0
SampleSet: Normal
StackLeniency: 0.7
Mode: 1
LetterboxInBreaks: 0
WidescreenStoryboard: 0

[Editor]
Bookmarks: 17288,52945,63917,76260
DistanceSpacing: 0.5
BeatDivisor: 4
GridSize: 32
TimelineZoom: 1

[Metadata]
Title:Gotoubun no Kimochi (TV Size)
TitleUnicode:五等分の気持ち (TV Size)
Artist:Nakanoke no Itsutsugo
ArtistUnicode:中野家の五つ子
Creator:Faputa
Version:Futsuu
Source:五等分の花嫁
Tags:BlackBq jacky10186 The Five Wedded Brides The Quintessential Quintuplets opening op hanayome anime Japanese
BeatmapID:1948436
BeatmapSetID:933284

[Difficulty]
HPDrainRate:7
CircleSize:5
OverallDifficulty:4
ApproachRate:5
SliderMultiplier:1.4
SliderTickRate:1

[Events]
//Background and Video events
0,0,"notfurro.jpg",0,-50
Video,-20,"video.mp4"
//Break Periods
//Storyboard Layer 0 (Background)
//Storyboard Layer 1 (Fail)
//Storyboard Layer 2 (Pass)
//Storyboard Layer 3 (Foreground)
//Storyboard Layer 4 (Overlay)
//Storyboard Sound Samples

[TimingPoints]
-540,342.857142857143,4,1,0,68,1,0
745,-100,4,1,0,68,0,0
6231,-100,4,1,0,75,0,0
11716,-100,4,1,0,80,0,0
17202,-100,4,1,0,90,0,0
28174,-100,4,1,0,85,0,0
47374,-100,4,1,0,88,0,0
52945,-100,4,1,0,90,0,1
76260,-100,4,1,0,90,0,0

[HitObjects]
256,192,831,5,8,0:0:0:0:
256,192,1517,1,8,0:0:0:0:
256,192,2202,1,8,0:0:0:0:
256,192,2545,1,0,0:0:0:0:
256,192,2888,1,8,0:0:0:0:
256,192,3574,1,0,0:0:0:0:
256,192,4260,1,0,0:0:0:0:
256,192,4945,1,0,0:0:0:0:
256,192,5288,1,8,0:0:0:0:
256,192,5631,1,0,0:0:0:0:
256,192,6317,1,12,0:0:0:0:
256,192,7002,1,0,0:0:0:0:
256,192,7345,1,8,0:0:0:0:
256,192,7517,1,8,0:0:0:0:
256,192,7688,1,0,0:0:0:0:
256,192,8031,1,8,0:0:0:0:
256,192,8202,1,0,0:0:0:0:
256,192,8545,1,8,0:0:0:0:
256,192,8717,1,8,0:0:0:0:
256,192,9060,1,0,0:0:0:0:
256,192,9745,1,0,0:0:0:0:
256,192,9917,1,0,0:0:0:0:
256,192,10088,1,8,0:0:0:0:
256,192,10431,1,0,0:0:0:0:
256,192,10774,1,8,0:0:0:0:
256,192,10945,1,0,0:0:0:0:
256,192,11288,1,8,0:0:0:0:
256,192,11460,1,8,0:0:0:0:
256,192,11802,1,4,0:0:0:0:
256,192,12488,1,8,0:0:0:0:
256,192,12831,1,8,0:0:0:0:
256,192,13174,1,0,0:0:0:0:
256,192,13517,1,8,0:0:0:0:
256,192,14031,1,8,0:0:0:0:
256,192,14202,1,8,0:0:0:0:
256,192,14545,1,0,0:0:0:0:
256,192,14888,1,8,0:0:0:0:
256,192,15231,1,8,0:0:0:0:
256,192,15574,1,0,0:0:0:0:
256,192,15917,1,8,0:0:0:0:
256,192,16602,1,0,0:0:0:0:
256,192,16774,1,8,0:0:0:0:
256,192,16945,1,8,0:0:0:0:
256,192,17288,1,4,0:0:0:0:
256,192,17974,1,8,0:0:0:0:
256,192,18317,1,8,0:0:0:0:
256,192,18660,1,0,0:0:0:0:
256,192,19002,1,8,0:0:0:0:
256,192,19345,1,0,0:0:0:0:
256,192,19688,1,8,0:0:0:0:
256,192,19860,1,8,0:0:0:0:
256,192,20031,1,0,0:0:0:0:
256,192,20717,1,0,0:0:0:0:
256,192,21060,1,8,0:0:0:0:
256,192,21402,1,8,0:0:0:0:
256,192,21745,1,0,0:0:0:0:
256,192,22088,1,8,0:0:0:0:
256,192,22431,1,0,0:0:0:0:
256,192,22602,1,0,0:0:0:0:
256,192,22774,1,8,0:0:0:0:
256,192,23460,1,0,0:0:0:0:
256,192,23802,1,8,0:0:0:0:
256,192,24145,1,0,0:0:0:0:
256,192,24488,1,8,0:0:0:0:
256,192,24660,1,8,0:0:0:0:
256,192,24831,1,0,0:0:0:0:
256,192,25174,1,8,0:0:0:0:
256,192,25517,1,0,0:0:0:0:
256,192,25860,1,0,0:0:0:0:
256,192,26202,1,8,0:0:0:0:
256,192,26545,1,0,0:0:0:0:
256,192,26717,1,8,0:0:0:0:
256,192,27231,1,12,0:0:0:0:
256,192,28260,1,4,0:0:0:0:
256,192,28602,1,8,0:0:0:0:
256,192,28945,1,0,0:0:0:0:
256,192,29288,1,8,0:0:0:0:
256,192,29631,1,0,0:0:0:0:
256,192,29974,1,8,0:0:0:0:
256,192,30317,1,0,0:0:0:0:
256,192,30488,1,0,0:0:0:0:
256,192,30660,1,8,0:0:0:0:
256,192,31345,1,8,0:0:0:0:
256,192,31688,1,0,0:0:0:0:
256,192,32031,1,8,0:0:0:0:
256,192,32202,1,0,0:0:0:0:
256,192,32545,1,0,0:0:0:0:
256,192,32717,1,8,0:0:0:0:
256,192,32888,1,0,0:0:0:0:
256,192,33231,1,8,0:0:0:0:
256,192,33574,1,8,0:0:0:0:
256,192,34088,1,8,0:0:0:0:
256,192,34431,1,0,0:0:0:0:
256,192,34774,1,8,0:0:0:0:
256,192,34945,1,8,0:0:0:0:
256,192,35460,1,8,0:0:0:0:
256,192,35802,1,0,0:0:0:0:
256,192,36145,1,8,0:0:0:0:
256,192,36317,1,8,0:0:0:0:
256,192,36488,1,0,0:0:0:0:
256,192,36831,1,8,0:0:0:0:
256,192,37688,1,8,0:0:0:0:
256,192,38031,1,8,0:0:0:0:
256,192,38202,1,0,0:0:0:0:
256,192,38374,1,8,0:0:0:0:
256,192,39231,1,4,0:0:0:0:
256,192,39917,1,8,0:0:0:0:
256,192,40260,1,0,0:0:0:0:
256,192,40431,1,0,0:0:0:0:
256,192,40602,1,8,0:0:0:0:
256,192,40945,1,8,0:0:0:0:
256,192,41117,1,0,0:0:0:0:
256,192,41460,1,8,0:0:0:0:
256,192,41631,1,8,0:0:0:0:
256,192,41974,1,0,0:0:0:0:
256,192,42660,1,8,0:0:0:0:
256,192,43002,1,0,0:0:0:0:
256,192,43174,1,8,0:0:0:0:
256,192,43345,1,8,0:0:0:0:
256,192,43688,1,8,0:0:0:0:
256,192,43860,1,0,0:0:0:0:
256,192,44202,1,8,0:0:0:0:
256,192,44717,1,4,0:0:0:0:
256,192,45402,1,8,0:0:0:0:
256,192,45745,1,0,0:0:0:0:
256,192,45917,1,0,0:0:0:0:
256,192,46088,1,8,0:0:0:0:
256,192,46431,1,0,0:0:0:0:
256,192,46774,1,8,0:0:0:0:
256,192,47117,1,8,0:0:0:0:
256,192,47460,1,4,0:0:0:0:
256,192,47974,1,0,0:0:0:0:
256,192,48145,1,8,0:0:0:0:
256,192,48488,1,0,0:0:0:0:
256,192,48831,1,8,0:0:0:0:
256,192,49345,1,8,0:0:0:0:
256,192,49517,1,0,0:0:0:0:
256,192,49860,1,8,0:0:0:0:
256,192,50202,1,0,0:0:0:0:
256,192,50545,1,8,0:0:0:0:
256,192,50888,1,0,0:0:0:0:
256,192,51231,1,8,0:0:0:0:
256,192,51402,1,4,0:0:0:0:
256,192,51917,1,8,0:0:0:0:
256,192,52260,1,8,0:0:0:0:
256,192,52431,1,8,0:0:0:0:
256,192,52602,1,0,0:0:0:0:
256,192,52945,1,12,0:0:0:0:
256,192,53288,1,0,0:0:0:0:
256,192,53974,1,8,0:0:0:0:
256,192,54145,1,0,0:0:0:0:
256,192,54317,1,8,0:0:0:0:
256,192,54660,1,8,0:0:0:0:
256,192,55002,1,0,0:0:0:0:
256,192,55345,1,0,0:0:0:0:
256,192,55688,1,8,0:0:0:0:
256,192,56031,1,0,0:0:0:0:
256,192,56717,1,8,0:0:0:0:
256,192,56888,1,8,0:0:0:0:
256,192,57060,1,0,0:0:0:0:
256,192,57402,1,8,0:0:0:0:
256,192,57745,1,8,0:0:0:0:
256,192,58088,1,0,0:0:0:0:
256,192,58260,1,0,0:0:0:0:
256,192,58431,1,8,0:0:0:0:
256,192,58774,1,8,0:0:0:0:
256,192,59117,1,0,0:0:0:0:
256,192,59460,1,8,0:0:0:0:
256,192,59802,1,0,0:0:0:0:
256,192,60145,1,8,0:0:0:0:
256,192,60317,1,8,0:0:0:0:
256,192,60831,1,8,0:0:0:0:
256,192,61174,1,0,0:0:0:0:
256,192,61517,1,0,0:0:0:0:
256,192,61860,1,8,0:0:0:0:
256,192,62545,1,8,0:0:0:0:
256,192,62888,1,8,0:0:0:0:
256,192,63231,1,0,0:0:0:0:
256,192,63402,1,8,0:0:0:0:
256,192,63574,1,8,0:0:0:0:
256,192,63917,1,12,0:0:0:0:
256,192,64260,1,0,0:0:0:0:
256,192,64945,1,8,0:0:0:0:
256,192,65117,1,0,0:0:0:0:
256,192,65288,1,8,0:0:0:0:
256,192,65631,1,8,0:0:0:0:
256,192,65974,1,0,0:0:0:0:
256,192,66317,1,0,0:0:0:0:
256,192,66660,1,8,0:0:0:0:
256,192,67002,1,0,0:0:0:0:
256,192,67688,1,8,0:0:0:0:
256,192,67860,1,8,0:0:0:0:
256,192,68031,1,0,0:0:0:0:
256,192,68374,1,8,0:0:0:0:
256,192,68717,1,8,0:0:0:0:
256,192,69060,1,0,0:0:0:0:
256,192,69231,1,0,0:0:0:0:
256,192,69402,1,8,0:0:0:0:
256,192,69745,1,0,0:0:0:0:
256,192,70088,1,0,0:0:0:0:
256,192,70431,1,8,0:0:0:0:
256,192,70774,1,0,0:0:0:0:
256,192,71117,1,8,0:0:0:0:
256,192,71288,1,8,0:0:0:0:
256,192,71631,1,0,0:0:0:0:
256,192,71802,1,8,0:0:0:0:
256,192,72145,1,0,0:0:0:0:
256,192,72660,1,8,0:0:0:0:
256,192,73174,1,8,0:0:0:0:
256,192,73688,1,0,0:0:0:0:
256,192,74202,1,8,0:0:0:0:
256,192,74374,1,8,0:0:0:0:
256,192,74545,1,0,0:0:0:0:
256,192,74717,1,8,0:0:0:0:
256,192,75574,1,8,0:0:0:0:
256,192,75745,1,0,0:0:0:0:
256,192,75917,1,8,0:0:0:0:
256,192,76260,1,4,0:0:0:0:
256,192,76945,1,8,0:0:0:0:
256,192,77288,1,8,0:0:0:0:
256,192,77460,1,8,0:0:0:0:
256,192,77802,1,0,0:0:0:0:
256,192,77974,1,8,0:0:0:0:
256,192,78145,1,8,0:0:0:0:
256,192,78488,1,0,0:0:0:0:
256,192,78660,1,8,0:0:0:0:
256,192,79002,1,0,0:0:0:0:
256,192,79688,1,8,0:0:0:0:
256,192,80031,1,0,0:0:0:0:
256,192,80202,1,0,0:0:0:0:
256,192,80545,1,8,0:0:0:0:
256,192,80717,1,0,0:0:0:0:
256,192,80888,1,0,0:0:0:0:
256,192,81231,1,8,0:0:0:0:
256,192,81402,1,0,0:0:0:0:
256,192,81745,1,8,0:0:0:0:
256,192,82431,1,0,0:0:0:0:
256,192,82774,1,8,0:0:0:0:
256,192,83117,1,0,0:0:0:0:
256,192,83460,1,8,0:0:0:0:
256,192,83631,1,8,0:0:0:0:
256,192,83802,1,0,0:0:0:0:
256,192,84145,1,8,0:0:0:0:
256,192,84488,1,0,0:0:0:0:
256,192,84831,1,8,0:0:0:0:
256,192,85002,1,8,0:0:0:0:
256,192,85345,1,0,0:0:0:0:
256,192,85517,1,8,0:0:0:0:
256,192,85860,1,0,0:0:0:0:
256,192,86202,1,12,0:0:0:0:
256,192,86717,1,8,0:0:0:0:
256,192,86888,1,8,0:0:0:0:
256,192,87574,1,4,0:0:0:0:
