osu file format v14

[General]
AudioFilename: audio.mp3
AudioLeadIn: 0
PreviewTime: 167727
Countdown: 0
SampleSet: Soft
StackLeniency: 0.7
Mode: 0
LetterboxInBreaks: 0
WidescreenStoryboard: 1

[Editor]
Bookmarks: 146127,146130,146213,146302,146385,146516,146687,146859,146987,147202,147373,147545,147716,147887,148016,148187,148359,148530,148702,148873,149045,149216,149387,149516,149687,149859,150030,150202,150373,150545,150716,150887,151059,151187,151359,151530,151702,151873,152002,152130,152302,152473,152602,152773,152945,153073,153202,153330,153502,153630,153759,153930,154059,154102,154145,154273,154359,154487,154573,154616,154702,154745,154873,155002,155130,155259,155430,155559,155687,155816,155945,156073,156245,156373,168073,168245,168416,168587,168759,168930,169102,169230,169402,169616,169787,169959,170130,170302,170473,170645,170816,170987,171116,171242,171287,171413,171459,171585,171630,171756,171842,171845,171973,172145,172316,172530,172702,172873,173045,173173,173387,173516,173687,173859,174030,174116,174202,174245,174330,174416,174459,174545,174673,174716,174802,174887,175059,175230,175445,175573,175745,175916,176087,176259,176430,176602,176773,176945,177116
DistanceSpacing: 1.1
BeatDivisor: 4
GridSize: 8
TimelineZoom: 2.9

[Metadata]
Title:Gotoubun no Kimochi
TitleUnicode:五等分の気持ち
Artist:Nakanoke no Itsutsugo
ArtistUnicode:中野家の五つ子
Creator:SkyFlame
Version:Extra: Nino
Source:五等分の花嫁
Tags:5toubun no hanayome 5hanayome 5-toubun go-toubun 中野 一花 二乃 三玖 四葉 五月 Miku Yotsuba Nino Itsuki Ichika 水瀬 いのり Minase Inori 佐倉 綾音 Sakura Ayane ayaneru 伊藤 美来 Itou 竹達 彩奈 Taketatsu Ayana 花澤 香菜 Hanazawa Kana hanakana The Five Wedded Brides The Quintessential Quintuplets opening op full ver. version japanese anime female vocal meg image-- Little CloudSplash16 kibbleru schoolboy komore doormat kalibe serizawa haruki kowari Jack J_a_c_k garden
BeatmapID:1946507
BeatmapSetID:932291

[Difficulty]
HPDrainRate:5
CircleSize:3.8
OverallDifficulty:9.3
ApproachRate:9.2
SliderMultiplier:1.72
SliderTickRate:1

[Events]
//Background and Video events
0,0,"nino.jpg",0,0
//Break Periods
2,146156,156357
2,168099,176929
//Storyboard Layer 0 (Background)
//Storyboard Layer 1 (Fail)
//Storyboard Layer 2 (Pass)
//Storyboard Layer 3 (Foreground)
//Storyboard Layer 4 (Overlay)
//Storyboard Sound Samples

[TimingPoints]
585,342.857142857143,4,2,1,50,1,0
585,-166.666666666667,4,2,1,50,0,0
4699,-125,4,2,1,56,0,0
5385,-166.666666666667,4,2,1,58,0,0
6070,-142.857142857143,4,2,1,60,0,0
10185,-142.857142857143,4,2,1,62,0,0
11042,-142.857142857143,4,2,1,64,0,0
11556,-125,4,2,1,66,0,0
14299,-111.111111111111,4,2,1,68,0,0
17042,-100,4,2,1,70,0,0
26985,-142.857142857143,4,2,1,80,0,0
27499,-111.111111111111,4,2,1,80,0,0
28013,-111.111111111111,4,2,1,60,0,0
38985,-100,4,2,1,65,0,0
44470,-133.333333333333,4,2,1,60,0,0
45499,-133.333333333333,4,2,1,65,0,0
47213,-100,4,2,1,65,0,0
49956,-100,4,2,1,70,0,0
51327,-100,4,2,1,60,0,0
51670,-100,4,2,1,65,0,0
52013,-100,4,2,1,70,0,0
52356,-100,4,2,1,75,0,0
52699,-83.3333333333333,4,2,1,80,0,1
58527,-83.3333333333333,4,2,1,76,0,1
60585,-83.3333333333333,4,2,1,82,0,1
63156,-76.9230769230769,4,2,1,80,0,1
63585,-83.3333333333333,4,2,1,80,0,0
63670,-83.3333333333333,4,2,1,80,0,1
69499,-83.3333333333333,4,2,1,76,0,1
71899,-83.3333333333333,4,2,1,80,0,1
74813,-83.3333333333333,4,2,1,82,0,1
76013,-100,4,2,1,70,0,0
85442,-100,4,2,1,65,0,0
85785,-100,4,2,1,50,0,0
86642,-100,4,2,1,50,0,0
86985,-125,4,2,1,80,0,0
87499,-125,4,2,1,55,0,0
89385,-125,4,2,1,60,0,0
89727,-111.111111111111,4,2,1,80,0,0
90242,-111.111111111111,4,2,1,60,0,0
90927,-90.9090909090909,4,2,1,80,0,0
92470,-111.111111111111,4,2,1,70,0,0
97956,-133.333333333333,4,2,1,60,0,0
102070,-76.9230769230769,4,2,1,80,0,0
103442,-133.333333333333,4,2,1,60,0,0
104470,-133.333333333333,4,2,1,65,0,0
106185,-100,4,2,1,65,0,0
108927,-100,4,2,1,70,0,0
110299,-100,4,2,1,60,0,0
110642,-100,4,2,1,70,0,0
111670,-83.3333333333333,4,2,1,80,0,1
117499,-83.3333333333333,4,2,1,76,0,1
119556,-83.3333333333333,4,2,1,82,0,1
122127,-76.9230769230769,4,2,1,80,0,1
122556,-83.3333333333333,4,2,1,80,0,0
122642,-83.3333333333333,4,2,1,80,0,1
128470,-83.3333333333333,4,2,1,76,0,1
130870,-83.3333333333333,4,2,1,80,0,1
133442,-83.3333333333333,4,2,1,80,0,1
133785,-83.3333333333333,4,2,1,82,0,1
134985,-95.2380952380952,4,2,1,72,0,0
143213,-100,4,2,1,74,0,0
144756,-100,4,2,1,70,0,0
145956,-166.666666666667,4,2,1,45,0,0
156927,-133.333333333333,4,2,1,55,0,0
159670,-133.333333333333,4,2,1,60,0,0
162413,-133.333333333333,4,2,1,65,0,0
163099,-125,4,2,1,70,0,0
164985,-100,4,2,1,70,0,0
166527,-100,4,2,1,70,0,0
167899,-133.333333333333,4,2,1,50,0,0
173727,-133.333333333333,4,2,1,50,0,0
175785,-133.333333333333,4,2,1,60,0,0
177499,-100,4,2,1,65,0,0
178870,-83.3333333333333,4,2,1,80,0,1
184699,-83.3333333333333,4,2,1,76,0,1
186756,-83.3333333333333,4,2,1,82,0,1
189327,-83.3333333333333,4,2,1,80,0,1
189756,-83.3333333333333,4,2,1,80,0,0
189842,-83.3333333333333,4,2,1,80,0,1
195670,-83.3333333333333,4,2,1,76,0,1
198070,-83.3333333333333,4,2,1,80,0,1
203385,-83.3333333333333,4,2,1,80,0,1
203727,-83.3333333333333,4,2,1,82,0,1
204927,-100,4,2,1,74,0,0
213156,-100,4,2,1,78,0,0
216242,-111.111111111111,4,2,1,80,0,0
216585,-111.111111111111,4,2,1,65,0,0
216756,-111.111111111111,4,2,1,45,0,0
216927,-111.111111111111,4,2,1,15,0,0

[Colours]
Combo1 : 225,191,196
Combo2 : 211,122,84
Combo3 : 139,203,250
Combo4 : 177,22,53
SliderBorder : 211,122,84

[HitObjects]
234,81,585,69,2,0:0:0:0:
512,166,1270,1,2,0:0:0:0:
208,253,1956,1,2,0:0:0:0:
311,128,2299,6,0,P|322:90|300:20,2,103.199996850586,2|2|2,0:0|0:0|0:0,0:0:0:0:
268,196,3327,6,0,L|256:244,7,25.7999992126465,2|0|0|0|0|0|0|0,0:0|0:0|0:0|0:0|0:0|0:0|0:0|0:0,0:0:0:0:
380,308,4013,2,0,L|368:260,3,25.7999992126465,2|0|0|0,0:0|0:0|0:0|0:0,0:0:0:0:
232,358,4356,2,0,L|220:406,3,25.7999992126465,8|0|0|0,0:0|0:0|0:0|0:0,0:0:0:0:
155,270,4699,5,10,0:0:0:0:
155,270,4785,1,8,0:0:0:0:
155,270,4870,2,0,L|145:227,1,34.4,8|8,0:0|0:0,0:0:0:0:
56,159,5042,1,10,0:0:0:0:
56,159,5127,1,8,0:0:0:0:
56,159,5213,2,0,L|67:116,1,34.4,8|8,0:0|0:0,0:0:0:0:
170,56,5385,5,10,0:0:0:0:
203,34,5470,1,8,0:0:0:0:
246,36,5556,1,8,0:0:0:0:
283,53,5642,1,8,0:0:0:0:
309,85,5727,1,8,0:0:0:0:
331,120,5813,1,8,0:0:0:0:
366,146,5899,1,8,0:0:0:0:
406,153,5985,1,8,0:0:0:0:
445,138,6070,6,0,P|458:105|463:19,1,120.399996325684,6|2,1:2|1:0,0:0:0:0:
371,1,6585,2,0,L|386:82,1,60.1999981628419,2|0,0:0|0:0,0:0:0:0:
415,237,6927,1,2,0:0:0:0:
324,231,7099,2,0,P|330:198|362:165,1,60.1999981628419,0|2,1:2|0:0,0:0:0:0:
386,331,7442,6,0,P|317:310|245:313,1,120.399996325684,2|2,0:0|1:2,0:0:0:0:
127,354,7956,2,0,L|118:283,1,60.1999981628419,2|0,0:0|0:0,0:0:0:0:
185,142,8299,1,2,1:2:0:0:
185,142,8470,2,0,L|178:202,1,60.1999981628419,0|2,1:2|0:0,0:0:0:0:
109,100,8813,6,0,P|145:65|229:68,1,120.399996325684,2|2,0:0|1:2,0:0:0:0:
346,175,9327,2,0,P|314:183|277:178,1,60.1999981628419,2|0,0:0|0:0,0:0:0:0:
451,85,9670,1,2,0:0:0:0:
451,85,9842,2,0,L|442:154,1,60.1999981628419,0|2,1:2|1:2,0:0:0:0:
427,265,10185,5,10,3:2:0:0:
416,300,10270,1,0,3:2:0:0:
389,325,10356,1,0,3:2:0:0:
354,337,10442,1,0,3:2:0:0:
318,332,10527,1,2,1:2:0:0:
287,312,10613,1,0,3:2:0:0:
268,280,10699,1,2,3:2:0:0:
264,244,10785,1,0,3:2:0:0:
276,210,10870,6,0,P|288:175|289:154,1,30.0999990814209,8|8,0:0|0:0,0:0:0:0:
158,90,11041,2,0,P|162:109|170:126,1,30.0999990814209,10|8,1:2|0:0,0:0:0:0:
313,88,11213,2,0,P|323:57|325:40,1,30.0999990814209,8|8,1:2|0:0,0:0:0:0:
147,109,11384,2,0,P|152:127|160:144,1,30.0999990814209,10|8,0:0|0:0,0:0:0:0:
351,251,11556,6,0,L|440:234,1,68.8,6|0,1:2|0:0,0:0:0:0:
185,215,11899,2,0,L|117:227,1,68.8,10|2,1:2|0:0,0:0:0:0:
286,151,12242,2,0,L|273:83,1,68.8,0|2,1:0|0:0,0:0:0:0:
250,317,12585,2,0,L|262:384,1,68.8,8|2,0:0|0:0,0:0:0:0:
351,251,12927,5,0,1:0:0:0:
185,215,13099,1,0,0:0:0:0:
365,117,13270,2,0,L|352:49,1,68.8,8|0,1:2|0:0,0:0:0:0:
186,13,13613,5,0,1:0:0:0:
352,49,13785,1,8,1:2:0:0:
172,147,13956,2,0,L|185:215,1,68.8,8|0,1:2|0:0,0:0:0:0:
314,303,14299,6,0,P|396:284|466:273,2,154.799995275879,2|10|2,1:2|0:0|1:2,0:0:0:0:
179,369,15156,1,0,0:0:0:0:
108,232,15327,2,0,L|121:139,1,77.3999976379395,10|0,0:0|0:0,0:0:0:0:
88,33,15670,6,0,P|116:60|246:48,1,154.799995275879,2|8,1:2|0:0,0:0:0:0:
350,0,16185,1,0,0:0:0:0:
249,77,16356,1,2,1:2:0:0:
374,155,16527,1,8,0:0:0:0:
374,155,16699,2,0,L|355:273,1,116.099996456909,8|0,1:2|0:0,0:0:0:0:
346,311,17042,6,0,P|292:326|248:315,1,86,6|2,1:2|0:0,0:0:0:0:
82,153,17385,2,0,L|194:128,1,86,10|2,0:0|0:0,0:0:0:0:
238,334,17727,1,2,1:2:0:0:
194,125,17899,1,2,0:0:0:0:
209,335,18070,1,10,0:0:0:0:
222,123,18242,1,2,1:2:0:0:
107,298,18413,5,2,0:0:0:0:
301,167,18585,2,0,P|311:119|275:56,1,86,2|8,1:2|0:0,0:0:0:0:
75,205,18927,2,0,L|179:221,1,86,2|0,0:0|1:2,0:0:0:0:
300,336,19270,1,2,0:0:0:0:
404,146,19442,1,8,0:0:0:0:
253,247,19613,5,10,0:0:0:0:
253,247,19699,1,8,0:0:0:0:
253,247,19785,2,0,L|278:143,1,86,2|2,1:2|0:0,0:0:0:0:
385,62,20127,2,0,L|405:149,1,86,10|2,0:0|0:0,0:0:0:0:
440,279,20470,5,2,1:2:0:0:
299,168,20642,1,2,0:0:0:0:
465,104,20814,1,10,0:0:0:0:
273,163,20985,1,2,1:2:0:0:
448,270,21156,5,2,0:0:0:0:
199,191,21327,2,0,P|196:143|240:95,1,86,2|10,1:2|0:0,0:0:0:0:
307,50,21670,2,0,P|230:80|162:32,1,172,2|2,0:0|0:0,0:0:0:0:
199,191,22184,1,8,0:0:0:0:
378,134,22356,5,2,0:0:0:0:
378,134,22442,1,8,0:0:0:0:
378,134,22527,2,0,P|393:214|331:269,1,172,6|8,1:2|0:0,0:0:0:0:
219,176,23041,2,0,L|304:186,1,86,2|0,0:0|1:2,0:0:0:0:
107,106,23385,1,0,0:0:0:0:
151,234,23556,2,0,L|137:318,1,86,8|2,0:0|1:2,0:0:0:0:
35,221,23899,5,2,0:0:0:0:
219,176,24070,1,0,1:2:0:0:
13,244,24241,1,8,0:0:0:0:
229,344,24413,1,2,0:0:0:0:
229,344,24499,1,2,0:0:0:0:
229,344,24585,6,0,L|321:336,1,86,0|0,1:2|0:0,0:0:0:0:
395,238,24927,1,8,0:0:0:0:
217,187,25099,1,2,1:2:0:0:
217,187,25185,1,8,0:0:0:0:
217,187,25270,5,2,1:2:0:0:
409,97,25442,1,0,1:2:0:0:
163,123,25613,2,0,L|179:288,1,129,14|0,0:0|0:0,0:0:0:0:
180,286,25956,1,2,1:2:0:0:
359,357,26127,1,10,0:0:0:0:
359,357,26213,1,8,0:0:0:0:
359,357,26299,2,0,L|357:299,1,43,10|0,0:0|0:0,0:0:0:0:
370,179,26470,6,0,P|281:218|215:186,1,172,6|0,1:2|1:2,0:0:0:0:
193,152,26899,1,0,1:2:0:0:
193,152,26985,6,0,L|213:20,1,120.399996325684,14|0,0:0|1:2,0:0:0:0:
105,83,27499,5,0,1:2:0:0:
105,83,27670,1,8,0:0:0:0:
297,70,27842,1,0,1:2:0:0:
297,70,27927,1,0,1:2:0:0:
297,70,28013,6,0,L|286:146,1,77.3999976379395,4|2,0:0|0:0,0:0:0:0:
162,285,28356,2,0,L|173:209,1,77.3999976379395,10|0,0:0|0:0,0:0:0:0:
278,336,28699,1,2,1:2:0:0:
354,203,28870,1,2,1:2:0:0:
249,231,29041,1,10,0:0:0:0:
382,307,29213,1,2,1:2:0:0:
439,167,29385,6,0,L|253:142,1,154.799995275879,2|10,0:0|0:0,0:0:0:0:
194,72,29899,1,2,1:2:0:0:
194,72,30070,2,0,L|97:59,1,77.3999976379395,2|2,0:0|1:2,0:0:0:0:
12,185,30413,2,0,P|46:167|84:164,1,77.3999976379395,10|0,0:0|0:0,0:0:0:0:
177,256,30756,5,0,1:2:0:0:
304,182,30927,1,2,0:0:0:0:
304,182,31099,2,0,L|207:169,1,77.3999976379395,10|0,0:0|0:0,0:0:0:0:
332,100,31442,1,2,1:2:0:0:
286,268,31613,1,0,1:2:0:0:
352,108,31785,1,10,0:0:0:0:
265,259,31956,6,0,L|187:245,1,77.3999976379395,2|0,1:2|0:0,0:0:0:0:
409,195,32299,2,0,L|389:284,1,77.3999976379395,2|8,1:2|0:0,0:0:0:0:
352,108,32642,2,0,P|407:94|495:136,1,154.799995275879,2|2,1:2|1:2,0:0:0:0:
492,133,33070,1,2,1:2:0:0:
492,133,33156,1,8,0:0:0:0:
321,19,33327,1,2,0:0:0:0:
268,183,33499,6,0,P|217:197|165:175,1,77.3999976379395,0|2,1:2|0:0,0:0:0:0:
105,141,33842,1,8,0:0:0:0:
222,116,34013,1,2,0:0:0:0:
60,216,34185,2,0,P|22:150|45:79,1,154.799995275879,2|10,1:2|0:0,0:0:0:0:
167,27,34699,6,0,L|353:18,1,154.799995275879,2|2,1:2|1:2,0:0:0:0:
239,126,35213,1,8,0:0:0:0:
330,200,35385,2,0,P|334:279|268:351,1,154.799995275879,2|2,1:2|1:2,0:0:0:0:
229,243,35899,1,10,0:0:0:0:
426,203,36070,1,2,0:0:0:0:
317,93,36242,6,0,L|325:199,1,77.3999976379395,2|0,1:2|0:0,0:0:0:0:
399,62,36585,2,0,P|352:15|245:43,1,154.799995275879,8|0,0:0|1:2,0:0:0:0:
190,95,37099,1,0,1:2:0:0:
190,95,37270,1,8,0:0:0:0:
199,303,37442,6,0,P|246:256|218:149,1,154.799995275879,2|2,1:2|1:2,0:0:0:0:
87,228,37956,1,10,0:0:0:0:
216,328,38127,2,0,L|376:300,1,154.799995275879,2|0,1:2|1:2,0:0:0:0:
450,162,38642,1,8,0:0:0:0:
463,344,38813,5,8,0:0:0:0:
463,344,38899,1,8,0:0:0:0:
463,344,38985,2,0,L|434:170,1,172,6|8,1:2|0:0,0:0:0:0:
304,22,39499,1,0,1:2:0:0:
304,22,39670,2,0,L|296:107,1,86,2|0,0:0|1:2,0:0:0:0:
126,25,40013,1,10,0:0:0:0:
297,108,40184,1,2,0:0:0:0:
133,179,40356,5,2,1:2:0:0:
297,262,40527,1,2,1:2:0:0:
137,166,40699,1,10,0:0:0:0:
270,335,40870,2,0,P|317:339|350:322,1,86,2|0,1:2|0:0,0:0:0:0:
412,182,41213,1,2,1:2:0:0:
480,369,41385,2,0,P|493:311|486:276,1,86,10|0,0:0|0:0,0:0:0:0:
407,169,41727,6,0,L|223:140,1,172,2|8,1:2|0:0,0:0:0:0:
146,34,42242,1,2,1:2:0:0:
226,159,42413,2,0,P|236:199|219:244,1,86,2|0,0:0|1:2,0:0:0:0:
75,86,42756,1,10,0:0:0:0:
75,86,42927,1,2,0:0:0:0:
251,71,43099,5,2,1:2:0:0:
143,192,43270,1,8,0:0:0:0:
301,225,43442,5,2,1:2:0:0:
122,292,43613,1,10,3:0:0:0:
276,148,43785,1,8,0:0:0:0:
75,86,43956,1,10,0:0:0:0:
276,148,44127,5,8,3:0:0:0:
122,292,44299,1,4,3:0:0:0:
332,341,44470,6,0,P|401:321|467:297,1,129.00000492096,6|0,1:2|1:2,0:0:0:0:
314,241,44985,1,0,0:0:0:0:
165,359,45156,2,0,P|94:365|43:305,1,129.00000492096,8|2,0:0|1:2,0:0:0:0:
196,216,45670,1,8,0:0:0:0:
332,341,45842,5,2,1:2:0:0:
332,341,46013,1,8,0:0:0:0:
199,230,46185,2,0,L|119:211,1,64.5000024604798,2|0,1:2|0:0,0:0:0:0:
352,197,46527,2,0,L|432:178,1,64.5000024604798,10|0,0:0|0:0,0:0:0:0:
200,126,46870,1,2,1:2:0:0:
200,126,47042,1,0,1:2:0:0:
295,275,47213,6,0,B|325:239|325:239|304:105,1,172,6|8,1:2|0:0,0:0:0:0:
152,197,47727,1,2,0:0:0:0:
151,196,47899,2,0,P|190:211|231:202,1,86,2|0,1:2|1:2,0:0:0:0:
342,38,48242,2,0,P|301:28|262:43,1,86,8|0,0:0|0:0,0:0:0:0:
100,263,48585,6,0,P|185:295|275:276,1,172,2|8,1:2|0:0,0:0:0:0:
399,148,49099,1,2,0:0:0:0:
399,148,49270,2,0,L|389:252,1,86,2|0,1:2|1:2,0:0:0:0:
272,367,49613,2,0,L|263:281,1,86,10|0,0:0|1:2,0:0:0:0:
203,132,49956,5,14,0:0:0:0:
203,132,50042,1,2,0:0:0:0:
203,132,50127,2,0,L|264:124,1,43,2|2,0:0|0:0,0:0:0:0:
390,233,50299,1,10,0:0:0:0:
390,233,50385,1,2,0:0:0:0:
390,233,50470,2,0,L|329:225,1,43,2|2,0:0|0:0,0:0:0:0:
174,323,50641,5,8,0:0:0:0:
214,292,50727,1,2,0:0:0:0:
263,281,50813,1,2,1:2:0:0:
311,297,50899,1,8,1:2:0:0:
352,324,50984,1,10,0:0:0:0:
401,332,51070,1,2,0:0:0:0:
448,316,51156,1,6,1:2:0:0:
448,316,51670,6,0,L|463:184,1,129,2|0,1:2|1:2,0:0:0:0:
469,145,52013,2,0,L|421:132,1,43,10|8,0:0|0:0,0:0:0:0:
308,228,52185,2,0,L|367:215,1,43,8|8,0:0|0:0,0:0:0:0:
217,171,52356,1,10,0:0:0:0:
193,211,52441,1,10,0:0:0:0:
192,258,52527,1,10,0:0:0:0:
212,301,52613,1,10,0:0:0:0:
250,330,52699,6,0,L|371:303,1,103.199996850586,14|0,1:2|0:0,0:0:0:0:
457,122,53042,1,10,0:0:0:0:
234,56,53213,1,2,0:0:0:0:
438,117,53384,1,0,1:2:0:0:
320,237,53556,1,2,1:2:0:0:
299,129,53727,1,8,0:0:0:0:
248,354,53899,1,2,1:2:0:0:
437,272,54070,6,0,L|324:263,1,103.199996850586,2|0,0:0|1:2,0:0:0:0:
125,225,54413,1,10,0:0:0:0:
293,139,54585,2,0,P|320:93|313:43,1,103.199996850586,2|0,1:2|0:0,0:0:0:0:
114,212,54927,2,0,L|218:191,1,103.199996850586,2|8,1:2|0:0,0:0:0:0:
101,81,55270,5,2,1:2:0:0:
101,81,55356,1,8,0:0:0:0:
101,81,55442,2,0,L|-3:60,1,103.199996850586,2|0,1:2|0:0,0:0:0:0:
125,225,55785,1,10,0:0:0:0:
212,65,55956,2,0,L|316:44,1,103.199996850586,2|0,0:0|1:2,0:0:0:0:
196,91,56299,1,2,1:2:0:0:
335,171,56470,1,8,0:0:0:0:
143,251,56642,1,2,1:2:0:0:
309,367,56813,6,0,P|319:308|299:256,1,103.199996850586,2|0,0:0|1:2,0:0:0:0:
228,193,57156,1,10,0:0:0:0:
370,312,57327,2,0,P|442:324|508:204,1,206.399993701172,2|2,1:2|1:2,0:0:0:0:
376,141,57842,1,8,0:0:0:0:
239,295,58013,1,2,1:2:0:0:
239,295,58099,1,8,0:0:0:0:
239,295,58185,6,0,L|225:175,1,103.199996850586,4|0,1:2|0:0,0:0:0:0:
187,372,58527,2,0,P|246:382|298:360,1,103.199996850586,10|0,0:0|0:0,0:0:0:0:
145,241,58870,1,2,1:2:0:0:
307,146,59042,1,0,1:2:0:0:
158,69,59213,2,0,L|209:180,1,103.199996850586,10|0,0:0|1:2,0:0:0:0:
333,277,59556,5,2,1:2:0:0:
368,64,59727,1,2,0:0:0:0:
166,262,59899,1,10,0:0:0:0:
131,49,60070,2,0,L|7:31,1,103.199996850586,2|0,1:2|0:0,0:0:0:0:
79,184,60413,1,0,1:2:0:0:
226,55,60585,5,10,0:0:0:0:
20,127,60756,1,2,1:2:0:0:
166,262,60927,2,0,P|221:272|283:238,1,103.199996850586,2|0,1:2|0:0,0:0:0:0:
328,163,61270,2,0,B|307:208|307:208|327:320,1,154.799995275879,8|0,1:2|0:0,0:0:0:0:
335,342,61613,1,10,0:0:0:0:
472,226,61785,1,0,1:2:0:0:
237,160,61956,1,8,0:0:0:0:
472,226,62127,1,0,1:2:0:0:
237,160,62299,6,0,P|232:88|254:55,1,103.199996850586,2|0,0:0|1:2,0:0:0:0:
384,279,62642,1,8,0:0:0:0:
446,77,62813,1,10,0:0:0:0:
446,77,62899,1,8,0:0:0:0:
446,77,62985,1,2,1:2:0:0:
272,232,63155,5,8,0:0:0:0:
272,232,63241,1,8,0:0:0:0:
272,232,63327,1,8,0:0:0:0:
230,242,63413,1,8,0:0:0:0:
189,230,63498,1,8,0:0:0:0:
159,201,63584,1,8,0:0:0:0:
154,157,63670,6,0,P|166:93|188:41,1,103.199996850586,14|0,0:0|0:0,0:0:0:0:
198,36,63927,1,2,0:0:0:0:
198,36,64013,1,10,0:0:0:0:
272,232,64185,2,0,P|289:280|297:331,1,103.199996850586,2|0,0:0|1:2,0:0:0:0:
43,184,64527,2,0,P|34:133|17:84,1,103.199996850586,2|8,1:2|0:0,0:0:0:0:
257,134,64870,1,2,1:2:0:0:
146,310,65042,6,0,L|134:192,1,103.199996850586,2|0,0:0|1:2,0:0:0:0:
260,53,65385,1,10,0:0:0:0:
260,53,65556,2,0,P|201:71|174:113,1,103.199996850586,2|0,1:2|0:0,0:0:0:0:
343,300,65899,2,0,P|325:241|283:214,1,103.199996850586,2|8,1:2|0:0,0:0:0:0:
95,336,66242,5,10,1:2:0:0:
95,336,66327,1,8,1:2:0:0:
95,336,66413,2,0,P|160:340|205:308,1,103.199996850586,6|0,1:2|0:0,0:0:0:0:
141,131,66756,2,0,B|120:177|120:177|129:237,1,103.199996850586,10|2,0:0|0:0,0:0:0:0:
271,175,67099,1,0,1:2:0:0:
50,111,67270,1,2,1:2:0:0:
76,317,67442,1,8,0:0:0:0:
251,174,67613,1,2,1:2:0:0:
338,355,67785,6,0,L|232:342,1,103.199996850586,2|0,0:0|1:2,0:0:0:0:
145,238,68127,1,10,0:0:0:0:
323,122,68299,2,0,P|338:183|224:253,1,206.399993701172,2|2,0:0|1:2,0:0:0:0:
367,217,68813,1,8,0:0:0:0:
399,245,68898,1,2,0:0:0:0:
417,283,68984,1,2,1:2:0:0:
418,326,69070,1,8,0:0:0:0:
402,366,69156,6,0,L|284:352,1,103.199996850586,4|0,1:2|0:0,0:0:0:0:
143,237,69499,2,0,L|259:218,1,103.199996850586,10|0,0:0|0:0,0:0:0:0:
55,182,69842,2,0,P|45:257|71:309,1,103.199996850586,2|0,1:2|1:2,0:0:0:0:
261,220,70185,1,10,0:0:0:0:
261,220,70356,1,0,1:2:0:0:
188,342,70527,5,2,1:2:0:0:
382,259,70699,1,0,1:2:0:0:
168,166,70870,1,10,0:0:0:0:
367,72,71042,2,0,P|402:122|365:276,1,206.399993701172,2|0,1:2|1:2,0:0:0:0:
298,172,71556,1,10,0:0:0:0:
298,172,71727,1,2,1:2:0:0:
275,328,71899,5,14,0:0:0:0:
203,101,72071,1,10,0:3:0:0:
430,155,72242,1,2,0:3:0:0:
122,185,72414,5,10,0:0:0:0:
399,39,72586,1,10,0:3:0:0:
388,355,72757,1,2,0:3:0:0:
283,12,72927,5,10,0:0:0:0:
466,266,73100,1,10,0:3:0:0:
158,298,73270,1,2,0:3:0:0:
399,39,73443,5,10,0:0:0:0:
275,328,73614,1,10,0:3:0:0:
89,73,73785,1,2,0:3:0:0:
430,155,73957,5,10,0:0:0:0:
107,321,74127,1,10,0:0:0:0:
96,325,74213,1,8,0:0:0:0:
84,330,74298,1,10,0:0:0:0:
140,0,74470,1,6,1:2:0:0:
165,2,75156,5,10,0:0:0:0:
165,2,75242,1,8,0:0:0:0:
165,2,75327,2,0,L|174:52,1,51.599998425293,10|0,0:0|0:0,0:0:0:0:
203,260,75499,2,0,L|212:209,1,51.599998425293,2|0,1:2|1:2,0:0:0:0:
228,117,75670,2,0,P|170:137|89:60,1,154.799995275879,10|0,1:2|0:0,0:0:0:0:
78,70,76013,6,0,L|54:173,1,86,6|2,1:2|0:0,0:0:0:0:
123,308,76356,2,0,L|219:282,1,86,10|2,0:0|1:2,0:0:0:0:
328,170,76699,1,2,1:2:0:0:
373,344,76870,1,2,1:2:0:0:
351,167,77042,1,10,0:0:0:0:
206,285,77213,1,2,1:2:0:0:
206,285,77299,1,8,0:0:0:0:
206,285,77385,5,8,0:0:0:0:
384,249,77556,2,0,L|475:236,1,86,2|8,1:2|0:0,0:0:0:0:
276,169,77899,1,2,1:2:0:0:
276,169,77985,1,8,0:0:0:0:
276,169,78070,2,0,P|262:111|256:73,1,86,0|0,1:2|1:2,0:0:0:0:
145,201,78413,2,0,L|102:192,2,43,8|8|10,0:0|0:0|0:0,0:0:0:0:
282,318,78756,5,2,1:2:0:0:
390,165,78927,1,2,1:2:0:0:
394,144,79012,1,0,1:2:0:0:
391,122,79098,1,10,0:0:0:0:
260,204,79270,2,0,L|312:200,2,43,2|8|2,1:2|0:0|1:2,0:0:0:0:
150,114,79613,1,2,1:2:0:0:
105,291,79785,1,10,0:0:0:0:
267,192,79956,6,0,L|319:188,2,43,2|8|2,1:2|0:0|1:2,0:0:0:0:
134,107,80299,2,0,L|34:92,1,86,2|10,1:2|0:0,0:0:0:0:
237,39,80642,1,2,1:2:0:0:
237,39,80727,1,8,0:0:0:0:
237,39,80813,1,0,1:2:0:0:
170,215,80985,1,2,1:2:0:0:
302,105,81156,2,0,L|388:93,1,86,8|2,0:0|1:2,0:0:0:0:
476,200,81499,6,0,B|425:183|425:183|295:202,1,172,2|8,1:2|0:0,0:0:0:0:
176,326,82013,1,2,1:2:0:0:
176,326,82099,1,8,0:0:0:0:
176,326,82185,2,0,P|178:278|145:232,1,86,0|0,1:2|1:2,0:0:0:0:
50,161,82527,1,8,0:0:0:0:
174,73,82699,5,2,1:2:0:0:
174,73,82785,1,8,0:0:0:0:
174,73,82870,1,2,1:2:0:0:
33,166,83042,1,0,1:2:0:0:
237,215,83213,1,8,0:0:0:0:
16,171,83385,1,2,1:2:0:0:
202,62,83556,6,0,L|188:164,1,86,0|0,1:2|1:2,0:0:0:0:
107,321,83899,2,0,L|95:235,1,86,8|0,0:0|1:2,0:0:0:0:
87,49,84242,5,10,0:0:0:0:
177,254,84414,1,0,1:2:0:0:
322,29,84584,1,10,0:0:0:0:
61,137,84756,1,0,1:2:0:0:
316,326,84927,5,10,0:0:0:0:
237,2,85099,1,0,1:2:0:0:
26,260,85270,1,10,1:2:0:0:
355,336,85442,1,6,1:2:0:0:
355,336,85785,5,2,0:0:0:0:
311,261,85956,1,2,0:0:0:0:
386,218,86127,1,2,0:0:0:0:
430,293,86256,6,0,L|448:324,1,21.5,0|2,0:0|0:0,0:0:0:0:
294,130,86642,6,0,P|223:116|178:164,1,129,8|0,0:3|0:0,0:0:0:0:
170,179,86985,5,8,1:2:0:0:
430,293,87156,1,10,1:2:0:0:
106,326,87327,1,10,1:2:0:0:
106,326,88356,6,0,L|115:240,1,68.8,2|0,1:2|0:0,0:0:0:0:
218,177,88699,2,0,L|209:261,1,68.8,2|0,1:2|0:0,0:0:0:0:
86,144,89042,2,0,L|95:58,1,68.8,2|0,1:2|0:0,0:0:0:0:
236,6,89385,1,2,1:2:0:0:
236,6,89556,1,0,0:0:0:0:
218,177,89727,5,12,1:2:0:0:
28,28,89899,1,14,1:2:0:0:
324,0,90070,1,14,1:2:0:0:
324,0,90413,5,10,0:3:0:0:
348,29,90498,1,8,0:3:0:0:
355,67,90584,1,6,0:3:0:0:
344,103,90670,1,4,0:3:0:0:
316,129,90755,1,4,0:3:0:0:
81,54,90927,6,0,L|199:35,1,94.600002886963,6|0,1:2|0:0,0:0:0:0:
273,234,91270,2,0,L|155:215,1,94.600002886963,6|8,1:2|0:0,0:0:0:0:
343,155,91613,2,0,P|381:214|321:329,1,189.200005773926,6|2,1:2|1:2,0:0:0:0:
310,340,92042,1,2,0:0:0:0:
310,340,92127,2,0,L|252:329,1,47.3000014434815,14|2,0:0|0:0,0:0:0:0:
80,294,92299,1,10,0:0:0:0:
204,155,92470,5,4,1:2:0:0:
204,155,92642,2,0,L|391:134,1,154.799995275879,2|2,0:0|0:0,0:0:0:0:
458,231,93156,1,2,1:2:0:0:
458,231,93327,2,0,P|442:189|447:149,1,77.3999976379395,0|10,1:2|0:0,0:0:0:0:
480,55,93670,6,0,L|316:36,1,154.799995275879,2|2,1:2|1:2,0:0:0:0:
218,136,94185,1,8,0:0:0:0:
115,58,94356,2,0,P|79:130|119:225,1,154.799995275879,2|2,0:0|1:2,0:0:0:0:
176,302,94870,2,0,L|285:284,1,77.3999976379395,10|2,0:0|1:2,0:0:0:0:
395,266,95213,6,0,P|401:308|383:349,1,77.3999976379395,2|0,1:2|0:0,0:0:0:0:
319,209,95556,2,0,P|372:179|465:204,1,154.799995275879,8|0,0:0|1:2,0:0:0:0:
313,354,96070,2,0,L|236:366,1,77.3999976379395,0|8,1:2|1:2,0:0:0:0:
319,209,96413,5,2,1:2:0:0:
141,154,96585,1,8,0:3:0:0:
297,212,96756,1,10,0:3:0:0:
120,353,96927,1,10,0:0:0:0:
223,261,97099,6,0,L|213:221,2,38.6999988189698,10|2|4,0:3|0:0|1:3,0:0:0:0:
339,349,97442,1,4,1:3:0:0:
453,207,97613,2,0,P|405:189|368:198,1,77.3999976379395,8|4,0:0|1:3,0:0:0:0:
504,270,97956,6,0,L|496:122,1,129.00000492096,6|0,1:2|0:0,0:0:0:0:
397,71,98470,1,2,1:2:0:0:
397,71,98642,2,0,L|311:69,1,64.5000024604798,2|0,1:2|0:0,0:0:0:0:
215,175,98985,2,0,L|280:177,1,64.5000024604798,2|2,1:2|1:2,0:0:0:0:
139,104,99327,1,2,1:2:0:0:
89,240,99499,1,2,0:0:0:0:
205,184,99670,1,2,0:0:0:0:
20,186,99842,6,0,P|3:235|25:307,1,129.00000492096,2|2,1:2|0:0,0:0:0:0:
145,371,100356,1,2,0:0:0:0:
145,371,100699,6,0,L|157:228,1,129.00000492096,2|2,1:2|0:0,0:0:0:0:
95,130,101213,1,2,1:2:0:0:
95,130,101385,2,0,P|145:135|177:121,1,64.5000024604798,2|0,1:2|0:0,0:0:0:0:
264,39,101727,1,2,0:0:0:0:
264,39,101898,1,2,1:2:0:0:
426,117,102070,6,0,P|361:106|296:177,2,167.699992323304,14|14|14,0:0|0:0|0:0,0:0:0:0:
399,262,102756,1,14,0:0:0:0:
277,182,102927,6,0,L|219:169,1,55.8999974411012,8|10,0:0|0:0,0:0:0:0:
103,121,103099,1,8,0:0:0:0:
135,165,103184,1,8,0:0:0:0:
142,220,103270,1,8,0:0:0:0:
120,271,103356,1,8,0:0:0:0:
77,305,103442,6,0,L|14:319,1,64.5000024604798,6|0,1:2|0:0,0:0:0:0:
220,183,103785,2,0,L|283:198,1,64.5000024604798,0|0,1:2|0:0,0:0:0:0:
401,310,104127,6,0,L|263:340,1,129.00000492096,8|2,0:0|1:2,0:0:0:0:
424,284,104642,1,8,0:0:0:0:
371,153,104813,2,0,L|363:236,1,64.5000024604798,2|8,1:2|0:0,0:0:0:0:
425,88,105156,2,0,P|365:69|306:100,2,129.00000492096,2|10|2,0:0|0:0|1:2,0:0:0:0:
288,118,106013,1,8,0:0:0:0:
388,219,106185,6,0,B|404:263|404:263|375:389,1,172,6|8,1:2|0:0,0:0:0:0:
259,272,106699,1,2,0:0:0:0:
259,272,106870,2,0,L|165:282,1,86,2|0,1:2|1:2,0:0:0:0:
57,96,107213,2,0,L|142:86,1,86,8|0,0:0|0:0,0:0:0:0:
326,330,107556,6,0,P|345:288|269:183,1,172,2|8,1:2|0:0,0:0:0:0:
87,272,108070,1,2,0:0:0:0:
87,272,108242,2,0,L|188:282,1,86,2|0,1:2|1:2,0:0:0:0:
247,87,108585,2,0,L|146:97,1,86,10|0,0:0|1:2,0:0:0:0:
282,280,108927,5,14,1:2:0:0:
282,280,109013,1,2,0:0:0:0:
282,280,109099,2,0,L|294:237,1,43,2|2,0:0|0:0,0:0:0:0:
419,125,109270,1,10,1:2:0:0:
419,125,109356,1,2,0:0:0:0:
419,125,109442,2,0,L|406:182,1,43,2|2,0:0|0:0,0:0:0:0:
380,283,109613,5,8,1:2:0:0:
361,327,109700,1,2,0:0:0:0:
323,359,109786,1,2,1:2:0:0:
276,370,109871,1,8,1:2:0:0:
228,358,109957,1,10,1:2:0:0:
192,328,110043,1,2,0:0:0:0:
172,280,110127,1,14,0:0:0:0:
172,280,110642,6,0,L|165:214,3,43,10|2|2|2,0:0|0:0|0:0|1:2,0:0:0:0:
251,197,110985,1,10,0:0:0:0:
224,163,111070,1,8,0:0:0:0:
186,145,111156,1,8,1:2:0:0:
143,145,111242,1,8,0:0:0:0:
105,164,111327,2,0,L|86:186,6,21.5,10|2|10|2|10|2|10,0:0|0:0|0:0|0:0|0:0|0:0|0:0,0:0:0:0:
38,237,111670,6,0,P|11:180|33:133,1,103.199996850586,14|0,1:2|0:0,0:0:0:0:
112,49,112013,1,10,0:0:0:0:
0,0,112185,1,2,0:0:0:0:
221,103,112356,1,0,1:2:0:0:
22,144,112527,1,2,1:2:0:0:
130,21,112699,1,8,0:0:0:0:
167,237,112870,1,2,1:2:0:0:
344,206,113042,6,0,P|271:184|245:189,1,103.199996850586,2|0,0:0|1:2,0:0:0:0:
324,343,113385,1,10,0:0:0:0:
359,196,113556,2,0,L|387:85,1,103.199996850586,2|0,1:2|0:0,0:0:0:0:
161,222,113899,2,0,L|186:322,1,103.199996850586,2|8,1:2|0:0,0:0:0:0:
180,138,114242,5,2,1:2:0:0:
180,138,114327,1,8,0:0:0:0:
180,138,114413,2,0,P|119:108|56:137,1,103.199996850586,2|0,1:2|0:0,0:0:0:0:
8,220,114756,1,10,0:0:0:0:
186,322,114927,2,0,P|181:254|124:214,1,103.199996850586,2|0,0:0|1:2,0:0:0:0:
19,214,115270,1,2,1:2:0:0:
235,195,115441,1,8,0:0:0:0:
92,299,115613,1,2,1:2:0:0:
259,188,115785,6,0,P|316:180|375:189,1,103.199996850586,2|0,0:0|1:2,0:0:0:0:
486,228,116127,1,10,0:0:0:0:
401,86,116299,2,0,P|389:158|509:224,1,206.399993701172,2|2,1:2|1:2,0:0:0:0:
308,115,116813,1,8,0:0:0:0:
270,290,116984,1,2,1:2:0:0:
270,290,117070,1,8,0:0:0:0:
270,290,117156,6,0,L|152:269,1,103.199996850586,4|0,1:2|0:0,0:0:0:0:
17,180,117498,2,0,P|76:190|128:168,1,103.199996850586,10|0,0:0|0:0,0:0:0:0:
219,108,117841,1,2,1:2:0:0:
127,187,118013,1,0,1:2:0:0:
269,289,118185,2,0,P|272:237|260:188,1,103.199996850586,10|0,0:0|1:2,0:0:0:0:
206,90,118527,5,2,1:2:0:0:
168,271,118698,1,0,0:0:0:0:
328,111,118870,1,10,0:0:0:0:
102,71,119042,2,0,L|1:54,1,103.199996850586,2|2,1:2|0:0,0:0:0:0:
127,187,119385,1,0,1:2:0:0:
226,55,119556,5,10,0:0:0:0:
12,147,119727,1,2,1:2:0:0:
168,271,119898,2,0,P|223:281|285:247,1,103.199996850586,2|0,1:2|1:2,0:0:0:0:
307,178,120242,2,0,L|327:369,1,154.799995275879,8|0,1:2|0:0,0:0:0:0:
328,358,120584,1,10,0:0:0:0:
472,226,120756,1,0,1:2:0:0:
228,154,120927,1,8,0:0:0:0:
458,220,121098,1,2,1:2:0:0:
240,162,121270,6,0,L|112:182,1,103.199996850586,2|0,0:0|1:2,0:0:0:0:
319,253,121613,1,8,0:0:0:0:
59,143,121784,1,10,0:0:0:0:
59,143,121870,1,8,0:0:0:0:
59,143,121956,1,2,1:2:0:0:
223,34,122127,5,8,1:2:0:0:
242,76,122212,1,8,1:2:0:0:
248,122,122298,1,8,0:0:0:0:
241,169,122384,1,8,0:0:0:0:
221,211,122469,1,8,1:2:0:0:
190,246,122555,1,8,1:2:0:0:
150,270,122642,6,0,L|41:257,1,103.199996850586,6|0,1:2|0:0,0:0:0:0:
14,255,122899,1,2,0:0:0:0:
14,255,122985,2,0,L|123:242,1,103.199996850586,10|2,0:0|0:0,0:0:0:0:
305,219,123327,1,0,1:2:0:0:
214,342,123498,1,2,1:2:0:0:
149,168,123670,1,8,0:0:0:0:
299,247,123841,1,2,1:2:0:0:
353,100,124013,6,0,L|229:62,1,103.199996850586,2|0,0:0|1:2,0:0:0:0:
394,230,124356,1,10,0:0:0:0:
452,50,124527,2,0,L|423:154,1,103.199996850586,2|0,1:2|0:0,0:0:0:0:
308,332,124870,2,0,P|383:319|414:323,1,103.199996850586,2|8,1:2|0:0,0:0:0:0:
233,280,125213,5,10,1:2:0:0:
233,280,125298,1,8,1:2:0:0:
233,280,125384,2,0,P|214:342|235:393,1,103.199996850586,6|0,1:2|0:0,0:0:0:0:
277,191,125727,2,0,L|152:167,1,103.199996850586,10|2,0:0|0:0,0:0:0:0:
41,199,126070,1,0,1:2:0:0:
233,280,126242,1,2,1:2:0:0:
207,74,126413,1,8,0:0:0:0:
116,289,126584,1,2,1:2:0:0:
276,190,126756,6,0,L|379:203,1,103.199996850586,2|0,0:0|1:2,0:0:0:0:
175,171,127098,1,10,0:0:0:0:
452,152,127270,2,0,P|467:213|353:283,1,206.399993701172,2|2,0:0|1:2,0:0:0:0:
207,143,127784,1,8,0:0:0:0:
175,171,127869,1,2,0:0:0:0:
157,209,127955,1,2,1:2:0:0:
156,252,128041,1,8,0:0:0:0:
172,292,128127,6,0,L|290:278,1,103.199996850586,4|0,1:2|0:0,0:0:0:0:
308,127,128470,2,0,L|206:143,1,103.199996850586,10|0,0:0|0:0,0:0:0:0:
391,61,128813,2,0,P|401:136|375:188,1,103.199996850586,2|0,1:2|1:2,0:0:0:0:
274,279,129156,1,10,0:0:0:0:
274,279,129327,1,0,1:2:0:0:
403,364,129498,5,2,1:2:0:0:
170,258,129670,1,2,1:2:0:0:
392,160,129841,1,10,0:0:0:0:
151,262,130013,2,0,P|42:264|-25:172,1,206.399993701172,2|0,1:2|1:2,0:0:0:0:
111,70,130527,1,10,0:0:0:0:
111,70,130698,1,2,1:2:0:0:
309,122,130870,5,14,0:0:0:0:
151,262,131042,1,10,0:3:0:0:
111,70,131213,1,2,0:3:0:0:
247,301,131385,5,10,0:0:0:0:
16,124,131557,1,10,0:3:0:0:
286,8,131728,1,2,0:3:0:0:
41,239,131898,5,10,0:0:0:0:
186,2,132071,1,10,0:3:0:0:
333,242,132241,1,2,0:3:0:0:
16,124,132414,5,10,0:0:0:0:
326,113,132585,1,10,0:3:0:0:
168,372,132756,1,2,0:3:0:0:
100,50,132928,5,10,0:0:0:0:
354,259,133098,1,10,0:0:0:0:
363,267,133184,1,8,0:0:0:0:
374,276,133269,1,10,0:0:0:0:
69,382,133441,1,6,1:2:0:0:
79,361,134127,5,10,0:0:0:0:
79,361,134213,1,8,0:0:0:0:
79,361,134299,2,0,L|90:253,1,103.199996850586,10|2,0:0|1:2,0:0:0:0:
97,124,134642,6,0,P|135:86|265:94,1,154.799995275879,10|0,1:2|0:0,0:0:0:0:
262,108,134985,6,0,P|325:130|430:73,1,180.599994488526,6|8,1:2|0:0,0:0:0:0:
327,212,135499,1,0,1:2:0:0:
327,212,135585,1,0,1:2:0:0:
327,212,135670,2,0,L|335:309,1,90.2999972442628,0|0,1:2|1:2,0:0:0:0:
491,217,136013,2,0,P|446:212|407:233,1,90.2999972442628,8|0,0:0|1:2,0:0:0:0:
264,364,136356,2,0,L|220:353,2,45.1499986221314,2|2|2,1:2|0:0|1:2,0:0:0:0:
407,233,136699,5,8,0:0:0:0:
241,172,136870,1,2,1:2:0:0:
241,172,136956,1,8,0:0:0:0:
241,172,137042,2,0,L|144:196,1,90.2999972442628,0|0,1:2|1:2,0:0:0:0:
277,41,137385,1,8,0:0:0:0:
299,44,137470,1,0,1:2:0:0:
321,48,137556,1,0,1:2:0:0:
383,216,137727,5,0,1:2:0:0:
470,101,137899,1,2,1:2:0:0:
470,101,137985,1,0,1:2:0:0:
470,101,138070,1,10,0:0:0:0:
292,151,138242,5,2,1:2:0:0:
292,151,138327,1,0,1:2:0:0:
292,151,138413,1,2,1:2:0:0:
373,302,138585,2,0,P|389:257|378:207,1,90.2999972442628,2|8,1:2|0:0,0:0:0:0:
296,63,138927,1,2,1:2:0:0:
296,63,139013,1,0,1:2:0:0:
296,63,139099,6,0,P|224:94|231:206,1,180.599994488526,10|10,0:0|0:0,0:0:0:0:
323,309,139613,1,2,1:2:0:0:
323,309,139699,1,8,1:2:0:0:
323,309,139785,1,0,1:2:0:0:
158,356,139956,1,2,1:2:0:0:
323,211,140127,2,0,L|423:231,1,90.2999972442628,10|0,0:0|1:2,0:0:0:0:
280,121,140470,6,0,P|292:175|202:261,1,180.599994488526,2|10,1:2|0:0,0:0:0:0:
89,153,140985,1,2,1:2:0:0:
89,153,141070,1,8,0:0:0:0:
89,153,141156,1,2,1:2:0:0:
205,229,141327,1,2,1:2:0:0:
18,305,141499,1,10,0:0:0:0:
181,148,141670,5,2,1:2:0:0:
181,148,141756,1,8,0:0:0:0:
181,148,141842,2,0,P|150:78|41:66,1,180.599994488526,2|8,1:2|0:0,0:0:0:0:
107,279,142356,2,0,P|238:254|290:254,1,180.599994488526,2|0,1:2|1:2,0:0:0:0:
426,297,142870,1,8,0:0:0:0:
426,297,142956,1,0,1:2:0:0:
426,297,143042,1,0,1:2:0:0:
350,18,143213,5,10,0:0:0:0:
101,173,143385,1,2,1:2:0:0:
426,297,143556,5,10,0:0:0:0:
236,22,143727,1,2,1:2:0:0:
86,312,143899,5,10,0:0:0:0:
431,198,144070,1,2,1:2:0:0:
132,29,144242,5,10,0:0:0:0:
185,374,144413,1,6,1:2:0:0:
432,131,144756,5,2,3:0:0:0:
432,131,144842,1,0,3:0:0:0:
432,131,144927,2,0,P|381:112|333:116,1,86,10|8,1:3|1:3,0:0:0:0:
237,261,145270,2,0,P|271:235|294:199,1,86,4|4,1:3|1:3,0:0:0:0:
220,27,145613,2,0,P|224:69|244:107,1,86,4|4,1:3|1:3,0:0:0:0:
399,204,145956,5,6,1:2:0:0:
460,108,156927,6,0,L|380:97,1,64.5000024604798,6|2,1:2|0:0,0:0:0:0:
292,186,157270,2,0,L|366:174,1,64.5000024604798,2|2,1:2|0:0,0:0:0:0:
292,87,157613,2,0,L|212:76,1,64.5000024604798,2|2,1:2|0:0,0:0:0:0:
124,165,157956,2,0,L|198:153,1,64.5000024604798,2|2,1:2|0:0,0:0:0:0:
70,99,158299,6,0,P|42:151|75:239,1,129.00000492096,2|2,1:2|1:2,0:0:0:0:
152,312,158813,2,0,P|218:306|298:297,1,129.00000492096,2|0,0:0|0:0,0:0:0:0:
386,226,159327,1,0,1:2:0:0:
386,226,159670,6,0,L|397:315,1,64.5000024604798,2|2,1:2|0:0,0:0:0:0:
270,195,160013,2,0,L|205:202,1,64.5000024604798,2|2,1:2|0:0,0:0:0:0:
300,79,160356,2,0,L|290:15,1,64.5000024604798,2|2,1:2|0:0,0:0:0:0:
417,109,160699,2,0,L|484:99,1,64.5000024604798,2|2,1:2|0:0,0:0:0:0:
386,226,161042,6,0,P|380:284|425:369,1,129.00000492096,2|2,1:2|1:2,0:0:0:0:
361,214,161556,2,0,L|289:197,1,64.5000024604798,2|0,0:0|1:2,0:0:0:0:
202,91,161899,1,2,0:0:0:0:
128,249,162070,1,2,1:2:0:0:
298,125,162242,1,0,1:2:0:0:
298,125,162327,1,0,1:2:0:0:
298,125,162413,5,12,0:0:0:0:
224,336,162585,1,8,0:0:0:0:
77,138,162756,1,0,1:2:0:0:
332,204,162927,1,12,0:0:0:0:
115,357,163099,5,8,1:2:0:0:
174,68,163270,1,0,1:2:0:0:
298,284,163442,5,12,0:0:0:0:
0,198,163613,1,8,0:0:0:0:
298,94,163785,5,0,1:2:0:0:
51,302,163956,1,4,1:2:0:0:
368,342,164127,1,8,0:0:0:0:
213,74,164299,1,0,1:2:0:0:
109,359,164470,5,12,0:0:0:0:
418,240,164642,1,0,1:2:0:0:
108,86,164813,1,8,0:0:0:0:
298,284,164985,5,8,0:0:0:0:
298,284,165070,1,8,0:0:0:0:
298,284,165156,2,0,L|309:213,3,43,12|8|8|8,1:2|0:0|0:0|0:0,0:0:0:0:
223,154,165499,2,0,L|212:83,3,43,8|8|8|8,0:0|0:0|0:0|0:0,0:0:0:0:
152,307,165842,5,8,0:0:0:0:
126,331,165927,1,8,0:0:0:0:
94,341,166013,1,8,0:0:0:0:
60,339,166099,1,8,0:0:0:0:
30,322,166184,1,8,0:0:0:0:
9,295,166270,1,8,0:0:0:0:
1,262,166356,1,8,0:0:0:0:
7,228,166442,1,8,0:0:0:0:
26,200,166527,5,12,0:0:0:0:
254,288,166699,1,8,0:0:0:0:
151,32,166870,1,8,0:0:0:0:
91,251,167042,1,0,1:0:0:0:
91,251,167127,1,0,1:2:0:0:
91,251,167213,1,12,0:0:0:0:
305,128,167385,1,0,1:2:0:0:
44,31,167556,1,12,0:0:0:0:
158,304,167899,5,6,0:0:0:0:
230,54,177499,5,2,1:0:0:0:
230,54,177670,2,0,L|214:146,1,86,8|8,0:0|0:0,0:0:0:0:
295,258,178013,1,2,1:0:0:0:
295,258,178099,1,0,1:0:0:0:
295,258,178185,2,0,P|246:243|202:251,1,86,10|8,0:0|0:0,0:0:0:0:
176,259,178442,5,8,0:0:0:0:
176,259,178527,2,0,L|153:293,6,21.5,2|2|2|2|10|2|2,1:0|0:0|0:0|0:0|0:0|0:0|0:0,0:0:0:0:
149,369,178870,6,0,P|217:348|279:359,1,103.199996850586,6|0,1:2|0:0,0:0:0:0:
372,384,179213,1,10,0:0:0:0:
443,209,179385,1,2,0:0:0:0:
512,296,179556,1,0,1:2:0:0:
269,281,179727,1,2,1:2:0:0:
443,209,179899,1,8,0:0:0:0:
373,368,180070,1,2,1:2:0:0:
302,168,180242,6,0,L|192:150,1,103.199996850586,2|0,0:0|1:2,0:0:0:0:
269,281,180585,1,10,0:0:0:0:
26,235,180756,2,0,L|136:217,1,103.199996850586,2|0,1:2|0:0,0:0:0:0:
269,281,181099,2,0,P|239:342|268:405,1,103.199996850586,2|8,1:2|0:0,0:0:0:0:
395,191,181442,5,2,1:2:0:0:
395,191,181527,1,8,0:0:0:0:
395,191,181613,2,0,P|334:161|271:190,1,103.199996850586,2|0,1:2|0:0,0:0:0:0:
424,337,181956,1,10,0:0:0:0:
491,185,182127,2,0,P|505:131|513:75,1,103.199996850586,2|0,0:0|1:2,0:0:0:0:
332,88,182470,1,2,1:2:0:0:
512,50,182641,1,8,0:0:0:0:
249,101,182813,1,2,1:2:0:0:
395,191,182985,6,0,P|389:256|380:300,1,103.199996850586,2|0,0:0|1:2,0:0:0:0:
191,204,183327,1,10,0:0:0:0:
115,371,183499,2,0,P|187:383|253:263,1,206.399993701172,2|2,1:2|1:2,0:0:0:0:
249,101,184013,1,8,0:0:0:0:
395,191,184184,1,2,1:2:0:0:
395,191,184270,1,8,0:0:0:0:
395,191,184356,6,0,L|513:170,1,103.199996850586,4|0,1:2|0:0,0:0:0:0:
249,101,184699,2,0,P|239:160|261:212,1,103.199996850586,10|0,0:0|0:0,0:0:0:0:
357,304,185042,1,2,1:2:0:0:
395,191,185214,1,0,1:2:0:0:
219,315,185385,2,0,L|107:296,1,103.199996850586,10|0,0:0|1:2,0:0:0:0:
252,199,185728,5,2,1:2:0:0:
375,327,185899,1,2,0:0:0:0:
420,114,186071,1,10,0:0:0:0:
241,217,186243,2,0,L|140:200,1,103.199996850586,2|0,1:2|0:0,0:0:0:0:
249,101,186586,1,0,1:2:0:0:
293,302,186757,5,10,0:0:0:0:
223,110,186927,1,2,1:2:0:0:
318,292,187099,2,0,L|425:264,1,103.199996850586,2|0,1:2|1:2,0:0:0:0:
213,243,187442,2,0,P|195:290|206:348,1,103.199996850586,8|2,1:2|0:0,0:0:0:0:
321,206,187785,1,10,0:0:0:0:
135,173,187956,1,0,1:2:0:0:
318,292,188127,1,8,0:0:0:0:
97,313,188299,1,0,1:2:0:0:
394,252,188470,6,0,P|403:189|379:140,1,103.199996850586,2|0,0:0|1:2,0:0:0:0:
165,269,188814,1,8,0:0:0:0:
398,345,188985,1,10,0:0:0:0:
398,345,189070,1,8,0:0:0:0:
398,345,189157,1,10,1:2:0:0:
97,313,189327,1,8,0:0:0:0:
97,313,189413,1,8,0:0:0:0:
97,313,189499,1,8,0:0:0:0:
219,96,189669,1,8,0:0:0:0:
219,96,189755,1,8,0:0:0:0:
219,96,189843,6,0,L|346:111,1,103.199996850586,14|0,0:0|0:0,0:0:0:0:
365,135,190100,1,2,0:0:0:0:
365,135,190186,2,0,P|392:189|378:244,1,103.199996850586,10|0,0:0|0:0,0:0:0:0:
242,376,190527,1,0,1:2:0:0:
190,188,190699,1,2,1:2:0:0:
339,308,190870,1,8,0:0:0:0:
148,299,191042,1,2,1:2:0:0:
310,195,191213,6,0,L|417:177,1,103.199996850586,2|0,0:0|1:2,0:0:0:0:
242,376,191557,1,10,0:0:0:0:
190,188,191727,2,0,L|83:170,1,103.199996850586,2|0,1:2|0:0,0:0:0:0:
339,308,192070,1,2,1:2:0:0:
148,299,192242,1,8,0:0:0:0:
251,138,192413,5,10,1:2:0:0:
251,138,192499,1,8,1:2:0:0:
251,138,192585,1,6,1:2:0:0:
242,376,192756,1,8,3:0:0:0:
242,376,192842,1,8,3:0:0:0:
242,376,192928,1,10,3:0:0:0:
394,242,193099,6,0,P|338:225|288:234,1,103.199996850586,6|0,1:2|0:0,0:0:0:0:
104,278,193442,2,0,P|160:295|210:286,1,103.199996850586,6|0,1:2|0:0,0:0:0:0:
364,125,193785,1,6,1:2:0:0:
214,197,193957,6,0,L|111:184,1,103.199996850586,2|0,0:0|1:2,0:0:0:0:
82,180,194213,1,0,1:2:0:0:
82,180,194299,1,10,0:0:0:0:
292,95,194470,2,0,B|260:150|260:150|275:300,1,206.399993701172,2|2,0:0|1:2,0:0:0:0:
480,277,194985,1,8,0:0:0:0:
477,254,195070,1,8,0:0:0:0:
475,231,195156,1,10,1:2:0:0:
472,209,195242,1,8,0:0:0:0:
470,186,195327,6,0,L|368:170,1,103.199996850586,4|0,1:2|1:2,0:0:0:0:
173,309,195670,2,0,L|275:293,1,103.199996850586,10|0,0:0|0:0,0:0:0:0:
388,380,196014,2,0,P|377:329|389:280,1,103.199996850586,2|0,1:2|1:2,0:0:0:0:
470,186,196357,1,10,0:0:0:0:
470,186,196528,1,0,1:2:0:0:
389,280,196699,5,2,1:2:0:0:
442,65,196871,1,0,1:2:0:0:
462,331,197042,1,10,0:0:0:0:
363,100,197213,2,0,L|133:60,1,206.399993701172,2|0,1:2|1:2,0:0:0:0:
137,245,197727,2,0,L|252:225,1,103.199996850586,10|2,0:0|1:2,0:0:0:0:
442,306,198070,5,14,0:0:0:0:
293,119,198242,1,10,0:3:0:0:
241,365,198413,1,2,0:3:0:0:
432,161,198585,5,10,0:0:0:0:
154,259,198756,1,10,0:3:0:0:
406,384,198927,1,2,0:3:0:0:
238,64,199099,5,10,0:0:0:0:
222,367,199270,1,10,0:3:0:0:
499,220,199442,1,2,0:3:0:0:
117,166,199612,5,10,0:0:0:0:
384,364,199784,1,10,0:3:0:0:
398,47,199955,1,2,0:3:0:0:
183,326,200127,5,10,0:0:0:0:
451,204,200299,1,10,0:0:0:0:
461,199,200385,1,8,0:0:0:0:
473,193,200470,1,10,0:0:0:0:
193,48,200642,1,2,1:2:0:0:
342,351,200812,5,14,0:0:0:0:
293,65,200984,1,10,0:3:0:0:
112,291,201155,1,2,0:3:0:0:
399,113,201327,5,10,0:0:0:0:
85,154,201498,1,10,0:3:0:0:
352,326,201670,1,2,0:3:0:0:
235,11,201841,5,10,0:0:0:0:
91,283,202012,1,10,0:3:0:0:
443,177,202184,1,2,0:3:0:0:
95,63,202355,5,10,0:0:0:0:
304,365,202527,1,10,0:3:0:0:
402,49,202699,1,2,0:3:0:0:
180,311,202871,5,10,0:0:0:0:
462,146,203042,1,10,0:0:0:0:
471,139,203128,1,8,0:0:0:0:
482,132,203213,1,10,0:0:0:0:
193,0,203385,1,6,1:2:0:0:
218,3,204070,5,10,0:0:0:0:
218,3,204156,1,8,0:0:0:0:
218,3,204242,2,0,L|225:62,1,51.599998425293,10|0,0:0|0:0,0:0:0:0:
247,190,204413,1,2,1:2:0:0:
247,190,204499,1,0,1:2:0:0:
247,190,204585,2,0,P|180:174|93:230,1,154.799995275879,10|0,1:2|0:0,0:0:0:0:
83,243,204927,6,0,L|172:262,1,86,6|2,1:2|0:0,0:0:0:0:
82,108,205270,1,10,0:0:0:0:
8,300,205442,1,2,1:2:0:0:
8,300,205527,1,8,0:0:0:0:
8,300,205613,1,2,1:2:0:0:
55,101,205785,1,2,1:2:0:0:
167,260,205956,1,10,0:0:0:0:
214,61,206127,6,0,L|226:10,2,43,2|8|2,1:2|0:0|1:2,0:0:0:0:
111,181,206470,1,2,1:2:0:0:
309,249,206642,1,10,0:0:0:0:
213,89,206813,2,0,P|202:134|212:179,1,86,2|0,1:2|1:2,0:0:0:0:
315,328,207156,1,2,1:2:0:0:
393,143,207327,1,10,0:0:0:0:
215,271,207499,5,2,0:0:0:0:
215,271,207585,1,2,0:0:0:0:
215,271,207670,2,0,P|150:278|118:263,1,86,2|2,1:2|0:0,0:0:0:0:
102,248,207927,1,0,1:2:0:0:
102,248,208013,1,14,0:0:0:0:
228,73,208184,1,2,1:2:0:0:
228,73,208270,1,8,0:0:0:0:
228,73,208356,5,2,1:2:0:0:
334,241,208527,1,2,1:2:0:0:
149,167,208699,1,10,0:0:0:0:
342,119,208870,1,2,1:2:0:0:
342,119,208956,1,8,0:0:0:0:
342,119,209042,6,0,L|430:108,2,86,2|2|10,1:2|1:2|0:0,0:0:0:0:
215,271,209556,2,0,P|200:328|213:367,1,86,2|0,1:2|1:2,0:0:0:0:
350,283,209899,1,2,1:2:0:0:
218,168,210070,2,0,P|161:183|133:214,1,86,10|2,0:0|0:0,0:0:0:0:
119,225,210327,1,2,0:0:0:0:
119,225,210413,6,0,L|67:36,1,172,2|8,1:2|0:0,0:0:0:0:
184,68,210927,1,2,1:2:0:0:
184,68,211013,1,8,0:0:0:0:
184,68,211099,1,0,1:2:0:0:
12,171,211270,1,0,1:2:0:0:
184,274,211441,1,8,0:0:0:0:
12,377,211613,1,2,1:2:0:0:
12,377,211699,1,8,0:0:0:0:
12,377,211785,5,2,1:2:0:0:
184,171,211956,1,0,1:2:0:0:
12,274,212126,1,8,0:0:0:0:
184,377,212299,5,10,0:0:0:0:
184,377,212385,1,8,0:0:0:0:
184,377,212470,2,0,L|276:369,1,86,0|0,1:2|1:2,0:0:0:0:
423,301,212813,2,0,P|443:249|438:214,1,86,8|0,0:0|1:2,0:0:0:0:
224,146,213156,5,14,0:0:0:0:
426,202,213327,1,0,1:2:0:0:
168,225,213499,5,10,0:0:0:0:
443,121,213670,1,2,1:2:0:0:
136,139,213842,5,10,0:0:0:0:
511,174,214013,1,2,1:2:0:0:
204,29,214185,5,10,0:0:0:0:
273,324,214356,1,2,1:2:0:0:
273,324,214699,5,0,1:2:0:0:
136,139,214870,2,0,P|123:182|111:230,1,86,14|2,0:0|0:0,0:0:0:0:
285,179,215213,1,0,1:2:0:0:
108,244,215385,1,2,0:0:0:0:
273,324,215556,2,0,L|376:303,1,86,10|0,0:0|0:0,0:0:0:0:
212,217,215899,5,8,0:0:0:0:
212,217,215985,1,0,1:2:0:0:
212,217,216070,1,0,1:2:0:0:
330,62,216242,6,0,B|411:-2|502:43|502:43|504:127|442:152,1,309.599990551758,6|0,1:2|0:0,0:0:0:0:
