osu file format v14

[General]
AudioFilename: audio.mp3
AudioLeadIn: 0
PreviewTime: 167763
Countdown: 0
SampleSet: Soft
StackLeniency: 0.4
Mode: 2
LetterboxInBreaks: 0
WidescreenStoryboard: 1

[Editor]
DistanceSpacing: 1
BeatDivisor: 4
GridSize: 32
TimelineZoom: 2.1

[Metadata]
Title:Gotoubun no Kimochi
TitleUnicode:五等分の気持ち
Artist:Nakanoke no Itsutsugo
ArtistUnicode:中野家の五つ子
Creator:Imai Lisa
Version:Salad
Source:五等分の花嫁
Tags:Xetopia -Hex- Dapuluous Sc4v4ng3r Scavanger 5toubun no hanayome 5hanayome 5-toubun go-toubun 中野 一花 二乃 三玖 四葉 五月 Miku Yotsuba Nino Itsuki Ichika 水瀬 いのり Minase Inori 佐倉 綾音 Sakura Ayane ayaneru 伊藤 美来 Itou 竹達 彩奈 Taketatsu Ayana 花澤 香菜 Hanazawa Kana hanakana The Five Wedded Brides The Quintessential Quintuplets opening op full 斉藤 信治 Saito Nobuharu Five Equal Feelings Anime Japanese
BeatmapID:2440910
BeatmapSetID:953441

[Difficulty]
HPDrainRate:4
CircleSize:2.9
OverallDifficulty:7
ApproachRate:7
SliderMultiplier:1.5
SliderTickRate:1

[Events]
//Background and Video events
0,0,"bg.jpg",0,0
//Break Periods
2,77585,84542
2,146156,156027
2,168099,176599
//Storyboard Layer 0 (Background)
//Storyboard Layer 1 (Fail)
//Storyboard Layer 2 (Pass)
//Storyboard Layer 3 (Foreground)
//Storyboard Layer 4 (Overlay)
//Storyboard Sound Samples

[TimingPoints]
585,342.857142857143,4,2,1,40,1,0
5385,-100,4,2,1,45,0,0
5727,-100,4,2,1,50,0,0
6070,-100,4,2,1,50,0,0
10870,-100,4,2,1,40,0,0
11556,-100,4,2,1,60,0,0
44470,-100,4,2,1,60,0,0
49956,-100,4,2,1,60,0,0
51670,-100,4,2,1,60,0,0
52699,-100,4,2,1,70,0,1
76013,-100,4,2,1,70,0,0
85442,-100,4,2,1,60,0,0
85785,-100,4,2,1,50,0,0
86985,-100,4,2,1,60,0,0
88356,-100,4,2,1,60,0,0
97956,-100,4,2,1,60,0,0
102070,-100,4,2,1,70,0,0
103442,-100,4,2,1,60,0,0
106185,-100,4,2,1,60,0,0
108927,-100,4,2,1,60,0,0
111670,-100,4,2,1,70,0,1
134985,-100,4,2,1,60,0,0
143213,-100,4,2,1,60,0,0
144413,-100,4,2,1,60,0,0
145956,-100,4,2,1,50,0,0
156927,-100,4,2,1,60,0,0
162413,-100,4,2,1,70,0,0
164985,-100,4,2,1,50,0,0
166527,-100,4,2,1,70,0,0
167899,-100,4,2,1,60,0,0
177499,-100,4,2,1,70,0,0
178870,-100,4,2,1,80,0,1
204927,-100,4,2,1,80,0,0
217270,-100,4,2,1,5,0,0

[Colours]
Combo1 : 249,214,132
Combo2 : 254,211,234
Combo3 : 255,255,0
Combo4 : 0,128,0

[HitObjects]
121,61,585,6,0,P|42:130|123:282,1,300,2|2,0:0|0:0,0:0:0:0:
367,40,1956,2,0,L|377:351,1,300,2|2,0:0|0:0,0:0:0:0:
127,43,3327,5,2,0:0:0:0:
256,192,3670,12,8,5727,0:0:0:0:
359,337,6070,6,0,L|364:180,1,150,6|0,1:2|1:0,0:0:0:0:
285,169,6585,1,2,0:0:0:0:
174,238,6756,2,0,L|182:81,1,150,0|0,0:0|1:2,0:0:0:0:
456,37,7442,6,0,P|417:71|321:125,1,150,2|2,0:0|1:2,0:0:0:0:
255,139,7956,1,2,0:0:0:0:
367,226,8127,2,0,L|394:307,2,75,0|2|0,0:0|1:2|1:2,0:0:0:0:
105,332,8813,6,0,L|100:172,1,150,2|2,0:0|1:2,0:0:0:0:
196,257,9327,2,0,L|270:254,1,75,2|2,0:0|0:0,0:0:0:0:
111,95,9842,1,0,1:2:0:0:
385,50,10185,5,10,3:2:0:0:
334,103,10356,1,0,3:2:0:0:
270,143,10527,1,2,1:2:0:0:
178,151,10699,2,0,L|17:151,2,150,2|10|10,3:2|1:2|0:0,0:0:0:0:
356,44,11556,6,0,L|360:199,1,150,6|10,1:2|1:2,0:0:0:0:
191,43,12242,2,0,L|195:198,1,150,0|8,1:0|0:0,0:0:0:0:
354,344,12927,6,0,L|514:347,2,150,0|10|0,1:0|1:2|1:0,0:0:0:0:
260,343,13785,2,0,L|338:344,1,75,10|10,1:2|1:2,0:0:0:0:
67,56,14299,6,0,L|64:216,1,150,2|10,1:2|0:0,0:0:0:0:
240,104,14985,2,0,P|279:143|369:195,1,150,2|10,1:2|0:0,0:0:0:0:
190,255,15670,2,0,P|151:294|61:346,1,150,2|10,1:2|0:0,0:0:0:0:
249,255,16356,1,2,1:2:0:0:
303,306,16527,1,8,0:0:0:0:
368,342,16698,1,8,1:2:0:0:
103,213,17042,6,0,L|99:54,1,150,6|10,1:2|0:0,0:0:0:0:
292,56,17727,1,2,1:2:0:0:
107,40,18070,2,0,L|20:42,1,75,10|2,0:0|1:2,0:0:0:0:
214,145,18413,6,0,L|377:143,1,150,0|8,0:0|0:0,0:0:0:0:
279,230,18927,1,2,0:0:0:0:
358,229,19099,1,0,1:2:0:0:
454,228,19270,1,2,0:0:0:0:
454,228,19442,1,8,0:0:0:0:
179,327,19785,6,0,L|9:330,2,150,2|10|2,1:2|0:0|1:2,0:0:0:0:
367,223,20813,2,0,L|280:223,1,75,10|2,0:0|1:2,0:0:0:0:
111,229,21156,6,0,L|106:78,1,150,0|10,0:0|0:0,0:0:0:0:
200,303,21670,2,0,L|193:151,1,150,2|2,0:0|0:0,0:0:0:0:
109,71,22185,2,0,L|21:72,1,75,8|8,0:0|0:3,0:0:0:0:
212,68,22527,6,0,L|371:67,2,150,6|8|0,1:2|0:0|1:2,0:0:0:0:
135,70,23385,2,0,L|133:154,1,75,0|8,1:2|0:0,0:0:0:0:
416,314,23899,2,0,L|495:315,2,75,2|0|8,0:0|1:2|0:0,0:0:0:0:
309,312,24413,6,0,L|302:152,1,150,2|0,0:0|0:0,0:0:0:0:
395,194,24927,1,8,0:0:0:0:
111,69,25270,6,0,L|22:68,1,75,2|0,1:2|1:2,0:0:0:0:
138,69,25613,2,0,L|302:69,1,150,14|2,0:0|1:2,0:0:0:0:
363,129,26127,1,10,0:0:0:0:
361,63,26298,1,10,0:0:0:0:
185,202,26469,1,6,1:2:0:0:
305,335,26813,1,0,1:2:0:0:
110,331,26985,6,0,P|57:295|126:112,1,300,14|8,0:0|0:0,0:0:0:0:
396,42,28013,6,0,L|400:204,1,150,4|10,0:0|0:0,0:0:0:0:
228,285,28699,2,0,L|137:288,2,75,2|2|10,1:2|1:2|0:0,0:0:0:0:
414,344,29213,6,0,L|414:181,1,150,2|0,1:2|1:2,0:0:0:0:
318,185,29727,2,0,L|157:186,1,150,10|2,0:0|0:0,0:0:0:0:
247,90,30242,2,0,L|338:89,1,75,2|10,1:2|0:0,0:0:0:0:
472,85,30756,6,0,L|476:168,1,75,0|2,1:2|0:0,0:0:0:0:
280,285,31099,2,0,L|119:288,1,150,10|2,0:0|1:2,0:0:0:0:
288,185,31785,1,10,0:0:0:0:
199,37,31956,6,0,L|196:195,1,150,2|2,1:2|1:2,0:0:0:0:
287,219,32470,1,8,0:0:0:0:
469,341,32642,2,0,L|471:182,1,150,2|2,1:2|1:2,0:0:0:0:
392,134,33156,1,8,0:0:0:0:
118,50,33499,6,0,L|31:50,1,75,0|2,1:2|0:0,0:0:0:0:
146,130,33842,2,0,L|304:130,1,150,8|2,0:0|1:2,0:0:0:0:
138,335,34527,1,10,0:0:0:0:
50,287,34699,2,0,L|49:134,1,150,2|2,1:2|1:2,0:0:0:0:
138,335,35213,1,8,0:0:0:0:
317,216,35385,6,0,L|488:217,1,150,2|2,1:2|1:2,0:0:0:0:
389,135,35899,1,10,0:0:0:0:
102,34,36242,6,0,L|98:190,1,150,2|8,1:2|0:0,0:0:0:0:
258,40,36927,2,0,P|309:90|384:135,1,150,0|8,1:2|0:0,0:0:0:0:
201,255,37442,6,0,L|43:256,1,150,2|2,1:2|1:2,0:0:0:0:
141,163,37956,1,10,0:0:0:0:
224,95,38127,2,0,L|380:93,1,150,2|0,1:2|1:2,0:0:0:0:
466,55,38642,2,0,L|385:56,1,75,8|8,0:0|0:0,0:0:0:0:
194,284,38985,6,0,L|190:128,1,150,6|8,1:2|0:0,0:0:0:0:
278,195,39499,2,0,L|357:193,1,75,0|2,1:2|0:0,0:0:0:0:
100,50,40013,2,0,L|9:50,1,75,10|2,0:0|0:0,0:0:0:0:
113,123,40356,6,0,L|272:122,1,150,2|10,1:2|0:0,0:0:0:0:
342,119,40870,1,2,1:2:0:0:
180,281,41213,2,0,L|88:282,1,75,2|10,1:2|0:0,0:0:0:0:
357,346,41727,6,0,L|360:185,1,150,2|8,1:2|0:0,0:0:0:0:
266,237,42242,2,0,L|268:150,1,75,2|2,1:2|0:0,0:0:0:0:
418,61,42756,2,0,L|498:60,1,75,10|2,0:0|0:0,0:0:0:0:
311,62,43099,6,0,L|160:61,1,150,2|2,1:2|1:2,0:0:0:0:
236,151,43613,1,10,3:0:0:0:
57,345,43956,2,0,L|54:182,1,150,10|0,0:0|0:0,0:0:0:0:
252,332,44470,6,0,L|417:331,2,150,6|0|8,1:2|1:2|0:0,0:0:0:0:
418,207,45499,2,0,L|338:206,1,75,2|8,1:2|0:0,0:0:0:0:
151,36,45842,6,0,L|147:200,1,150,2|2,1:2|1:2,0:0:0:0:
301,35,46527,2,0,L|297:199,1,150,10|2,0:0|1:2,0:0:0:0:
41,354,47213,6,0,P|87:311|176:254,1,150,6|8,1:2|0:0,0:0:0:0:
252,258,47727,2,0,L|171:259,1,75,2|2,0:0|1:2,0:0:0:0:
345,146,48242,2,0,L|434:145,1,75,8|0,0:0|0:0,0:0:0:0:
239,60,48585,6,0,L|70:60,1,150,2|8,1:2|0:0,0:0:0:0:
164,150,49099,2,0,L|257:150,1,75,2|2,0:0|1:2,0:0:0:0:
68,315,49613,1,10,0:0:0:0:
335,297,49956,6,0,L|494:299,2,150,14|10|10,0:0|0:0|0:0,0:0:0:0:
249,236,50813,2,0,L|246:155,1,75,2|10,1:2|0:0,0:0:0:0:
434,91,51156,1,6,1:2:0:0:
201,45,51670,6,0,L|194:203,1,150,2|10,1:2|0:0,0:0:0:0:
300,72,52185,2,0,L|297:153,1,75,8|10,0:0|0:0,0:0:0:0:
27,339,52699,6,0,L|185:339,1,150,14|10,1:2|0:0,0:0:0:0:
268,252,53213,2,0,L|119:252,1,150,2|2,0:0|1:2,0:0:0:0:
43,164,53727,1,8,0:0:0:0:
300,33,54070,6,0,L|306:188,1,150,2|10,0:0|0:0,0:0:0:0:
213,35,54585,2,0,L|219:190,1,150,2|2,1:2|1:2,0:0:0:0:
324,284,55099,1,8,0:0:0:0:
71,43,55442,6,0,P|104:83|201:138,1,150,2|10,1:2|0:0,0:0:0:0:
271,146,55956,1,2,0:0:0:0:
443,273,56299,1,2,1:2:0:0:
443,198,56470,1,8,0:0:0:0:
443,123,56641,1,2,1:2:0:0:
259,318,56813,6,0,L|103:318,1,150,2|10,0:0|0:0,0:0:0:0:
213,229,57327,2,0,L|377:230,2,150,2|2|2,1:2|1:2|1:2,0:0:0:0:
36,345,58185,6,0,L|33:195,1,150,4|10,1:2|0:0,0:0:0:0:
190,140,58870,2,0,L|341:138,1,150,2|10,1:2|0:0,0:0:0:0:
174,47,59556,2,0,L|81:47,2,75,2|2|10,1:2|0:0|0:0,0:0:0:0:
267,136,60070,6,0,L|271:292,1,150,2|0,1:2|1:2,0:0:0:0:
186,300,60585,2,0,L|95:304,1,75,10|2,0:0|1:2,0:0:0:0:
305,293,60927,6,0,L|461:290,2,150,2|8|10,1:2|1:2|0:0,0:0:0:0:
141,173,61956,2,0,L|139:79,1,75,8|0,0:0|1:2,0:0:0:0:
324,66,62299,6,0,L|490:66,1,150,2|8,0:0|0:0,0:0:0:0:
397,157,62813,1,10,0:0:0:0:
306,159,62985,2,0,L|139:157,1,150,2|8,1:2|0:0,0:0:0:0:
431,346,63670,6,0,L|433:185,1,150,14|10,0:0|0:0,0:0:0:0:
270,62,64356,1,0,1:2:0:0:
223,120,64527,1,2,1:2:0:0:
166,169,64698,1,8,0:0:0:0:
421,314,65042,6,0,P|392:281|302:225,1,150,2|10,0:0|0:0,0:0:0:0:
200,218,65556,2,0,L|40:220,2,150,2|2|10,1:2|1:2|1:2,0:0:0:0:
396,28,66413,6,0,L|399:195,1,150,6|10,1:2|0:0,0:0:0:0:
305,213,66927,1,2,0:0:0:0:
462,348,67270,1,2,1:2:0:0:
409,295,67441,1,8,0:0:0:0:
344,258,67612,1,2,1:2:0:0:
147,187,67785,6,0,L|143:37,1,150,2|10,0:0|0:0,0:0:0:0:
238,96,68299,1,2,0:0:0:0:
396,93,68642,2,0,L|481:92,2,75,2|8|2,1:2|0:0|1:2,0:0:0:0:
206,312,69156,6,0,L|46:314,2,150,4|10|2,1:2|0:0|1:2,0:0:0:0:
281,312,70013,2,0,L|194:313,1,75,0|10,1:2|0:0,0:0:0:0:
52,185,70527,1,2,1:2:0:0:
222,44,70870,1,10,0:0:0:0:
301,84,71042,6,0,L|307:237,1,150,2|0,1:2|1:2,0:0:0:0:
227,276,71556,2,0,L|144:279,1,75,10|2,0:0|1:2,0:0:0:0:
351,273,71899,6,0,L|501:273,1,150,14|2,0:0|0:3,0:0:0:0:
414,184,72413,2,0,L|249:184,1,150,10|2,0:0|0:3,0:0:0:0:
357,93,72927,6,0,L|197:94,1,150,10|2,0:0|0:3,0:0:0:0:
102,25,73442,2,0,L|99:182,1,150,10|2,0:0|0:3,0:0:0:0:
205,209,73956,2,0,L|287:209,2,75,10|10|10,0:0|0:0|0:0,0:0:0:0:
26,308,74470,5,6,1:2:0:0:
297,339,75156,2,0,L|298:252,1,75,10|10,0:0|0:0,0:0:0:0:
145,232,75670,1,10,1:2:0:0:
423,87,76013,5,6,1:2:0:0:
256,192,76356,12,0,77385,0:0:0:0:
309,54,85442,5,6,1:2:0:0:
149,292,85785,1,2,0:0:0:0:
198,236,85956,1,2,0:0:0:0:
255,186,86127,1,2,0:0:0:0:
317,145,86299,1,2,0:0:0:0:
153,152,86642,1,8,0:3:0:0:
412,330,86985,6,0,L|489:332,2,75,8|10|10,1:2|1:2|1:2,0:0:0:0:
104,66,88356,5,2,1:2:0:0:
206,174,88698,1,2,1:2:0:0:
343,231,89041,1,2,1:2:0:0:
190,320,89385,2,0,L|111:320,1,75,2|0,1:2|0:0,0:0:0:0:
296,319,89727,6,0,L|390:318,2,75,12|14|14,1:2|1:2|1:2,0:0:0:0:
139,226,90413,1,10,0:3:0:0:
138,188,90498,1,8,0:3:0:0:
138,151,90584,1,6,0:3:0:0:
137,113,90670,1,4,0:3:0:0:
137,76,90755,1,4,0:3:0:0:
334,77,90927,6,0,L|494:77,2,150,6|6|6,1:2|1:2|1:2,0:0:0:0:
164,76,91956,2,0,L|85:77,2,75,2|14|10,1:2|0:0|0:0,0:0:0:0:
363,185,92470,6,0,L|368:339,1,150,6|8,1:2|0:0,0:0:0:0:
218,331,93156,2,0,L|135:330,2,75,2|0|10,1:2|1:2|0:0,0:0:0:0:
415,179,93670,6,0,L|415:19,1,150,2|2,1:2|1:2,0:0:0:0:
339,97,94185,1,8,0:0:0:0:
252,99,94356,2,0,L|100:101,1,150,2|2,0:0|1:2,0:0:0:0:
181,31,94870,1,10,0:0:0:0:
456,311,95213,6,0,L|293:312,2,150,2|8|0,1:2|0:0|1:2,0:0:0:0:
203,177,96242,1,8,1:2:0:0:
123,34,96413,6,0,L|123:206,1,150,2|10,1:2|0:3,0:0:0:0:
203,177,96927,1,10,0:0:0:0:
291,293,97099,1,10,0:3:0:0:
351,251,97270,1,4,1:3:0:0:
372,181,97441,1,4,1:3:0:0:
343,113,97613,1,10,0:0:0:0:
277,79,97784,1,6,1:3:0:0:
84,275,97956,6,0,L|79:115,1,150,6|0,1:2|0:0,0:0:0:0:
172,191,98470,2,0,L|263:190,1,75,2|2,1:2|1:2,0:0:0:0:
94,43,98985,2,0,L|4:42,1,75,2|2,1:2|1:2,0:0:0:0:
108,102,99327,6,0,L|272:101,1,150,2|2,1:2|0:0,0:0:0:0:
178,181,99842,1,2,1:2:0:0:
101,181,100013,2,0,L|7:181,2,75,0|2|2,0:0|0:0|0:0,0:0:0:0:
362,349,100699,6,0,L|363:178,1,150,2|2,1:2|0:0,0:0:0:0:
283,349,101213,2,0,L|204:350,1,75,2|2,1:2|1:2,0:0:0:0:
390,165,101727,2,0,L|488:165,1,75,2|2,0:0|1:2,0:0:0:0:
276,72,102070,6,0,L|145:72,2,112.5,14|14|14,0:0|0:0|0:0,0:0:0:0:
362,71,102756,2,0,L|487:73,2,112.5,14|10|8,0:0|0:0|0:0,0:0:0:0:
165,256,103442,6,0,L|144:334,2,75,6|0|0,1:2|0:0|1:2,0:0:0:0:
315,208,104127,1,8,0:0:0:0:
126,102,104470,2,0,L|36:104,1,75,2|8,1:2|0:0,0:0:0:0:
140,104,104813,6,0,L|313:103,2,150,2|2|10,1:2|0:0|0:0,0:0:0:0:
306,235,105842,2,0,L|381:234,1,75,2|8,1:2|0:0,0:0:0:0:
183,200,106185,6,0,L|29:201,1,150,6|8,1:2|0:0,0:0:0:0:
109,116,106699,2,0,L|202:115,1,75,2|2,0:0|1:2,0:0:0:0:
353,110,107213,1,8,0:0:0:0:
75,311,107556,6,0,L|72:149,1,150,2|8,1:2|0:0,0:0:0:0:
157,309,108070,2,0,L|241:308,1,75,2|2,0:0|1:2,0:0:0:0:
56,103,108585,1,10,0:0:0:0:
335,38,108927,6,0,L|175:38,2,150,14|10|10,1:2|1:2|1:2,0:0:0:0:
427,109,109785,2,0,L|429:190,1,75,2|10,1:2|1:2,0:0:0:0:
239,269,110127,1,14,0:0:0:0:
438,273,110642,2,0,L|444:348,2,75,10|2|10,0:0|0:0|0:0,0:0:0:0:
313,107,111327,1,10,0:0:0:0:
21,46,111670,6,0,L|186:46,1,150,14|10,1:2|0:0,0:0:0:0:
263,43,112185,2,0,L|427:44,2,150,2|2|2,0:0|1:2|1:2,0:0:0:0:
70,309,113042,6,0,L|64:151,1,150,2|10,0:0|0:0,0:0:0:0:
161,313,113556,2,0,L|337:313,1,150,2|2,1:2|1:2,0:0:0:0:
228,225,114070,1,8,0:0:0:0:
484,66,114413,6,0,L|308:66,1,150,2|10,1:2|0:0,0:0:0:0:
231,26,114927,2,0,L|229:181,1,150,2|2,0:0|1:2,0:0:0:0:
328,181,115442,2,0,L|327:261,1,75,8|2,0:0|1:2,0:0:0:0:
144,94,115785,6,0,L|138:249,1,150,2|10,0:0|0:0,0:0:0:0:
234,285,116299,2,0,L|391:286,2,150,2|2|2,1:2|1:2|1:2,0:0:0:0:
43,148,117156,5,4,1:2:0:0:
199,36,117499,2,0,L|41:38,2,150,10|2|10,0:0|1:2|0:0,0:0:0:0:
494,249,118527,1,2,1:2:0:0:
449,189,118698,1,0,0:0:0:0:
386,148,118869,1,10,0:0:0:0:
297,70,119042,6,0,L|294:228,1,150,2|0,1:2|1:2,0:0:0:0:
216,294,119556,2,0,L|123:297,1,75,10|2,0:0|1:2,0:0:0:0:
340,183,119899,6,0,L|498:185,1,150,2|8,1:2|1:2,0:0:0:0:
414,103,120413,2,0,L|335:103,1,75,2|10,0:0|0:0,0:0:0:0:
492,29,120927,1,8,0:0:0:0:
215,32,121270,6,0,L|213:187,1,150,2|8,0:0|0:0,0:0:0:0:
296,190,121785,1,10,0:0:0:0:
390,331,121956,2,0,L|391:160,1,150,2|10,1:2|0:0,0:0:0:0:
307,330,122470,1,10,1:2:0:0:
121,332,122642,6,0,L|270:329,1,150,6|10,1:2|0:0,0:0:0:0:
358,323,123156,1,2,0:0:0:0:
195,173,123499,2,0,L|105:174,2,75,2|8|2,1:2|0:0|1:2,0:0:0:0:
382,31,124013,6,0,P|369:68|276:152,1,150,2|10,0:0|0:0,0:0:0:0:
203,255,124527,2,0,L|39:256,2,150,2|2|10,1:2|1:2|1:2,0:0:0:0:
400,243,125385,6,0,L|402:68,1,150,6|10,1:2|0:0,0:0:0:0:
306,75,125899,1,2,0:0:0:0:
475,38,126242,1,2,1:2:0:0:
429,96,126413,1,8,0:0:0:0:
368,141,126584,1,2,1:2:0:0:
183,152,126756,6,0,L|19:152,1,150,2|10,0:0|0:0,0:0:0:0:
123,331,127270,2,0,L|291:331,1,150,2|2,0:0|1:2,0:0:0:0:
362,330,127785,2,0,L|363:235,1,75,8|2,0:0|1:2,0:0:0:0:
173,217,128127,6,0,L|335:216,2,150,4|10|2,1:2|0:0|1:2,0:0:0:0:
84,172,128985,2,0,L|83:90,1,75,0|10,1:2|0:0,0:0:0:0:
237,61,129499,6,0,L|326:62,2,75,2|2|10,1:2|1:2|0:0,0:0:0:0:
142,64,130013,2,0,P|108:97|152:182,1,150,2|0,1:2|1:2,0:0:0:0:
224,185,130527,1,10,0:0:0:0:
477,348,130870,6,0,L|477:177,1,150,14|2,0:0|0:3,0:0:0:0:
386,325,131385,2,0,L|229:326,1,150,10|2,0:0|0:3,0:0:0:0:
148,277,131899,6,0,L|143:122,1,150,10|2,0:0|0:3,0:0:0:0:
237,99,132413,2,0,L|401:95,1,150,10|2,0:0|0:3,0:0:0:0:
295,257,132927,2,0,L|208:260,1,75,10|10,0:0|0:0,0:0:0:0:
220,259,133270,1,10,0:0:0:0:
409,135,133442,5,6,1:2:0:0:
171,345,134127,2,0,L|168:251,1,75,10|10,0:0|0:0,0:0:0:0:
319,344,134642,1,10,1:2:0:0:
33,45,134985,6,0,P|73:88|161:139,1,150,6|8,1:2|0:0,0:0:0:0:
310,54,135670,2,0,L|313:213,1,150,0|8,1:2|0:0,0:0:0:0:
231,207,136185,1,0,1:2:0:0:
141,310,136356,6,0,L|291:311,1,150,2|8,1:2|0:0,0:0:0:0:
458,305,136870,2,0,L|460:129,1,150,2|0,1:2|1:2,0:0:0:0:
375,122,137385,1,8,0:0:0:0:
94,52,137727,6,0,L|2:52,2,75,0|2|14,1:2|1:2|0:0,0:0:0:0:
183,138,138242,2,0,L|342:137,1,150,2|2,1:2|1:2,0:0:0:0:
64,318,138927,1,2,1:2:0:0:
147,319,139099,6,0,L|300:319,1,150,10|10,0:0|0:0,0:0:0:0:
482,236,139613,2,0,L|484:77,1,150,2|2,1:2|1:2,0:0:0:0:
391,82,140127,1,10,0:0:0:0:
103,33,140470,6,0,L|102:187,1,150,2|10,1:2|0:0,0:0:0:0:
284,44,141156,2,0,L|207:44,1,75,2|2,1:2|1:2,0:0:0:0:
122,103,141499,2,0,L|215:102,1,75,10|2,0:0|1:2,0:0:0:0:
388,293,141842,6,0,P|377:278|264:186,1,150,2|8,1:2|0:0,0:0:0:0:
202,171,142356,2,0,L|36:173,1,150,2|0,1:2|1:2,0:0:0:0:
127,87,142870,1,8,0:0:0:0:
403,304,143213,6,0,L|241:303,2,150,10|10|10,0:0|0:0|0:0,0:0:0:0:
482,196,144070,2,0,L|482:109,1,75,2|10,1:2|0:0,0:0:0:0:
298,95,144413,1,6,1:2:0:0:
134,46,144756,5,2,3:0:0:0:
84,100,144927,1,10,1:3:0:0:
66,172,145098,1,8,1:3:0:0:
85,244,145270,1,4,1:3:0:0:
136,298,145441,1,4,1:3:0:0:
207,320,145613,1,4,1:3:0:0:
380,321,145956,5,6,1:2:0:0:
214,89,156927,6,0,L|63:91,2,150,6|2|2,1:2|1:2|1:2,0:0:0:0:
382,256,157956,2,0,L|378:174,1,75,2|2,1:2|0:0,0:0:0:0:
194,335,158299,6,0,L|188:182,1,150,2|2,1:2|1:2,0:0:0:0:
266,266,158813,2,0,L|261:174,1,75,2|0,0:0|1:2,0:0:0:0:
96,114,159327,1,0,1:2:0:0:
367,56,159670,6,0,L|191:59,2,150,2|2|2,1:2|1:2|1:2,0:0:0:0:
443,139,160527,2,0,L|349:141,1,75,2|2,0:0|1:2,0:0:0:0:
97,336,161042,6,0,L|93:175,1,150,2|2,1:2|1:2,0:0:0:0:
280,131,161727,1,0,1:2:0:0:
113,132,162070,1,2,1:2:0:0:
395,264,162413,6,0,L|238:268,1,150,12|0,0:0|1:2,0:0:0:0:
50,200,162927,2,0,L|45:110,1,75,12|8,0:0|1:2,0:0:0:0:
206,154,163442,1,12,0:0:0:0:
32,48,163785,6,0,L|191:45,2,150,0|8|12,1:2|0:0|0:0,0:0:0:0:
204,265,164813,2,0,L|287:264,1,75,8|8,0:0|0:0,0:0:0:0:
97,341,165156,6,0,P|51:299|145:115,1,300,12|8,1:2|0:0,0:0:0:0:
290,40,166185,2,0,L|292:127,1,75,8|8,0:0|0:0,0:0:0:0:
109,44,166527,6,0,L|27:44,2,75,12|8|8,0:0|0:0|0:0,0:0:0:0:
267,254,167213,1,12,0:0:0:0:
417,253,167556,1,12,0:0:0:0:
121,253,167899,5,6,0:0:0:0:
277,38,177499,6,0,L|202:39,2,75,2|8|8,1:0|0:0|0:0,0:0:0:0:
460,40,178185,2,0,L|468:198,1,150,10|2,0:0|1:0,0:0:0:0:
207,318,178870,6,0,L|41:321,1,150,6|10,1:2|0:0,0:0:0:0:
135,234,179385,1,2,0:0:0:0:
298,149,179727,2,0,L|381:149,2,75,2|8|2,1:2|0:0|1:2,0:0:0:0:
98,39,180242,6,0,L|95:195,1,150,2|10,0:0|0:0,0:0:0:0:
171,233,180756,1,2,1:2:0:0:
329,348,181099,2,0,L|329:265,1,75,2|8,1:2|0:0,0:0:0:0:
57,60,181613,6,0,L|226:60,1,150,2|10,1:2|0:0,0:0:0:0:
293,192,182127,2,0,L|294:32,1,150,2|2,0:0|1:2,0:0:0:0:
200,197,182642,1,8,0:0:0:0:
471,36,182985,6,0,L|286:36,1,150,2|10,0:0|0:0,0:0:0:0:
241,34,183499,1,2,1:2:0:0:
399,176,183842,2,0,L|480:176,2,75,2|8|2,1:2|0:0|1:2,0:0:0:0:
212,339,184356,5,4,1:2:0:0:
358,260,184699,2,0,L|195:260,2,150,10|2|10,0:0|1:2|0:0,0:0:0:0:
194,46,185727,2,0,L|106:48,2,75,2|2|10,1:2|0:0|0:0,0:0:0:0:
282,45,186242,6,0,L|283:202,1,150,2|0,1:2|1:2,0:0:0:0:
191,156,186756,2,0,L|94:156,1,75,10|2,0:0|1:2,0:0:0:0:
302,299,187099,6,0,L|467:299,1,150,2|8,1:2|1:2,0:0:0:0:
370,214,187613,1,2,0:0:0:0:
276,216,187785,2,0,L|118:218,1,150,10|8,0:0|0:0,0:0:0:0:
400,41,188470,6,0,L|406:202,1,150,2|8,0:0|0:0,0:0:0:0:
308,114,188985,2,0,L|223:115,1,75,10|10,0:0|1:2,0:0:0:0:
400,309,189499,1,8,0:0:0:0:
130,316,189842,6,0,L|284:314,1,150,14|10,0:0|0:0,0:0:0:0:
378,313,190356,2,0,L|381:153,1,150,2|2,0:0|1:2,0:0:0:0:
213,128,191042,1,2,1:2:0:0:
25,32,191213,6,0,L|24:196,1,150,2|10,0:0|0:0,0:0:0:0:
126,91,191727,2,0,L|277:90,1,150,2|2,1:2|1:2,0:0:0:0:
198,174,192242,1,8,0:0:0:0:
476,56,192585,6,0,L|316:56,1,150,6|10,1:2|3:0,0:0:0:0:
130,280,193099,2,0,L|126:117,1,150,6|6,1:2|1:2,0:0:0:0:
300,331,193785,1,6,1:2:0:0:
223,248,193956,6,0,L|394:247,1,150,2|10,0:0|0:0,0:0:0:0:
455,244,194470,1,2,1:2:0:0:
290,127,194813,2,0,L|201:127,1,75,2|8,1:2|0:0,0:0:0:0:
479,42,195327,5,4,1:2:0:0:
320,46,195670,2,0,L|163:47,2,150,10|2|10,0:0|1:2|0:0,0:0:0:0:
160,178,196699,6,0,L|157:261,1,75,2|0,1:2|0:0,0:0:0:0:
241,288,197042,2,0,L|332:289,1,75,10|2,0:0|1:2,0:0:0:0:
157,123,197556,2,0,L|58:125,2,75,0|10|2,1:2|0:0|1:2,0:0:0:0:
342,52,198070,6,0,L|501:51,1,150,14|2,0:0|0:3,0:0:0:0:
398,151,198585,2,0,L|238:151,1,150,10|2,0:0|0:3,0:0:0:0:
50,328,199099,6,0,L|44:166,1,150,10|2,0:0|0:3,0:0:0:0:
149,331,199613,2,0,L|298:330,1,150,10|2,0:0|0:3,0:0:0:0:
224,232,200127,2,0,L|135:232,1,75,10|10,0:0|0:0,0:0:0:0:
73,148,200470,2,0,L|71:69,1,75,10|2,0:0|1:2,0:0:0:0:
268,60,200813,6,0,L|418:60,1,150,14|2,0:0|0:3,0:0:0:0:
330,147,201327,2,0,L|180:146,1,150,10|2,0:0|0:3,0:0:0:0:
377,269,201842,2,0,L|380:117,1,150,10|2,0:0|0:3,0:0:0:0:
282,332,202356,2,0,L|116:332,1,150,10|2,0:0|0:3,0:0:0:0:
53,252,202870,5,10,0:0:0:0:
49,158,203041,1,10,0:0:0:0:
142,116,203212,1,10,0:0:0:0:
344,184,203385,1,6,1:2:0:0:
208,45,204070,2,0,L|205:128,1,75,10|10,0:0|0:0,0:0:0:0:
300,43,204413,2,0,L|395:43,1,75,2|10,1:2|1:2,0:0:0:0:
90,292,204927,6,0,L|250:290,1,150,6|10,1:2|0:0,0:0:0:0:
401,284,205613,1,2,1:2:0:0:
237,186,205956,1,10,0:0:0:0:
168,183,206127,6,0,L|168:25,1,150,2|2,1:2|1:2,0:0:0:0:
278,79,206642,2,0,L|372:78,1,75,10|2,0:0|1:2,0:0:0:0:
188,294,207156,1,2,1:2:0:0:
109,247,207327,6,0,L|103:82,1,150,10|2,0:0|1:2,0:0:0:0:
377,247,208013,2,0,L|383:69,1,150,14|2,0:0|1:2,0:0:0:0:
201,43,208699,2,0,L|115:44,1,75,10|2,0:0|1:2,0:0:0:0:
313,44,209042,6,0,L|468:44,1,150,2|10,1:2|0:0,0:0:0:0:
386,130,209556,1,2,1:2:0:0:
216,327,209899,2,0,L|121:328,1,75,2|10,1:2|0:0,0:0:0:0:
411,279,210413,6,0,L|412:112,1,150,2|8,1:2|0:0,0:0:0:0:
325,184,210927,2,0,L|217:182,1,75,2|0,1:2|1:2,0:0:0:0:
413,44,211442,1,8,0:0:0:0:
145,45,211785,5,2,1:2:0:0:
187,110,211956,1,0,1:2:0:0:
254,151,212127,1,8,0:0:0:0:
363,322,212299,2,0,L|363:158,1,150,2|0,0:0|1:2,0:0:0:0:
288,319,212813,1,8,0:0:0:0:
22,94,213156,6,0,L|181:91,2,150,14|10|10,0:0|0:0|0:0,0:0:0:0:
294,35,214185,2,0,L|295:122,1,75,10|2,0:0|1:2,0:0:0:0:
132,239,214699,5,0,1:2:0:0:
331,239,214870,2,0,P|374:182|319:125,1,150,14|0,0:0|1:2,0:0:0:0:
250,123,215385,2,0,L|170:125,1,75,2|10,0:0|0:0,0:0:0:0:
350,33,215899,2,0,L|352:77,2,37.5,8|0|0,0:0|1:2|1:2,0:0:0:0:
147,38,216242,5,6,1:2:0:0:
256,192,216585,12,0,217270,0:0:0:0:
