osu file format v14

[General]
AudioFilename: audio.mp3
AudioLeadIn: 0
PreviewTime: 167763
Countdown: 0
SampleSet: Soft
StackLeniency: 0.4
Mode: 2
LetterboxInBreaks: 0
WidescreenStoryboard: 1

[Editor]
DistanceSpacing: 1
BeatDivisor: 4
GridSize: 32
TimelineZoom: 2

[Metadata]
Title:Gotoubun no Kimochi
TitleUnicode:五等分の気持ち
Artist:Nakanoke no Itsutsugo
ArtistUnicode:中野家の五つ子
Creator:Imai Lisa
Version:Overdose
Source:五等分の花嫁
Tags:Xetopia -Hex- Dapuluous Sc4v4ng3r Scavanger 5toubun no hanayome 5hanayome 5-toubun go-toubun 中野 一花 二乃 三玖 四葉 五月 Miku Yotsuba Nino Itsuki Ichika 水瀬 いのり Minase Inori 佐倉 綾音 Sakura Ayane ayaneru 伊藤 美来 Itou 竹達 彩奈 Taketatsu Ayana 花澤 香菜 Hanazawa Kana hanakana The Five Wedded Brides The Quintessential Quintuplets opening op full 斉藤 信治 Saito Nobuharu Five Equal Feelings Anime Japanese
BeatmapID:1990714
BeatmapSetID:953441

[Difficulty]
HPDrainRate:7
CircleSize:3.8
OverallDifficulty:9.2
ApproachRate:9.2
SliderMultiplier:1.8
SliderTickRate:2

[Events]
//Background and Video events
0,0,"bg.jpg",0,0
//Break Periods
2,146155,156357
//Storyboard Layer 0 (Background)
//Storyboard Layer 1 (Fail)
//Storyboard Layer 2 (Pass)
//Storyboard Layer 3 (Foreground)
//Storyboard Layer 4 (Overlay)
//Storyboard Sound Samples

[TimingPoints]
585,342.857142857143,4,2,1,40,1,0
5385,-100,4,2,1,45,0,0
5727,-100,4,2,1,50,0,0
6070,-100,4,2,1,50,0,0
10870,-100,4,2,1,40,0,0
11556,-100,4,2,1,60,0,0
43613,-90.9090909090909,4,2,1,60,0,0
44470,-100,4,2,1,60,0,0
49956,-90.9090909090909,4,2,1,60,0,0
51670,-100,4,2,1,60,0,0
52699,-90.9090909090909,4,2,1,70,0,1
76013,-100,4,2,1,70,0,0
85442,-100,4,2,1,60,0,0
85785,-100,4,2,1,50,0,0
86985,-100,4,2,1,60,0,0
87670,-100,4,2,1,40,0,0
88356,-100,4,2,1,60,0,0
97956,-100,4,2,1,60,0,0
102070,-90.9090909090909,4,2,1,70,0,0
102927,-90.9090909090909,4,2,1,60,0,0
103442,-100,4,2,1,60,0,0
106185,-100,4,2,1,60,0,0
108927,-90.9090909090909,4,2,1,60,0,0
111670,-90.9090909090909,4,2,1,70,0,1
134985,-100,4,2,1,60,0,0
143213,-90.9090909090909,4,2,1,60,0,0
144413,-100,4,2,1,60,0,0
145956,-100,4,2,1,50,0,0
156927,-100,4,2,1,60,0,0
162413,-100,4,2,1,70,0,0
164985,-100,4,2,1,50,0,0
166527,-100,4,2,1,70,0,0
167899,-100,4,2,1,60,0,0
177499,-90.9090909090909,4,2,1,70,0,0
178870,-90.9090909090909,4,2,1,80,0,1
204927,-100,4,2,1,80,0,0
217270,-100,4,2,1,5,0,0

[Colours]
Combo1 : 249,214,132
Combo2 : 254,211,234
Combo3 : 255,255,0
Combo4 : 0,128,0

[HitObjects]
32,353,585,6,0,P|41:278|182:135,1,270,2|0,0:0|0:0,0:0:0:0:
335,41,1270,2,0,P|290:91|88:163,1,270,2|0,0:0|0:0,0:0:0:0:
262,327,1956,2,0,L|265:43,1,270,2|0,0:0|0:0,0:0:0:0:
90,60,2642,2,0,P|135:110|337:182,1,270,2|0,0:0|0:0,0:0:0:0:
491,184,3327,5,2,0:0:0:0:
146,345,4013,2,0,L|141:72,1,270,2|0,0:0|0:0,0:0:0:0:
302,26,4699,5,10,0:0:0:0:
337,53,4785,1,0,0:0:0:0:
359,92,4870,1,0,0:0:0:0:
366,136,4956,1,0,0:0:0:0:
356,180,5042,1,2,0:0:0:0:
331,217,5127,1,0,0:0:0:0:
294,242,5213,1,0,0:0:0:0:
251,252,5299,1,0,0:0:0:0:
176,310,5385,6,0,L|237:311,1,45,10|8,0:0|0:0,0:0:0:0:
282,355,5556,2,0,L|228:353,1,45,8|8,0:0|0:0,0:0:0:0:
176,346,5727,2,0,L|119:343,1,45,8|8,0:0|0:0,0:0:0:0:
64,340,5899,2,0,L|114:343,1,45,8|8,0:0|0:0,0:0:0:0:
340,32,6070,6,0,L|348:222,1,180,6|0,1:2|1:0,0:0:0:0:
115,171,6756,2,0,P|183:125|287:87,1,180,0|0,0:0|1:2,0:0:0:0:
372,75,7270,1,2,0:0:0:0:
222,30,7442,6,0,P|183:66|249:153,1,180,2|2,0:0|1:2,0:0:0:0:
358,232,7956,2,0,L|255:233,1,90,2|0,0:0|0:0,0:0:0:0:
113,349,8299,2,0,L|109:253,1,90,2|0,1:2|1:2,0:0:0:0:
208,171,8642,1,2,0:0:0:0:
378,47,8813,6,0,L|187:47,1,180,2|2,0:0|1:2,0:0:0:0:
353,81,9327,1,2,0:0:0:0:
426,130,9499,1,2,0:0:0:0:
453,214,9670,1,2,0:0:0:0:
422,296,9842,1,0,1:2:0:0:
347,342,10013,2,0,L|300:344,1,45,2|0,1:2|0:0,0:0:0:0:
87,337,10185,6,0,L|85:288,1,45,10|0,3:2|0:0,0:0:0:0:
131,232,10356,2,0,L|182:229,1,45,0|0,3:2|0:0,0:0:0:0:
94,159,10527,2,0,L|40:160,1,45,2|0,1:2|0:0,0:0:0:0:
210,29,10699,5,2,3:2:0:0:
246,55,10785,1,0,3:2:0:0:
269,93,10870,1,8,0:0:0:0:
276,137,10956,1,8,0:0:0:0:
265,180,11042,1,10,1:2:0:0:
238,216,11127,1,8,0:0:0:0:
200,239,11213,1,8,1:2:0:0:
155,245,11299,1,8,0:0:0:0:
74,314,11385,2,0,L|130:313,1,45,10|8,0:0|0:0,0:0:0:0:
318,346,11556,6,0,L|321:255,1,90,6|0,1:2|0:0,0:0:0:0:
184,218,11899,2,0,L|187:127,1,90,10|2,1:2|0:0,0:0:0:0:
49,128,12242,2,0,L|52:37,1,90,0|2,1:0|0:0,0:0:0:0:
207,200,12585,2,0,L|210:100,1,90,8|2,0:0|0:0,0:0:0:0:
362,357,12927,1,0,1:0:0:0:
308,284,13098,1,2,0:0:0:0:
240,226,13269,1,10,1:2:0:0:
161,183,13441,1,0,0:0:0:0:
76,150,13613,5,0,1:0:0:0:
194,119,13785,1,10,1:2:0:0:
41,119,13956,2,0,L|147:119,1,90,10|0,1:2|0:0,0:0:0:0:
392,40,14299,6,0,L|251:40,1,135,2|0,1:2|0:0,0:0:0:0:
371,112,14642,2,0,L|378:259,1,135,10|0,0:0|0:0,0:0:0:0:
258,320,14985,2,0,P|294:293|396:252,1,135,2|0,1:2|0:0,0:0:0:0:
489,193,15327,2,0,P|453:166|351:125,1,135,10|0,0:0|0:0,0:0:0:0:
158,33,15670,6,0,L|156:136,1,90,2|2,1:2|0:0,0:0:0:0:
272,202,16013,2,0,L|378:208,1,90,10|0,0:0|0:0,0:0:0:0:
130,346,16356,2,0,L|126:249,1,90,2|8,1:2|0:0,0:0:0:0:
231,133,16699,1,8,1:2:0:0:
66,55,16870,2,0,L|12:56,1,45,2|2,1:2|1:2,0:0:0:0:
273,46,17042,6,0,L|378:43,1,90,6|2,1:2|0:0,0:0:0:0:
496,169,17385,2,0,L|401:164,1,90,10|2,0:0|0:0,0:0:0:0:
250,287,17727,2,0,L|351:287,1,90,2|2,1:2|0:0,0:0:0:0:
182,355,18070,1,10,0:0:0:0:
117,293,18242,1,2,1:2:0:0:
93,208,18413,1,0,0:0:0:0:
116,122,18585,1,2,1:2:0:0:
180,60,18756,1,8,0:0:0:0:
266,40,18927,1,2,0:0:0:0:
123,159,19099,6,0,L|217:158,1,90,0|2,1:2|0:0,0:0:0:0:
102,223,19442,1,8,0:0:0:0:
355,312,19613,2,0,L|402:312,1,45,10|8,0:0|0:0,0:0:0:0:
188,220,19785,6,0,L|294:220,1,90,2|2,1:2|0:0,0:0:0:0:
422,148,20127,2,0,L|333:149,1,90,10|2,0:0|0:0,0:0:0:0:
176,33,20470,2,0,L|174:131,1,90,2|2,1:2|0:0,0:0:0:0:
276,163,20813,1,10,0:0:0:0:
38,281,20985,1,2,1:2:0:0:
295,351,21156,5,0,0:0:0:0:
393,350,21327,1,2,1:2:0:0:
295,351,21499,1,10,0:0:0:0:
158,96,21670,2,0,L|346:95,1,180,2|2,0:0|0:0,0:0:0:0:
247,181,22185,1,8,0:0:0:0:
403,181,22356,2,0,L|459:181,1,45,8|4,0:3|0:3,0:0:0:0:
214,353,22527,6,0,L|211:263,1,90,6|0,1:2|1:2,0:0:0:0:
364,275,22870,2,0,P|302:236|185:198,1,180,8|0,0:0|1:2,0:0:0:0:
108,183,23385,1,0,1:2:0:0:
265,58,23556,2,0,L|373:57,1,90,8|2,0:0|1:2,0:0:0:0:
109,58,23899,5,2,0:0:0:0:
226,55,24070,1,0,1:2:0:0:
109,58,24242,1,8,0:0:0:0:
273,162,24413,2,0,L|78:162,1,180,2|0,0:0|0:0,0:0:0:0:
184,241,24927,1,8,0:0:0:0:
58,243,25099,2,0,L|8:244,1,45,2|8,1:2|0:0,0:0:0:0:
212,344,25270,6,0,L|122:346,1,90,2|0,1:2|1:2,0:0:0:0:
388,344,25613,2,0,L|482:342,1,90,14|2,0:0|0:0,0:0:0:0:
164,44,25956,1,2,1:2:0:0:
284,46,26127,1,10,0:0:0:0:
164,44,26299,1,10,0:0:0:0:
462,42,26470,1,6,1:2:0:0:
236,303,26813,2,0,L|235:252,1,45,0|0,1:2|1:2,0:0:0:0:
434,59,26985,6,0,P|482:92|424:172,1,180,14|0,0:0|1:2,0:0:0:0:
331,171,27499,1,0,0:0:0:0:
200,165,27670,2,0,L|303:167,1,90,8|0,0:0|1:2,0:0:0:0:
34,36,28013,6,0,L|32:132,1,90,4|2,0:0|0:0,0:0:0:0:
273,293,28356,2,0,L|156:291,1,90,10|0,0:0|0:0,0:0:0:0:
303,232,28699,2,0,L|399:232,1,90,2|2,1:2|1:2,0:0:0:0:
143,217,29042,1,10,0:0:0:0:
414,41,29213,6,0,P|371:84|254:135,1,180,2|0,1:2|1:2,0:0:0:0:
374,199,29727,2,0,L|377:296,1,90,10|2,0:0|1:2,0:0:0:0:
222,338,30070,2,0,L|315:338,1,90,2|2,0:0|1:2,0:0:0:0:
469,154,30413,2,0,P|422:131|328:109,1,135,10|0,0:0|0:0,0:0:0:0:
186,38,30756,6,0,L|294:38,1,90,0|2,1:2|0:0,0:0:0:0:
26,138,31099,2,0,P|53:160|206:211,1,180,10|2,0:0|1:2,0:0:0:0:
282,215,31613,1,0,1:2:0:0:
33,335,31785,1,10,0:0:0:0:
296,341,31956,6,0,L|296:191,1,135,2|0,1:2|0:0,0:0:0:0:
109,130,32299,2,0,L|211:131,1,90,2|8,1:2|0:0,0:0:0:0:
438,51,32642,2,0,L|288:49,1,135,2|0,1:2|0:0,0:0:0:0:
95,254,32985,2,0,L|91:151,1,90,2|8,1:2|0:0,0:0:0:0:
208,252,33327,1,2,0:0:0:0:
45,346,33499,6,0,L|175:342,1,90,0|2,1:2|0:0,0:0:0:0:
397,340,33842,2,0,L|300:338,1,90,8|2,0:0|0:0,0:0:0:0:
199,243,34185,2,0,L|299:244,1,90,2|0,1:2|1:2,0:0:0:0:
54,84,34527,1,10,0:0:0:0:
315,46,34699,6,0,P|364:120|300:168,1,180,2|2,1:2|1:2,0:0:0:0:
205,177,35213,1,8,0:0:0:0:
52,307,35385,2,0,L|245:304,1,180,2|2,1:2|1:2,0:0:0:0:
398,323,35899,2,0,L|402:218,1,90,10|2,0:0|0:0,0:0:0:0:
166,28,36242,5,2,1:2:0:0:
101,89,36413,1,0,0:0:0:0:
79,175,36585,1,8,0:0:0:0:
105,260,36756,1,0,0:0:0:0:
172,318,36927,1,0,1:2:0:0:
260,332,37099,1,0,1:2:0:0:
26,334,37270,1,8,0:0:0:0:
360,172,37442,6,0,L|167:169,1,180,2|2,1:2|1:2,0:0:0:0:
180,75,37956,1,10,0:0:0:0:
16,268,38127,2,0,L|212:264,1,180,2|0,1:2|1:2,0:0:0:0:
296,262,38642,2,0,L|353:262,1,45,8|8,0:0|0:0,0:0:0:0:
178,168,38813,2,0,L|235:167,1,45,8|8,0:0|0:0,0:0:0:0:
487,41,38985,6,0,P|464:65|310:131,1,180,6|8,1:2|0:0,0:0:0:0:
243,132,39499,1,0,1:2:0:0:
93,219,39670,2,0,L|186:219,1,90,2|0,0:0|1:2,0:0:0:0:
417,343,40013,6,0,L|307:342,1,90,10|2,0:0|0:0,0:0:0:0:
22,69,40356,1,2,1:2:0:0:
142,68,40527,1,2,1:2:0:0:
22,69,40699,1,10,0:0:0:0:
292,348,40870,6,0,P|272:326|127:233,1,180,2|2,1:2|1:2,0:0:0:0:
296,201,41385,2,0,L|389:199,1,90,10|0,0:0|0:0,0:0:0:0:
107,106,41727,6,0,L|301:102,1,180,2|8,1:2|0:0,0:0:0:0:
195,189,42242,1,2,1:2:0:0:
323,258,42413,2,0,L|426:255,1,90,2|0,0:0|1:2,0:0:0:0:
161,340,42756,2,0,L|64:344,1,90,10|2,0:0|0:0,0:0:0:0:
306,40,43099,6,0,L|313:147,1,90,2|8,1:2|0:0,0:0:0:0:
196,204,43442,1,2,1:2:0:0:
463,344,43613,1,10,3:0:0:0:
376,301,43785,1,8,0:0:0:0:
342,210,43956,1,10,0:0:0:0:
379,121,44127,1,8,3:0:0:0:
467,82,44299,1,0,0:0:0:0:
165,35,44470,6,0,L|348:35,2,180,6|0|8,1:2|1:2|0:0,0:0:0:0:
393,170,45499,2,0,L|487:171,1,90,2|8,1:2|0:0,0:0:0:0:
247,349,45842,6,0,L|133:349,1,90,2|8,1:2|0:0,0:0:0:0:
28,255,46185,2,0,L|124:254,1,90,2|0,1:2|0:0,0:0:0:0:
266,149,46527,2,0,L|166:149,1,90,10|0,0:0|0:0,0:0:0:0:
409,40,46870,2,0,L|509:39,1,90,2|0,1:2|1:2,0:0:0:0:
200,341,47213,6,0,P|226:308|346:224,1,180,6|8,1:2|0:0,0:0:0:0:
235,131,47727,1,2,0:0:0:0:
409,40,47899,2,0,L|309:42,1,90,2|0,1:2|1:2,0:0:0:0:
209,47,48242,1,8,0:0:0:0:
321,96,48413,1,0,0:0:0:0:
60,321,48585,6,0,L|252:319,1,180,2|8,1:2|0:0,0:0:0:0:
335,311,49099,1,2,0:0:0:0:
186,223,49270,2,0,L|288:222,1,90,2|0,1:2|1:2,0:0:0:0:
441,225,49613,2,0,L|496:225,2,45,10|0|0,0:0|0:0|1:2,0:0:0:0:
175,35,49956,5,14,0:0:0:0:
138,67,50041,1,2,0:0:0:0:
122,114,50127,1,2,0:0:0:0:
131,162,50213,1,2,0:0:0:0:
162,200,50298,1,10,0:0:0:0:
207,218,50384,1,2,0:0:0:0:
285,242,50470,2,0,L|236:240,1,49.5000015106202,2|2,0:0|0:0,0:0:0:0:
169,294,50642,2,0,L|235:295,1,49.5000015106202,10|2,0:0|0:0,0:0:0:0:
380,333,50813,6,0,L|443:333,1,49.5000015106202,2|8,1:2|1:2,0:0:0:0:
268,172,50985,2,0,L|211:171,1,49.5000015106202,10|2,0:0|0:0,0:0:0:0:
22,41,51156,5,6,1:2:0:0:
328,353,51670,2,0,L|332:211,1,135,2|0,1:2|1:2,0:0:0:0:
183,91,52013,2,0,L|243:90,1,45,10|8,0:0|0:0,0:0:0:0:
292,41,52185,2,0,L|241:43,1,45,8|8,0:0|0:0,0:0:0:0:
414,82,52356,1,10,0:0:0:0:
433,92,52399,1,0,0:0:0:0:
445,111,52442,1,10,0:0:0:0:
448,133,52485,1,0,0:0:0:0:
440,154,52527,1,10,0:0:0:0:
424,169,52570,1,0,0:0:0:0:
402,175,52613,1,10,0:0:0:0:
156,353,52699,6,0,P|165:333|311:208,1,198.000006042481,14|10,1:2|0:0,0:0:0:0:
395,186,53213,1,2,0:0:0:0:
164,32,53385,2,0,L|160:136,1,99.0000030212403,0|2,1:2|1:2,0:0:0:0:
262,206,53727,1,8,0:0:0:0:
19,321,53899,1,2,1:2:0:0:
314,82,54070,6,0,L|107:83,1,198.000006042481,2|10,0:0|0:0,0:0:0:0:
15,85,54585,1,2,1:2:0:0:
262,186,54756,2,0,L|265:302,1,99.0000030212403,0|2,0:0|1:2,0:0:0:0:
369,344,55099,1,8,0:0:0:0:
127,220,55270,2,0,L|68:222,1,49.5000015106202,2|8,1:2|0:0,0:0:0:0:
319,32,55442,6,0,P|370:86|292:166,1,198.000006042481,2|10,1:2|0:0,0:0:0:0:
196,166,55956,1,2,0:0:0:0:
430,349,56127,2,0,L|324:350,1,99.0000030212403,0|2,1:2|1:2,0:0:0:0:
447,278,56470,1,8,0:0:0:0:
198,293,56642,1,2,1:2:0:0:
471,83,56813,6,0,L|259:84,1,198.000006042481,2|10,0:0|0:0,0:0:0:0:
132,336,57327,2,0,L|131:137,1,198.000006042481,2|2,1:2|1:2,0:0:0:0:
366,265,57842,1,8,0:0:0:0:
468,169,58013,2,0,L|413:170,1,49.5000015106202,2|8,1:2|0:0,0:0:0:0:
242,175,58185,6,0,L|142:178,1,99.0000030212403,4|0,1:2|0:0,0:0:0:0:
383,33,58527,2,0,P|431:80|371:180,1,198.000006042481,10|2,0:0|1:2,0:0:0:0:
272,188,59042,1,0,1:2:0:0:
408,341,59213,2,0,L|297:341,1,99.0000030212403,10|0,0:0|1:2,0:0:0:0:
38,86,59556,5,2,1:2:0:0:
166,86,59727,1,2,0:0:0:0:
38,86,59899,1,10,0:0:0:0:
306,269,60070,2,0,L|309:71,1,198.000006042481,2|0,1:2|1:2,0:0:0:0:
149,200,60585,2,0,L|47:203,1,99.0000030212403,10|2,0:0|1:2,0:0:0:0:
311,331,60927,6,0,L|195:333,1,99.0000030212403,2|0,1:2|0:0,0:0:0:0:
372,253,61270,1,8,1:2:0:0:
494,252,61442,1,2,0:0:0:0:
229,116,61613,1,10,0:0:0:0:
100,114,61785,1,0,1:2:0:0:
344,114,61956,1,8,0:0:0:0:
483,115,62127,1,0,1:2:0:0:
213,38,62299,6,0,L|206:238,1,198.000006042481,2|8,0:0|0:0,0:0:0:0:
333,292,62813,2,0,L|391:295,1,49.5000015106202,10|8,0:0|0:0,0:0:0:0:
154,337,62985,5,2,1:2:0:0:
123,299,63070,1,0,0:0:0:0:
114,250,63156,1,8,0:0:0:0:
129,204,63242,1,8,0:0:0:0:
165,170,63327,1,8,0:0:0:0:
213,159,63413,1,0,0:0:0:0:
66,55,63499,2,0,L|15:55,1,49.5000015106202,8|8,0:0|0:0,0:0:0:0:
300,58,63670,6,0,L|102:58,1,198.000006042481,14|10,0:0|0:0,0:0:0:0:
335,344,64185,2,0,L|336:240,1,99.0000030212403,2|0,0:0|1:2,0:0:0:0:
165,170,64527,2,0,L|278:169,1,99.0000030212403,2|8,1:2|0:0,0:0:0:0:
495,175,64870,1,2,1:2:0:0:
206,75,65042,6,0,L|417:73,1,198.000006042481,2|10,0:0|0:0,0:0:0:0:
505,72,65556,1,2,1:2:0:0:
243,347,65727,2,0,L|238:244,1,99.0000030212403,0|2,0:0|1:2,0:0:0:0:
340,151,66070,1,8,0:0:0:0:
108,153,66242,1,10,1:2:0:0:
392,304,66413,6,0,P|332:265|198:218,1,198.000006042481,6|10,1:2|0:0,0:0:0:0:
333,151,66927,2,0,L|436:147,1,99.0000030212403,2|0,0:0|1:2,0:0:0:0:
267,26,67270,2,0,L|265:128,1,99.0000030212403,2|8,1:2|0:0,0:0:0:0:
496,345,67613,1,2,1:2:0:0:
137,354,67785,6,0,P|175:310|315:230,1,198.000006042481,2|10,0:0|0:0,0:0:0:0:
447,117,68299,2,0,L|337:117,2,99.0000030212403,2|0|2,0:0|0:0|1:2,0:0:0:0:
200,113,68813,1,8,0:0:0:0:
74,174,68985,2,0,L|72:110,1,49.5000015106202,2|8,1:2|0:0,0:0:0:0:
262,327,69156,6,0,L|367:331,1,99.0000030212403,4|0,1:2|0:0,0:0:0:0:
496,244,69499,2,0,L|385:241,1,99.0000030212403,10|0,0:0|0:0,0:0:0:0:
241,155,69842,2,0,L|355:160,1,99.0000030212403,2|0,1:2|1:2,0:0:0:0:
106,36,70185,2,0,L|4:37,1,99.0000030212403,10|0,0:0|1:2,0:0:0:0:
262,341,70527,5,2,1:2:0:0:
385,336,70699,1,0,1:2:0:0:
262,341,70870,1,10,0:0:0:0:
16,130,71042,2,0,L|215:130,1,198.000006042481,2|0,1:2|1:2,0:0:0:0:
81,214,71556,2,0,L|197:213,1,99.0000030212403,10|2,0:0|1:2,0:0:0:0:
446,321,71899,5,14,0:0:0:0:
195,322,72070,2,0,L|315:322,1,99.0000030212403,10|2,0:3|0:3,0:0:0:0:
48,52,72413,1,10,0:0:0:0:
320,322,72585,2,0,L|445:322,1,99.0000030212403,10|2,0:3|0:3,0:0:0:0:
182,102,72927,1,10,0:0:0:0:
446,263,73099,2,0,L|447:155,1,99.0000030212403,10|2,0:3|0:3,0:0:0:0:
200,212,73442,1,10,0:0:0:0:
454,91,73613,2,0,L|355:92,1,99.0000030212403,10|2,0:3|0:3,0:0:0:0:
102,344,73956,6,0,L|43:344,1,49.5000015106202,10|2,0:0|0:0,0:0:0:0:
221,344,74127,2,0,L|291:343,1,49.5000015106202,10|10,0:0|0:0,0:0:0:0:
79,297,74299,2,0,L|22:298,1,49.5000015106202,10|2,0:0|0:0,0:0:0:0:
333,48,74470,5,6,1:2:0:0:
134,57,74813,1,0,0:0:0:0:
239,57,74985,1,0,0:0:0:0:
394,170,75156,5,10,0:0:0:0:
344,168,75241,1,0,0:0:0:0:
295,167,75327,1,10,0:0:0:0:
428,274,75499,1,2,1:2:0:0:
191,199,75670,2,0,L|27:199,1,148.50000453186,10|0,1:2|0:0,0:0:0:0:
248,78,76013,6,0,L|352:78,1,90,6|0,1:2|0:0,0:0:0:0:
483,176,76356,2,0,L|391:176,1,90,8|0,0:0|0:0,0:0:0:0:
239,73,76699,2,0,L|235:165,1,90,2|0,0:0|0:0,0:0:0:0:
401,365,77042,5,8,0:0:0:0:
327,315,77213,1,2,0:0:0:0:
295,232,77384,1,0,0:0:0:0:
314,146,77556,1,2,0:0:0:0:
379,85,77727,1,8,0:0:0:0:
486,33,77899,2,0,L|437:31,1,45,0|0,0:0|0:0,0:0:0:0:
263,165,78070,6,0,L|367:160,1,90,2|0,0:0|0:0,0:0:0:0:
120,51,78413,2,0,L|31:48,1,90,8|8,0:0|0:3,0:0:0:0:
284,326,78756,5,2,0:0:0:0:
176,262,78927,2,0,L|234:262,1,45,0|0,0:0|0:0,0:0:0:0:
409,159,79099,2,0,L|314:160,1,90,12|0,0:0|0:0,0:0:0:0:
166,62,79442,2,0,L|257:60,1,90,2|0,0:0|0:0,0:0:0:0:
354,55,79785,1,8,0:0:0:0:
118,162,79956,1,2,0:0:0:0:
420,344,80127,5,0,0:0:0:0:
288,342,80299,2,0,L|381:342,1,90,2|8,0:0|0:0,0:0:0:0:
219,275,80642,2,0,P|175:245|238:146,1,180,0|0,0:0|0:0,0:0:0:0:
314,132,81156,1,8,0:0:0:0:
175,46,81327,2,0,L|108:45,1,45,0|0,0:0|0:0,0:0:0:0:
373,300,81499,6,0,L|191:296,1,180,2|8,0:0|0:0,0:0:0:0:
317,212,82013,2,0,L|272:211,1,45,0|0,0:0|0:0,0:0:0:0:
59,112,82185,2,0,L|156:112,1,90,2|0,0:0|0:0,0:0:0:0:
291,113,82527,2,0,L|393:115,1,90,8|2,0:0|0:0,0:0:0:0:
93,303,82870,5,2,0:0:0:0:
209,304,83042,1,0,0:0:0:0:
93,303,83213,1,8,0:0:0:0:
262,227,83385,2,0,L|449:228,1,180,0|0,0:0|0:0,0:0:0:0:
288,148,83899,2,0,L|389:148,1,90,8|2,0:0|0:0,0:0:0:0:
130,53,84242,6,0,L|39:54,1,90,8|0,0:0|0:0,0:0:0:0:
163,133,84585,2,0,L|258:134,1,90,8|0,0:0|3:0,0:0:0:0:
486,325,84927,1,8,0:0:0:0:
356,323,85099,1,8,0:0:0:0:
486,325,85270,1,8,0:0:0:0:
202,321,85442,5,6,1:2:0:0:
387,44,85785,1,2,0:0:0:0:
307,85,85956,1,2,0:0:0:0:
219,100,86127,1,2,0:0:0:0:
107,105,86256,1,0,0:0:0:0:
114,126,86299,1,2,0:0:0:0:
322,221,86642,2,0,L|329:366,1,135,8|0,0:3|0:0,0:0:0:0:
55,317,86985,5,8,1:2:0:0:
184,314,87156,1,10,1:2:0:0:
55,317,87327,1,10,1:2:0:0:
251,32,87670,1,0,0:0:0:0:
317,91,87842,1,0,0:0:0:0:
342,176,88013,1,0,0:0:0:0:
319,262,88185,1,0,0:0:0:0:
254,322,88356,5,2,1:2:0:0:
167,340,88527,1,0,0:0:0:0:
299,215,88699,1,2,1:2:0:0:
404,237,88870,1,0,0:0:0:0:
244,122,89042,1,2,1:2:0:0:
121,145,89213,1,0,0:0:0:0:
353,29,89385,1,2,1:2:0:0:
494,51,89556,1,0,0:0:0:0:
200,327,89727,5,12,1:2:0:0:
45,348,89899,1,14,1:2:0:0:
200,327,90070,1,14,1:2:0:0:
426,304,90413,5,10,0:3:0:0:
459,274,90499,1,8,0:3:0:0:
475,233,90585,1,6,0:3:0:0:
468,189,90670,1,4,0:3:0:0:
442,153,90756,1,4,0:3:0:0:
401,135,90842,1,0,0:0:0:0:
169,52,90927,6,0,L|271:54,1,90,6|0,1:2|0:0,0:0:0:0:
27,211,91270,2,0,L|118:214,1,90,6|8,1:2|0:0,0:0:0:0:
368,226,91613,2,0,L|371:177,1,45,6|0,1:2|0:0,0:0:0:0:
195,35,91785,5,2,0:0:0:0:
165,68,91870,1,2,0:0:0:0:
155,111,91956,1,2,1:2:0:0:
168,154,92042,1,2,0:0:0:0:
199,186,92127,1,14,0:0:0:0:
242,198,92213,1,2,0:0:0:0:
417,334,92299,2,0,L|356:337,1,45,10|2,0:0|0:0,0:0:0:0:
152,342,92470,6,0,L|246:341,1,90,6|0,1:2|0:0,0:0:0:0:
107,258,92813,2,0,L|8:259,1,90,8|2,0:0|0:0,0:0:0:0:
161,183,93156,2,0,L|259:184,1,90,2|0,1:2|1:2,0:0:0:0:
485,177,93499,1,10,0:0:0:0:
228,46,93670,5,2,1:2:0:0:
178,118,93842,1,0,0:0:0:0:
200,202,94013,1,2,1:2:0:0:
278,241,94185,1,8,0:0:0:0:
125,336,94356,2,0,L|310:339,1,180,2|2,0:0|1:2,0:0:0:0:
461,222,94870,2,0,L|359:225,1,90,10|2,0:0|1:2,0:0:0:0:
125,31,95213,5,2,1:2:0:0:
198,82,95385,1,0,0:0:0:0:
231,164,95556,1,8,0:0:0:0:
215,251,95727,1,0,0:0:0:0:
153,315,95899,1,0,1:2:0:0:
67,336,96070,1,0,1:2:0:0:
302,348,96242,1,8,1:2:0:0:
27,174,96413,6,0,L|222:172,1,180,2|10,1:2|0:3,0:0:0:0:
101,89,96927,1,10,0:0:0:0:
334,37,97099,2,0,L|235:37,1,90,10|4,0:3|1:3,0:0:0:0:
377,122,97442,1,4,1:3:0:0:
146,320,97613,1,10,0:0:0:0:
164,306,97656,1,0,0:0:0:0:
182,294,97699,1,2,0:0:0:0:
202,283,97742,1,0,0:0:0:0:
222,273,97785,1,6,1:3:0:0:
243,264,97827,1,0,0:0:0:0:
264,256,97870,1,0,0:0:0:0:
486,44,97956,6,0,L|298:49,1,180,6|0,1:2|0:0,0:0:0:0:
214,52,98470,1,2,1:2:0:0:
63,159,98642,2,0,L|163:155,1,90,2|0,1:2|0:0,0:0:0:0:
306,239,98985,2,0,L|214:240,1,90,2|2,1:2|1:2,0:0:0:0:
71,344,99327,6,0,L|177:340,2,90,2|2|2,1:2|0:0|0:0,0:0:0:0:
254,334,99842,1,2,1:2:0:0:
325,283,100013,1,0,0:0:0:0:
342,196,100185,1,2,0:0:0:0:
294,123,100356,1,2,0:0:0:0:
208,103,100527,1,0,0:0:0:0:
467,44,100699,6,0,L|280:43,1,180,2|2,1:2|0:0,0:0:0:0:
384,115,101213,1,2,1:2:0:0:
241,170,101385,2,0,L|147:172,1,90,2|0,1:2|0:0,0:0:0:0:
321,279,101727,1,2,0:0:0:0:
434,287,101899,1,2,1:2:0:0:
197,348,102070,6,0,L|317:347,1,99.0000030212403,14|0,0:0|0:0,0:0:0:0:
496,130,102327,2,0,L|379:128,1,99.0000030212403,14|0,0:0|0:0,0:0:0:0:
227,129,102585,2,0,L|284:129,1,49.5000015106202,14|0,0:0|0:0,0:0:0:0:
86,38,102756,5,14,0:0:0:0:
49,69,102842,1,0,0:0:0:0:
33,115,102927,1,8,0:0:0:0:
43,163,103013,1,10,0:0:0:0:
75,200,103099,1,8,0:0:0:0:
122,214,103185,1,8,0:0:0:0:
195,273,103270,2,0,L|126:274,1,49.5000015106202,8|8,0:0|0:0,0:0:0:0:
390,269,103442,6,0,L|499:274,1,90,6|0,1:2|0:0,0:0:0:0:
367,177,103785,2,0,L|255:171,1,90,0|0,1:2|0:0,0:0:0:0:
31,69,104127,2,0,L|175:73,1,135,8|0,0:0|0:0,0:0:0:0:
330,206,104470,2,0,L|339:109,1,90,2|8,1:2|0:0,0:0:0:0:
85,337,104813,6,0,P|38:302|97:218,1,180,2|2,1:2|0:0,0:0:0:0:
185,207,105327,1,0,0:0:0:0:
345,134,105499,2,0,L|242:131,1,90,10|0,0:0|0:0,0:0:0:0:
15,43,105842,1,2,1:2:0:0:
132,42,106013,1,8,0:0:0:0:
443,324,106185,6,0,L|251:318,1,180,6|8,1:2|0:0,0:0:0:0:
408,248,106699,1,2,0:0:0:0:
330,207,106870,1,2,1:2:0:0:
304,123,107042,1,0,1:2:0:0:
347,47,107213,1,8,0:0:0:0:
432,25,107385,1,0,0:0:0:0:
172,292,107556,6,0,P|209:243|324:166,1,180,2|8,1:2|0:0,0:0:0:0:
402,123,108070,1,2,0:0:0:0:
278,65,108242,2,0,L|181:63,1,90,2|0,1:2|1:2,0:0:0:0:
25,195,108585,1,10,0:0:0:0:
65,176,108670,1,0,0:0:0:0:
109,164,108756,1,0,1:2:0:0:
390,35,108927,5,14,1:2:0:0:
418,73,109013,1,2,0:0:0:0:
406,119,109099,1,2,0:0:0:0:
362,139,109185,1,2,0:0:0:0:
319,168,109270,1,10,1:2:0:0:
290,206,109356,1,2,0:0:0:0:
302,252,109442,1,2,0:0:0:0:
346,272,109527,1,2,0:0:0:0:
431,328,109613,2,0,L|376:328,1,49.5000015106202,10|2,1:2|0:0,0:0:0:0:
218,330,109785,6,0,L|271:331,1,49.5000015106202,2|8,1:2|1:2,0:0:0:0:
474,181,109956,2,0,L|423:182,1,49.5000015106202,10|2,1:2|0:0,0:0:0:0:
151,165,110127,5,14,0:0:0:0:
356,42,110642,1,10,0:0:0:0:
357,91,110727,1,2,0:0:0:0:
358,140,110813,1,2,0:0:0:0:
359,190,110899,1,2,1:2:0:0:
193,257,110985,2,0,L|262:256,1,49.5000015106202,10|8,0:0|0:0,0:0:0:0:
325,314,111156,2,0,L|264:316,1,49.5000015106202,8|8,1:2|0:0,0:0:0:0:
88,319,111327,1,10,0:0:0:0:
65,309,111370,1,2,0:0:0:0:
49,290,111413,1,10,0:0:0:0:
44,266,111456,1,2,0:0:0:0:
52,243,111499,1,10,0:0:0:0:
69,225,111542,1,2,0:0:0:0:
92,218,111585,1,10,0:0:0:0:
353,69,111670,6,0,L|155:67,1,198.000006042481,14|10,1:2|0:0,0:0:0:0:
405,151,112185,2,0,L|306:149,1,99.0000030212403,2|0,0:0|1:2,0:0:0:0:
148,228,112527,2,0,L|250:232,1,99.0000030212403,2|8,1:2|0:0,0:0:0:0:
483,241,112870,1,2,1:2:0:0:
198,53,113042,6,0,P|152:147|217:183,1,198.000006042481,2|10,0:0|0:0,0:0:0:0:
314,178,113556,1,2,1:2:0:0:
64,301,113727,2,0,L|165:301,2,99.0000030212403,0|2|8,0:0|1:2|0:0,0:0:0:0:
326,44,114242,2,0,L|328:103,1,49.5000015106202,2|8,1:2|0:0,0:0:0:0:
157,208,114413,6,0,L|358:208,1,198.000006042481,2|10,1:2|0:0,0:0:0:0:
487,110,114927,2,0,L|387:110,1,99.0000030212403,2|0,0:0|0:0,0:0:0:0:
236,150,115270,2,0,L|232:40,1,99.0000030212403,2|8,1:2|0:0,0:0:0:0:
490,167,115613,1,2,1:2:0:0:
209,341,115785,6,0,P|236:291|346:196,1,198.000006042481,2|10,0:0|0:0,0:0:0:0:
190,157,116299,2,0,L|69:156,1,99.0000030212403,2|0,1:2|0:0,0:0:0:0:
270,82,116642,2,0,L|151:79,1,99.0000030212403,2|8,1:2|0:0,0:0:0:0:
34,75,116985,2,0,L|88:76,1,49.5000015106202,2|8,1:2|0:0,0:0:0:0:
299,287,117156,6,0,L|183:284,1,99.0000030212403,4|0,1:2|0:0,0:0:0:0:
348,214,117499,2,0,P|407:169|336:91,1,198.000006042481,10|2,0:0|1:2,0:0:0:0:
240,84,118013,1,0,1:2:0:0:
85,75,118185,2,0,L|77:178,1,99.0000030212403,10|0,0:0|1:2,0:0:0:0:
345,39,118527,6,0,L|235:37,2,99.0000030212403,2|0|10,1:2|0:0|0:0,0:0:0:0:
100,127,119042,2,0,P|134:169|264:247,1,198.000006042481,2|0,1:2|1:2,0:0:0:0:
496,350,119556,2,0,L|390:340,1,99.0000030212403,10|2,0:0|1:2,0:0:0:0:
156,315,119899,6,0,L|149:203,1,99.0000030212403,2|0,1:2|1:2,0:0:0:0:
278,149,120242,1,8,1:2:0:0:
33,64,120413,1,2,0:0:0:0:
316,60,120585,1,10,0:0:0:0:
198,61,120756,1,0,1:2:0:0:
81,65,120927,1,8,0:0:0:0:
386,64,121098,1,2,1:2:0:0:
34,314,121270,6,0,L|234:312,1,198.000006042481,2|8,0:0|0:0,0:0:0:0:
346,313,121785,2,0,L|406:313,1,49.5000015106202,10|8,0:0|0:0,0:0:0:0:
198,29,121956,5,2,1:2:0:0:
166,65,122041,1,2,0:0:0:0:
154,113,122127,1,10,1:2:0:0:
165,160,122213,1,10,1:2:0:0:
197,197,122298,1,10,0:0:0:0:
243,215,122384,1,2,0:0:0:0:
95,295,122470,2,0,L|42:297,1,49.5000015106202,10|10,1:2|1:2,0:0:0:0:
350,292,122642,6,0,L|136:298,1,198.000006042481,6|10,1:2|0:0,0:0:0:0:
51,301,123156,1,2,0:0:0:0:
305,66,123327,2,0,L|311:177,1,99.0000030212403,0|2,1:2|1:2,0:0:0:0:
203,201,123670,1,8,0:0:0:0:
448,326,123842,1,2,1:2:0:0:
150,345,124013,6,0,P|199:298|324:228,1,198.000006042481,2|10,0:0|0:0,0:0:0:0:
450,151,124527,2,0,L|351:149,1,99.0000030212403,2|0,1:2|0:0,0:0:0:0:
209,139,124870,2,0,L|320:141,1,99.0000030212403,2|8,1:2|0:0,0:0:0:0:
76,49,125213,2,0,L|137:50,1,49.5000015106202,10|8,1:2|1:2,0:0:0:0:
404,340,125385,6,0,L|203:337,1,198.000006042481,6|10,1:2|0:0,0:0:0:0:
369,263,125899,2,0,L|265:260,1,99.0000030212403,2|0,0:0|1:2,0:0:0:0:
120,158,126242,2,0,L|233:161,1,99.0000030212403,2|8,1:2|0:0,0:0:0:0:
480,168,126585,1,2,1:2:0:0:
136,345,126756,6,0,L|131:136,1,198.000006042481,2|10,0:0|0:0,0:0:0:0:
290,60,127270,2,0,L|185:62,1,99.0000030212403,2|0,0:0|0:0,0:0:0:0:
33,69,127613,1,2,1:2:0:0:
148,141,127785,1,8,0:0:0:0:
30,215,127956,2,0,L|97:213,1,49.5000015106202,2|8,1:2|0:0,0:0:0:0:
318,348,128127,6,0,L|216:351,1,99.0000030212403,4|0,1:2|0:0,0:0:0:0:
377,266,128470,2,0,L|479:264,1,99.0000030212403,10|0,0:0|0:0,0:0:0:0:
286,162,128813,2,0,L|187:159,1,99.0000030212403,2|0,1:2|1:2,0:0:0:0:
449,55,129156,2,0,L|340:51,1,99.0000030212403,10|0,0:0|1:2,0:0:0:0:
60,57,129499,5,2,1:2:0:0:
186,52,129670,1,2,1:2:0:0:
60,57,129842,1,10,0:0:0:0:
334,202,130013,2,0,L|127:204,1,198.000006042481,2|0,1:2|1:2,0:0:0:0:
398,297,130527,2,0,L|298:298,1,99.0000030212403,10|2,0:0|1:2,0:0:0:0:
32,70,130870,5,14,0:0:0:0:
294,65,131042,2,0,L|190:65,1,99.0000030212403,10|2,0:3|0:3,0:0:0:0:
446,193,131385,1,10,0:0:0:0:
185,135,131556,2,0,L|81:135,1,99.0000030212403,10|2,0:3|0:3,0:0:0:0:
337,128,131899,1,10,0:0:0:0:
72,175,132070,2,0,L|70:282,1,99.0000030212403,10|2,0:3|0:3,0:0:0:0:
329,262,132413,1,10,0:0:0:0:
88,310,132585,2,0,L|198:310,1,99.0000030212403,10|2,0:3|0:3,0:0:0:0:
428,336,132927,6,0,L|482:335,1,49.5000015106202,10|10,0:0|0:0,0:0:0:0:
307,339,133099,2,0,L|256:339,1,49.5000015106202,10|10,0:0|0:0,0:0:0:0:
445,254,133270,2,0,L|510:253,1,49.5000015106202,10|2,0:0|0:0,0:0:0:0:
216,88,133442,5,6,1:2:0:0:
396,187,133785,1,0,0:0:0:0:
291,188,133956,1,0,0:0:0:0:
150,320,134127,2,0,L|209:317,1,49.5000015106202,10|0,0:0|0:0,0:0:0:0:
266,238,134299,2,0,L|161:240,1,99.0000030212403,10|2,0:0|1:2,0:0:0:0:
20,136,134642,2,0,L|184:135,1,148.50000453186,10|0,1:2|0:0,0:0:0:0:
412,55,134985,6,0,L|225:55,1,180,6|8,1:2|0:0,0:0:0:0:
365,157,135499,2,0,L|422:157,1,45,0|0,1:2|1:2,0:0:0:0:
468,242,135670,2,0,L|371:236,1,90,0|0,1:2|1:2,0:0:0:0:
232,329,136013,2,0,L|326:324,1,90,8|0,0:0|1:2,0:0:0:0:
77,237,136356,5,2,1:2:0:0:
314,115,136527,2,0,L|218:113,1,90,2|8,1:2|0:0,0:0:0:0:
469,50,136870,1,2,1:2:0:0:
394,94,137041,1,0,1:2:0:0:
369,179,137212,1,0,1:2:0:0:
408,258,137384,1,8,0:0:0:0:
490,289,137555,1,0,1:2:0:0:
251,339,137727,5,0,1:2:0:0:
369,271,137899,2,0,L|307:271,1,45,2|0,1:2|1:2,0:0:0:0:
139,272,138070,2,0,L|37:272,1,90,14|2,0:0|1:2,0:0:0:0:
292,121,138413,2,0,L|390:119,2,90,2|2|8,1:2|1:2|0:0,0:0:0:0:
43,52,138927,2,0,L|105:52,1,45,2|0,1:2|1:2,0:0:0:0:
313,252,139099,6,0,L|319:149,1,90,10|0,0:0|1:2,0:0:0:0:
216,102,139442,1,10,0:0:0:0:
450,39,139613,2,0,L|500:41,1,45,2|8,1:2|1:2,0:0:0:0:
296,39,139785,6,0,L|188:41,1,90,0|2,1:2|1:2,0:0:0:0:
364,192,140127,2,0,L|307:194,1,45,10|2,0:0|0:0,0:0:0:0:
377,192,140299,2,0,L|435:190,1,45,2|2,1:2|0:0,0:0:0:0:
182,271,140470,6,0,P|134:236|203:158,1,180,2|10,1:2|0:0,0:0:0:0:
304,155,140985,2,0,L|253:153,1,45,2|8,1:2|0:0,0:0:0:0:
42,43,141156,6,0,L|149:45,1,90,2|2,1:2|1:2,0:0:0:0:
224,46,141499,1,10,0:0:0:0:
95,134,141670,1,2,1:2:0:0:
360,299,141842,6,0,L|270:297,1,90,2|0,1:2|1:2,0:0:0:0:
405,225,142185,1,8,0:0:0:0:
135,336,142356,1,2,1:2:0:0:
57,295,142527,1,0,1:2:0:0:
29,212,142698,1,0,1:2:0:0:
66,133,142870,1,8,0:0:0:0:
148,101,143041,1,0,1:2:0:0:
414,245,143213,6,0,L|365:238,1,49.5000015106202,10|2,0:0|0:0,0:0:0:0:
196,151,143385,2,0,L|259:145,1,49.5000015106202,2|2,1:2|1:2,0:0:0:0:
426,46,143556,1,10,0:0:0:0:
461,80,143641,1,2,0:0:0:0:
475,127,143727,1,2,1:2:0:0:
465,175,143813,1,2,0:0:0:0:
434,213,143898,1,10,0:0:0:0:
389,231,143984,1,2,0:0:0:0:
233,332,144070,2,0,L|290:330,1,49.5000015106202,2|2,1:2|0:0,0:0:0:0:
480,323,144242,2,0,L|413:326,1,49.5000015106202,10|2,0:0|0:0,0:0:0:0:
150,234,144413,5,6,1:2:0:0:
362,70,144756,2,0,L|366:127,1,45,2|0,3:0|3:0,0:0:0:0:
182,380,144927,1,10,1:3:0:0:
115,319,145098,1,8,1:3:0:0:
82,237,145269,1,4,1:3:0:0:
88,148,145441,1,4,1:3:0:0:
132,70,145612,1,4,1:3:0:0:
205,19,145784,1,4,1:3:0:0:
376,180,145955,1,6,1:2:0:0:
414,62,156927,6,0,L|319:62,1,90,6|2,1:2|0:0,0:0:0:0:
161,65,157270,2,0,L|252:63,1,90,2|2,1:2|0:0,0:0:0:0:
433,127,157613,1,2,1:2:0:0:
486,196,157784,1,2,0:0:0:0:
466,280,157955,1,2,1:2:0:0:
389,320,158127,2,0,L|345:322,1,45,2|0,0:0|0:0,0:0:0:0:
113,328,158299,6,0,L|108:137,1,180,2|2,1:2|1:2,0:0:0:0:
278,44,158813,1,2,0:0:0:0:
199,82,158984,1,0,1:2:0:0:
170,165,159155,1,0,0:0:0:0:
210,244,159327,1,0,1:2:0:0:
293,271,159499,2,0,L|349:276,1,45,0|0,0:0|0:0,0:0:0:0:
134,326,159670,6,0,L|38:333,1,90,2|2,1:2|0:0,0:0:0:0:
212,185,160013,2,0,L|311:190,1,90,2|2,1:2|0:0,0:0:0:0:
138,82,160356,2,0,L|237:87,1,90,2|2,1:2|0:0,0:0:0:0:
393,93,160699,2,0,L|294:88,1,90,2|2,1:2|0:0,0:0:0:0:
45,236,161042,6,0,L|238:227,1,180,2|2,1:2|1:2,0:0:0:0:
317,221,161556,1,2,0:0:0:0:
141,336,161727,2,0,L|135:239,1,90,0|2,1:2|0:0,0:0:0:0:
230,158,162070,1,2,1:2:0:0:
72,70,162242,2,0,L|27:68,1,45,0|0,1:2|1:2,0:0:0:0:
261,72,162413,6,0,L|357:68,2,90,12|8|0,0:0|0:0|1:2,0:0:0:0:
19,84,162927,1,12,0:0:0:0:
258,332,163099,2,0,L|262:239,1,90,8|0,1:2|0:0,0:0:0:0:
90,162,163442,2,0,L|93:68,1,90,12|8,0:0|0:0,0:0:0:0:
344,33,163785,5,0,1:2:0:0:
228,39,163956,1,4,1:2:0:0:
291,102,164127,1,8,0:0:0:0:
375,133,164299,1,0,1:2:0:0:
142,326,164470,2,0,L|239:323,1,90,12|0,0:0|1:2,0:0:0:0:
477,330,164813,1,8,0:0:0:0:
357,269,164985,2,0,L|417:270,1,45,8|8,0:0|0:0,0:0:0:0:
193,34,165156,5,12,1:2:0:0:
155,57,165242,1,8,0:0:0:0:
126,92,165327,1,8,0:0:0:0:
109,133,165413,1,8,0:0:0:0:
105,178,165498,1,8,0:0:0:0:
115,221,165584,1,8,0:0:0:0:
138,260,165670,1,8,0:0:0:0:
172,289,165756,1,8,0:0:0:0:
213,307,165841,5,8,0:0:0:0:
258,311,165927,1,8,0:0:0:0:
329,312,166013,2,0,L|275:312,1,45,8|8,0:0|0:0,0:0:0:0:
128,151,166185,2,0,L|124:97,1,45,8|8,0:0|0:0,0:0:0:0:
39,89,166356,2,0,L|35:40,1,45,8|8,0:0|0:0,0:0:0:0:
317,49,166527,5,12,0:0:0:0:
440,47,166699,1,8,0:0:0:0:
317,49,166870,1,8,0:0:0:0:
176,50,167042,2,0,L|228:49,1,45,0|0,1:0|1:2,0:0:0:0:
480,230,167213,1,12,0:0:0:0:
344,232,167385,1,0,1:2:0:0:
42,241,167556,1,12,0:0:0:0:
238,378,167899,5,6,0:0:0:0:
289,307,168070,1,0,0:0:0:0:
270,222,168241,1,0,0:0:0:0:
193,180,168413,1,0,0:0:0:0:
110,221,168585,5,0,0:0:0:0:
58,150,168756,1,0,0:0:0:0:
77,65,168927,1,0,0:0:0:0:
154,23,169099,1,0,0:0:0:0:
277,78,169270,6,0,L|170:78,1,90,2|0,0:0|0:0,0:0:0:0:
348,152,169613,2,0,L|444:154,1,90,2|0,0:0|0:0,0:0:0:0:
277,222,169956,2,0,L|186:225,1,90,2|0,0:0|0:0,0:0:0:0:
348,299,170299,1,2,0:0:0:0:
449,302,170470,2,0,L|400:300,1,45
214,342,170642,5,2,0:0:0:0:
141,292,170813,1,0,0:0:0:0:
121,207,170984,1,0,0:0:0:0:
165,130,171156,1,0,0:0:0:0:
248,104,171327,1,0,0:0:0:0:
386,42,171499,2,0,L|291:41,1,90,2|0,0:0|0:0,0:0:0:0:
54,47,171842,6,0,L|151:46,2,90,2|0|0,0:0|0:0|0:0,0:0:0:0:
217,362,172356,1,0,0:0:0:0:
295,319,172527,1,0,0:0:0:0:
342,243,172698,1,0,0:0:0:0:
346,154,172870,1,0,0:0:0:0:
306,75,173041,1,0,0:0:0:0:
233,25,173213,1,0,0:0:0:0:
142,19,173385,5,0,0:0:0:0:
357,56,173727,2,0,L|362:148,1,90,2|0,0:0|0:0,0:0:0:0:
237,216,174070,2,0,L|333:217,1,90,2|0,0:0|0:0,0:0:0:0:
453,281,174413,2,0,L|350:287,1,90,2|0,0:0|0:0,0:0:0:0:
194,349,174756,2,0,L|292:352,2,90,2|2|2,0:0|0:0|0:0,0:0:0:0:
353,268,175270,2,0,L|251:264,1,90,2|2,0:0|0:0,0:0:0:0:
173,252,175613,1,0,0:0:0:0:
19,166,175785,2,0,L|122:163,1,90,2|2,0:0|0:0,0:0:0:0:
338,41,176127,5,2,0:0:0:0:
383,115,176298,1,0,0:0:0:0:
356,197,176469,1,0,0:0:0:0:
275,230,176642,1,2,0:0:0:0:
148,334,176813,2,0,L|246:331,1,90,2|0,0:0|0:0,0:0:0:0:
373,325,177156,2,0,L|280:326,1,90,0|0,0:0|0:0,0:0:0:0:
39,109,177499,5,2,1:0:0:0:
162,108,177670,1,8,0:0:0:0:
39,109,177842,1,8,0:0:0:0:
342,207,178013,2,0,L|344:275,1,49.5000015106202,2|0,1:0|1:0,0:0:0:0:
161,332,178185,2,0,L|270:330,1,99.0000030212403,10|8,0:0|0:0,0:0:0:0:
208,279,178442,1,8,0:0:0:0:
423,194,178527,1,2,1:0:0:0:
446,185,178569,1,2,0:0:0:0:
463,166,178612,1,2,0:0:0:0:
468,142,178655,1,2,0:0:0:0:
462,119,178698,1,10,0:0:0:0:
445,101,178741,1,2,0:0:0:0:
422,93,178784,1,2,0:0:0:0:
124,45,178870,6,0,L|327:48,1,198.000006042481,6|10,1:2|0:0,0:0:0:0:
217,124,179385,1,2,0:0:0:0:
477,326,179556,2,0,L|371:324,1,99.0000030212403,0|2,1:2|1:2,0:0:0:0:
275,324,179899,1,8,0:0:0:0:
24,142,180070,2,0,L|82:139,1,49.5000015106202,2|0,1:2|0:0,0:0:0:0:
378,345,180242,6,0,P|430:283|357:210,1,198.000006042481,2|10,0:0|0:0,0:0:0:0:
259,200,180756,1,2,1:2:0:0:
19,53,180927,2,0,L|125:52,1,99.0000030212403,0|2,0:0|1:2,0:0:0:0:
220,44,181270,1,8,0:0:0:0:
469,155,181442,2,0,L|470:90,1,49.5000015106202,2|8,1:2|0:0,0:0:0:0:
177,264,181613,6,0,L|375:268,1,198.000006042481,2|10,1:2|0:0,0:0:0:0:
209,147,182127,2,0,L|107:144,1,99.0000030212403,2|0,0:0|1:2,0:0:0:0:
368,73,182470,2,0,L|270:70,1,99.0000030212403,2|8,1:2|0:0,0:0:0:0:
17,58,182813,1,2,1:2:0:0:
328,355,182985,6,0,P|380:283|317:211,1,198.000006042481,2|10,0:0|0:0,0:0:0:0:
213,183,183499,1,2,1:2:0:0:
450,146,183670,2,0,L|451:34,1,99.0000030212403,0|2,0:0|1:2,0:0:0:0:
214,59,184013,1,8,0:0:0:0:
360,62,184185,2,0,L|308:61,1,49.5000015106202,2|8,1:2|0:0,0:0:0:0:
117,350,184356,6,0,P|184:285|279:235,1,198.000006042481,4|10,1:2|0:0,0:0:0:0:
377,196,184870,1,0,0:0:0:0:
216,157,185042,2,0,L|211:54,1,99.0000030212403,2|0,1:2|1:2,0:0:0:0:
362,239,185385,2,0,L|352:131,1,99.0000030212403,10|0,0:0|1:2,0:0:0:0:
50,96,185727,5,2,1:2:0:0:
173,99,185899,1,2,0:0:0:0:
50,96,186070,1,10,0:0:0:0:
305,187,186242,2,0,L|97:187,1,198.000006042481,2|0,1:2|1:2,0:0:0:0:
366,337,186756,2,0,L|470:336,1,99.0000030212403,10|2,0:0|1:2,0:0:0:0:
121,297,187099,6,0,P|74:268|138:170,1,198.000006042481,2|8,1:2|1:2,0:0:0:0:
232,160,187613,1,2,0:0:0:0:
476,43,187785,2,0,L|482:147,1,99.0000030212403,10|0,0:0|1:2,0:0:0:0:
378,171,188127,1,8,0:0:0:0:
114,333,188299,2,0,L|181:330,1,49.5000015106202,0|0,1:2|0:0,0:0:0:0:
392,254,188470,6,0,L|193:258,1,198.000006042481,2|8,0:0|0:0,0:0:0:0:
445,35,188985,1,10,0:0:0:0:
481,68,189070,1,8,0:0:0:0:
497,115,189156,1,10,1:2:0:0:
489,163,189242,1,0,0:0:0:0:
459,202,189327,1,8,0:0:0:0:
414,223,189413,1,8,0:0:0:0:
333,225,189499,2,0,L|394:225,1,49.5000015106202,8|0,0:0|0:0,0:0:0:0:
187,220,189670,2,0,L|118:220,1,49.5000015106202,8|8,0:0|0:0,0:0:0:0:
416,333,189842,6,0,L|209:327,1,198.000006042481,14|10,0:0|0:0,0:0:0:0:
119,323,190356,1,2,0:0:0:0:
357,48,190527,2,0,L|362:156,1,99.0000030212403,0|2,1:2|1:2,0:0:0:0:
246,201,190870,1,8,0:0:0:0:
486,333,191042,1,2,1:2:0:0:
156,69,191213,6,0,L|368:65,1,198.000006042481,2|10,0:0|0:0,0:0:0:0:
455,63,191727,1,2,1:2:0:0:
208,347,191899,2,0,L|199:230,1,99.0000030212403,0|2,0:0|1:2,0:0:0:0:
346,172,192242,2,0,L|287:174,1,49.5000015106202,8|8,0:0|0:0,0:0:0:0:
96,73,192413,2,0,L|158:72,1,49.5000015106202,10|8,1:2|1:2,0:0:0:0:
402,66,192585,6,0,L|291:69,1,99.0000030212403,6|8,1:2|3:0,0:0:0:0:
230,69,192842,2,0,L|285:69,1,49.5000015106202,0|10,0:0|3:0,0:0:0:0:
27,291,193099,1,6,1:2:0:0:
270,290,193442,1,6,1:2:0:0:
27,291,193785,1,6,1:2:0:0:
307,317,193956,6,0,L|315:109,1,198.000006042481,2|10,0:0|0:0,0:0:0:0:
434,160,194470,2,0,L|335:157,1,99.0000030212403,2|8,1:2|1:2,0:0:0:0:
171,294,194813,2,0,L|167:181,1,99.0000030212403,2|8,1:2|0:0,0:0:0:0:
430,337,195156,1,2,1:2:0:0:
115,325,195327,6,0,L|323:329,1,198.000006042481,4|10,1:2|0:0,0:0:0:0:
413,330,195842,1,0,0:0:0:0:
252,220,196013,2,0,L|365:211,1,99.0000030212403,2|0,1:2|1:2,0:0:0:0:
496,109,196356,2,0,L|393:105,1,99.0000030212403,10|0,0:0|1:2,0:0:0:0:
135,44,196699,5,2,1:2:0:0:
258,45,196870,1,0,0:0:0:0:
135,44,197042,1,10,0:0:0:0:
415,290,197213,2,0,P|388:263|245:186,1,198.000006042481,2|0,1:2|1:2,0:0:0:0:
418,122,197727,2,0,L|307:123,1,99.0000030212403,10|2,0:0|1:2,0:0:0:0:
54,121,198070,5,14,0:0:0:0:
287,40,198242,2,0,L|182:41,1,99.0000030212403,10|2,0:3|0:3,0:0:0:0:
420,205,198585,1,10,0:0:0:0:
176,116,198756,2,0,L|72:117,1,99.0000030212403,10|2,0:3|0:3,0:0:0:0:
320,203,199099,1,10,0:0:0:0:
64,188,199270,2,0,L|64:292,1,99.0000030212403,10|2,0:3|0:3,0:0:0:0:
314,339,199613,1,10,0:0:0:0:
64,338,199785,2,0,L|168:336,1,99.0000030212403,10|2,0:3|0:3,0:0:0:0:
433,49,200127,5,10,0:0:0:0:
197,222,200299,1,10,0:0:0:0:
195,172,200384,1,8,0:0:0:0:
194,123,200470,1,10,0:0:0:0:
326,119,200642,1,2,1:2:0:0:
55,49,200813,5,14,0:0:0:0:
291,45,200985,2,0,L|406:45,1,99.0000030212403,10|2,0:3|0:3,0:0:0:0:
141,48,201327,1,10,0:0:0:0:
382,146,201499,2,0,L|497:146,1,99.0000030212403,10|2,0:3|0:3,0:0:0:0:
245,249,201842,1,10,0:0:0:0:
485,226,202013,2,0,L|489:330,1,99.0000030212403,10|2,0:3|0:3,0:0:0:0:
237,331,202356,1,10,0:0:0:0:
475,348,202527,2,0,L|365:348,1,99.0000030212403,10|2,0:3|0:3,0:0:0:0:
145,345,202870,5,10,0:0:0:0:
143,295,202955,1,8,0:0:0:0:
300,196,203042,2,0,L|365:194,1,49.5000015106202,10|8,0:0|0:0,0:0:0:0:
91,88,203213,2,0,L|29:88,1,49.5000015106202,10|2,0:0|0:0,0:0:0:0:
367,91,203385,5,6,1:2:0:0:
141,43,203727,1,0,0:0:0:0:
136,131,203899,1,0,0:0:0:0:
315,177,204070,1,10,0:0:0:0:
351,208,204155,1,0,0:0:0:0:
365,255,204241,1,10,0:0:0:0:
351,302,204327,1,2,0:0:0:0:
315,334,204412,1,2,1:2:0:0:
266,341,204498,1,2,1:2:0:0:
71,338,204585,2,0,L|68:185,1,148.50000453186,10|0,1:2|0:0,0:0:0:0:
328,47,204927,6,0,L|233:47,1,90,6|0,1:2|0:0,0:0:0:0:
76,44,205270,2,0,L|171:44,1,90,10|2,0:0|1:2,0:0:0:0:
337,133,205613,2,0,L|447:133,1,90,2|2,1:2|1:2,0:0:0:0:
195,331,205956,1,10,0:0:0:0:
146,258,206127,1,2,1:2:0:0:
171,175,206298,1,0,0:0:0:0:
251,140,206470,1,2,1:2:0:0:
16,58,206642,1,10,0:0:0:0:
322,58,206813,6,0,L|132:58,1,180,2|2,1:2|1:2,0:0:0:0:
41,56,207327,1,10,0:0:0:0:
276,213,207499,2,0,L|348:215,1,45,2|2,0:0|0:0,0:0:0:0:
121,310,207670,6,0,L|222:312,1,90,2|2,1:2|0:0,0:0:0:0:
456,122,208013,2,0,L|350:122,1,90,14|2,0:0|1:2,0:0:0:0:
198,55,208356,1,2,1:2:0:0:
333,54,208527,1,2,1:2:0:0:
198,55,208699,1,10,0:0:0:0:
464,268,208870,1,2,1:2:0:0:
210,342,209042,6,0,L|320:343,1,90,2|2,1:2|1:2,0:0:0:0:
59,209,209385,1,10,0:0:0:0:
322,47,209556,2,0,L|123:48,1,180,2|2,1:2|1:2,0:0:0:0:
47,48,210070,1,10,0:0:0:0:
293,142,210242,2,0,L|230:143,1,45
66,336,210413,6,0,P|95:288|221:217,1,180,2|8,1:2|0:0,0:0:0:0:
88,111,210927,2,0,L|134:111,1,45,2|8,1:2|0:0,0:0:0:0:
320,59,211099,2,0,L|419:58,1,90,0|0,1:2|1:2,0:0:0:0:
251,214,211442,2,0,L|147:215,1,90,8|2,0:0|1:2,0:0:0:0:
432,337,211785,5,2,1:2:0:0:
297,342,211956,1,0,1:2:0:0:
432,337,212127,1,8,0:0:0:0:
193,225,212299,2,0,L|186:33,1,180,2|0,0:0|1:2,0:0:0:0:
327,137,212813,2,0,L|371:137,1,45,8|0,0:0|0:0,0:0:0:0:
158,241,212985,2,0,L|100:240,1,45,0|0,1:2|1:2,0:0:0:0:
347,53,213156,6,0,L|257:52,1,90,14|0,0:0|1:2,0:0:0:0:
11,57,213499,1,10,0:0:0:0:
246,313,213670,2,0,L|356:312,1,90,2|10,1:2|0:0,0:0:0:0:
204,217,214013,1,2,1:2:0:0:
466,49,214185,1,10,0:0:0:0:
208,58,214356,6,0,L|20:60,1,180,2|0,1:2|1:2,0:0:0:0:
270,292,214870,1,14,0:0:0:0:
29,295,215042,2,0,L|133:295,1,90,0|0,0:0|1:2,0:0:0:0:
371,193,215385,1,2,0:0:0:0:
133,203,215556,6,0,L|227:202,1,90,10|0,0:0|0:0,0:0:0:0:
471,43,215899,1,8,0:0:0:0:
472,87,215984,1,0,1:2:0:0:
474,132,216070,1,0,1:2:0:0:
121,289,216242,5,6,1:2:0:0:
256,192,216413,12,0,217270,0:0:0:0:
