osu file format v14

[General]
AudioFilename: audio.mp3
AudioLeadIn: 0
PreviewTime: 167763
Countdown: 0
SampleSet: Soft
StackLeniency: 0.4
Mode: 2
LetterboxInBreaks: 0
WidescreenStoryboard: 1

[Editor]
Bookmarks: 75962,145905
DistanceSpacing: 1
BeatDivisor: 4
GridSize: 32
TimelineZoom: 2.1

[Metadata]
Title:Gotoubun no Kimochi
TitleUnicode:五等分の気持ち
Artist:Nakanoke no Itsutsugo
ArtistUnicode:中野家の五つ子
Creator:Imai Lisa
Version:Cup
Source:五等分の花嫁
Tags:Xetopia -Hex- Dapuluous Sc4v4ng3r Scavanger 5toubun no hanayome 5hanayome 5-toubun go-toubun 中野 一花 二乃 三玖 四葉 五月 Miku Yotsuba Nino Itsuki Ichika 水瀬 いのり Minase Inori 佐倉 綾音 Sakura Ayane ayaneru 伊藤 美来 Itou 竹達 彩奈 Taketatsu Ayana 花澤 香菜 Hanazawa Kana hanakana The Five Wedded Brides The Quintessential Quintuplets opening op full 斉藤 信治 Saito Nobuharu Five Equal Feelings Anime Japanese
BeatmapID:2089188
BeatmapSetID:953441

[Difficulty]
HPDrainRate:3
CircleSize:2.6
OverallDifficulty:6
ApproachRate:6
SliderMultiplier:1.45
SliderTickRate:1

[Events]
//Background and Video events
0,0,"bg.jpg",0,0
//Break Periods
2,77585,84392
2,146156,155877
2,168099,176449
//Storyboard Layer 0 (Background)
//Storyboard Layer 1 (Fail)
//Storyboard Layer 2 (Pass)
//Storyboard Layer 3 (Foreground)
//Storyboard Layer 4 (Overlay)
//Storyboard Sound Samples

[TimingPoints]
585,342.857142857143,4,2,1,40,1,0
585,-133.333333333333,4,2,1,40,0,0
5385,-133.333333333333,4,2,1,45,0,0
5727,-133.333333333333,4,2,1,50,0,0
6070,-111.111111111111,4,2,1,50,0,0
10870,-111.111111111111,4,2,1,40,0,0
11556,-111.111111111111,4,2,1,60,0,0
17042,-99.9999999999999,4,2,1,60,0,0
43613,-100,4,2,1,60,0,0
44470,-100,4,2,1,60,0,0
49956,-100,4,2,1,60,0,0
51670,-100,4,2,1,60,0,0
52699,-100,4,2,1,70,0,1
76013,-100,4,2,1,70,0,0
85442,-100,4,2,1,60,0,0
85785,-100,4,2,1,50,0,0
86985,-100,4,2,1,60,0,0
87670,-100,4,2,1,20,0,0
88356,-111.111111111111,4,2,1,60,0,0
89727,-100,4,2,1,60,0,0
97956,-100,4,2,1,60,0,0
102070,-100,4,2,1,70,0,0
102927,-100,4,2,1,60,0,0
103442,-100,4,2,1,60,0,0
106185,-100,4,2,1,60,0,0
108927,-100,4,2,1,60,0,0
111670,-100,4,2,1,70,0,1
134985,-100,4,2,1,60,0,0
143213,-100,4,2,1,60,0,0
144413,-100,4,2,1,60,0,0
145956,-100,4,2,1,50,0,0
156927,-111.111111111111,4,2,1,60,0,0
162413,-100,4,2,1,70,0,0
164985,-100,4,2,1,50,0,0
166527,-100,4,2,1,70,0,0
167899,-100,4,2,1,60,0,0
177499,-100,4,2,1,70,0,0
178870,-100,4,2,1,80,0,1
204927,-100,4,2,1,80,0,0
217270,-100,4,2,1,5,0,0

[Colours]
Combo1 : 249,214,132
Combo2 : 254,211,234
Combo3 : 255,255,0
Combo4 : 0,128,0

[HitObjects]
139,356,585,6,0,L|130:124,1,217.500008296967,2|2,0:0|0:0,0:0:0:0:
370,357,1956,2,0,L|379:125,1,217.500008296967,2|2,0:0|0:0,0:0:0:0:
119,48,3327,5,2,0:0:0:0:
256,192,3670,12,8,5727,0:0:0:0:
251,342,6070,6,0,L|243:203,1,130.499996017456,6|0,1:2|1:0,0:0:0:0:
388,249,6756,2,0,L|378:104,1,130.499996017456,0|0,0:0|1:2,0:0:0:0:
217,47,7442,6,0,L|78:45,1,130.499996017456,2|2,0:0|1:2,0:0:0:0:
20,40,7956,1,2,0:0:0:0:
160,141,8299,2,0,L|236:143,1,65.2499980087281,2|0,1:2|1:2,0:0:0:0:
62,253,8813,6,0,L|199:259,1,130.499996017456,2|2,0:0|1:2,0:0:0:0:
362,343,9499,2,0,L|368:206,1,130.499996017456,2|0,0:0|1:2,0:0:0:0:
195,37,10185,6,0,L|188:174,1,130.499996017456,10|2,3:2|1:2,0:0:0:0:
256,222,10699,1,2,3:2:0:0:
106,325,11042,2,0,L|32:327,1,65.2499980087281,10|8,1:2|1:2,0:0:0:0:
213,372,11556,5,6,1:2:0:0:
325,312,11898,1,10,1:2:0:0:
368,192,12241,1,0,1:0:0:0:
317,75,12584,1,8,0:0:0:0:
200,24,12927,6,0,L|67:28,2,130.499996017456,0|10|0,1:0|1:2|1:0,0:0:0:0:
268,19,13785,1,10,1:2:0:0:
200,24,13956,1,10,1:2:0:0:
357,141,14299,6,0,L|505:138,3,130.499996017456,2|10|2|10,1:2|0:0|1:2|0:0,0:0:0:0:
329,247,15670,6,0,L|190:253,1,130.499996017456,2|10,1:2|0:0,0:0:0:0:
346,336,16356,2,0,L|500:326,1,130.499996017456,2|8,1:2|1:2,0:0:0:0:
290,37,17042,6,0,L|285:198,1,145,6|10,1:2|0:0,0:0:0:0:
430,252,17727,1,2,1:2:0:0:
239,335,18070,1,10,0:0:0:0:
166,286,18242,6,0,L|161:139,1,145,2|2,1:2|1:2,0:0:0:0:
241,102,18756,1,8,0:0:0:0:
410,59,19099,2,0,P|393:94|249:198,1,217.5,0|10,1:2|0:0,0:0:0:0:
167,206,19785,6,0,L|17:211,2,145,2|10|2,1:2|0:0|1:2,0:0:0:0:
340,309,20813,1,10,0:0:0:0:
418,281,20985,6,0,L|421:129,1,145,2|2,1:2|1:2,0:0:0:0:
244,97,21670,2,0,L|96:96,1,145,2|2,0:0|0:0,0:0:0:0:
175,47,22185,1,8,0:0:0:0:
337,44,22527,6,0,L|486:46,2,145,6|8|0,1:2|0:0|1:2,0:0:0:0:
175,49,23556,2,0,L|169:121,1,72.5,8|2,0:0|1:2,0:0:0:0:
264,217,23899,6,0,P|309:257|250:323,1,145,2|8,0:0|0:0,0:0:0:0:
182,316,24413,2,0,P|135:293|201:115,1,290,2|2,0:0|1:2,0:0:0:0:
266,110,25270,5,2,1:2:0:0:
83,40,25613,1,14,0:0:0:0:
251,339,25956,1,2,1:2:0:0:
253,266,26127,1,10,0:0:0:0:
256,194,26298,1,10,0:0:0:0:
175,135,26470,5,6,1:2:0:0:
320,45,26813,1,0,1:2:0:0:
418,47,26985,2,0,P|491:102|404:247,1,290,14|8,0:0|0:0,0:0:0:0:
213,346,28013,6,0,L|206:182,1,145,4|10,0:0|0:0,0:0:0:0:
358,114,28699,1,2,1:2:0:0:
197,114,29042,1,10,0:0:0:0:
120,54,29213,6,0,L|115:203,1,145,2|0,1:2|1:2,0:0:0:0:
36,243,29727,1,10,0:0:0:0:
194,324,30070,2,0,L|351:329,1,145,2|10,0:0|0:0,0:0:0:0:
172,123,30756,6,0,L|85:122,2,72.5,0|2|10,1:2|0:0|0:0,0:0:0:0:
319,126,31442,1,2,1:2:0:0:
165,39,31785,1,10,0:0:0:0:
242,40,31956,6,0,L|405:42,2,145,2|2|2,1:2|1:2|1:2,0:0:0:0:
90,197,32985,2,0,L|83:275,1,72.5,2|8,1:2|0:0,0:0:0:0:
255,337,33499,5,0,1:2:0:0:
401,278,33842,2,0,L|406:127,1,145,8|2,0:0|1:2,0:0:0:0:
243,92,34527,1,10,0:0:0:0:
166,43,34699,6,0,L|324:46,1,145,2|2,1:2|1:2,0:0:0:0:
464,207,35385,2,0,L|306:200,1,145,2|2,1:2|1:2,0:0:0:0:
245,196,35899,1,10,0:0:0:0:
88,314,36242,6,0,L|241:319,2,145,2|8|0,1:2|0:0|1:2,0:0:0:0:
254,230,37270,1,8,0:0:0:0:
333,184,37442,6,0,L|339:36,1,145,2|2,1:2|1:2,0:0:0:0:
183,179,38127,2,0,L|38:178,1,145,2|0,1:2|1:2,0:0:0:0:
116,108,38642,1,8,0:0:0:0:
280,335,38985,6,0,L|429:339,1,145,6|8,1:2|0:0,0:0:0:0:
270,211,39670,1,2,0:0:0:0:
425,156,40013,2,0,L|427:75,1,72.5,10|2,0:0|0:0,0:0:0:0:
337,35,40356,6,0,P|284:70|362:184,1,217.5,2|2,1:2|1:2,0:0:0:0:
489,327,41213,2,0,L|408:327,1,72.5,2|10,1:2|0:0,0:0:0:0:
246,327,41727,6,0,L|91:324,1,145,2|8,1:2|0:0,0:0:0:0:
24,320,42242,1,2,1:2:0:0:
102,324,42413,1,2,0:0:0:0:
267,227,42756,2,0,L|270:151,1,72.5,10|2,0:0|0:0,0:0:0:0:
179,226,43099,6,0,L|186:80,1,145,2|2,1:2|1:2,0:0:0:0:
260,42,43613,2,0,L|413:39,1,145,10|10,3:0|0:0,0:0:0:0:
482,35,44127,1,8,3:0:0:0:
300,317,44470,6,0,L|148:323,2,145,6|0|8,1:2|1:2|0:0,0:0:0:0:
465,226,45499,2,0,L|381:227,1,72.5,2|8,1:2|0:0,0:0:0:0:
316,42,45842,6,0,L|309:204,1,145,2|2,1:2|1:2,0:0:0:0:
136,203,46527,2,0,L|129:365,1,145,10|2,0:0|1:2,0:0:0:0:
307,285,47213,6,0,L|459:286,1,145,6|8,1:2|0:0,0:0:0:0:
456,213,47727,1,2,0:0:0:0:
460,141,47898,1,2,1:2:0:0:
297,141,48242,1,8,0:0:0:0:
464,44,48585,6,0,L|315:40,1,145,2|8,1:2|0:0,0:0:0:0:
246,39,49098,1,2,0:0:0:0:
174,39,49269,1,2,1:2:0:0:
345,183,49613,1,10,0:0:0:0:
161,333,49956,6,0,L|319:331,2,145,14|10|10,0:0|0:0|0:0,0:0:0:0:
83,280,50813,2,0,L|6:280,2,72.5,2|10|6,1:2|0:0|1:2,0:0:0:0:
300,30,51670,6,0,L|309:193,1,145,2|10,1:2|0:0,0:0:0:0:
162,191,52356,1,10,0:0:0:0:
340,333,52699,6,0,L|496:331,2,145,14|10|0,1:2|0:0|1:2,0:0:0:0:
265,333,53556,1,2,1:2:0:0:
117,276,53899,1,2,1:2:0:0:
39,231,54070,6,0,L|35:76,1,145,2|10,0:0|0:0,0:0:0:0:
120,43,54585,1,2,1:2:0:0:
275,136,54927,2,0,L|355:133,1,72.5,2|8,1:2|0:0,0:0:0:0:
155,308,55442,6,0,L|300:304,2,145,2|10|0,1:2|0:0|1:2,0:0:0:0:
72,224,56299,2,0,L|168:219,1,72.5,2|8,1:2|0:0,0:0:0:0:
320,40,56813,6,0,L|329:194,1,145,2|10,0:0|0:0,0:0:0:0:
402,237,57327,1,2,1:2:0:0:
247,326,57670,2,0,L|160:333,1,72.5,2|8,1:2|0:0,0:0:0:0:
368,121,58185,6,0,L|216:126,2,145,4|10|2,1:2|0:0|1:2,0:0:0:0:
456,201,59042,2,0,L|370:206,1,72.5,0|10,1:2|0:0,0:0:0:0:
212,349,59556,6,0,L|202:192,1,145,2|10,1:2|0:0,0:0:0:0:
281,150,60070,1,2,1:2:0:0:
433,57,60413,2,0,L|356:57,1,72.5,0|10,1:2|0:0,0:0:0:0:
177,59,60927,6,0,L|23:59,2,145,2|8|10,1:2|1:2|0:0,0:0:0:0:
326,165,61956,2,0,L|331:247,1,72.5,8|0,0:0|1:2,0:0:0:0:
253,310,62299,6,0,L|92:316,1,145,2|8,0:0|0:0,0:0:0:0:
103,230,62813,1,10,0:0:0:0:
189,228,62985,2,0,L|344:223,1,145,2|8,1:2|0:0,0:0:0:0:
153,52,63670,6,0,L|148:201,1,145,14|10,0:0|0:0,0:0:0:0:
308,326,64356,2,0,L|388:330,2,72.5,0|2|8,1:2|1:2|0:0,0:0:0:0:
121,115,65042,6,0,L|115:259,1,145,2|10,0:0|0:0,0:0:0:0:
199,263,65556,2,0,L|357:263,2,145,2|2|10,1:2|1:2|1:2,0:0:0:0:
114,342,66413,6,0,L|267:341,1,145,6|10,1:2|0:0,0:0:0:0:
335,340,66927,1,2,0:0:0:0:
481,226,67270,2,0,L|400:224,1,72.5,2|8,1:2|0:0,0:0:0:0:
220,36,67785,6,0,L|210:188,1,145,2|10,0:0|0:0,0:0:0:0:
131,236,68299,1,2,0:0:0:0:
285,333,68642,2,0,L|365:337,1,72.5,2|8,1:2|0:0,0:0:0:0:
184,320,69156,6,0,L|28:324,2,145,4|10|2,1:2|0:0|1:2,0:0:0:0:
349,312,70185,1,10,0:0:0:0:
168,48,70527,6,0,L|159:198,1,145,2|10,1:2|0:0,0:0:0:0:
238,252,71042,1,2,1:2:0:0:
79,44,71385,2,0,L|4:42,1,72.5,0|10,1:2|0:0,0:0:0:0:
188,45,71899,6,0,B|256:76|302:55|302:55|357:32|422:59,3,217.5,14|10|10|10,0:0|0:0|0:0|0:0,0:0:0:0:
171,335,73956,6,0,L|161:182,1,145,10|10,0:0|0:0,0:0:0:0:
72,138,74470,1,6,1:2:0:0:
442,63,76013,5,6,1:2:0:0:
256,192,76356,12,0,77385,0:0:0:0:
82,46,85442,5,6,1:2:0:0:
242,41,85785,1,2,0:0:0:0:
244,113,85956,1,2,0:0:0:0:
246,185,86127,1,2,0:0:0:0:
248,258,86299,1,2,0:0:0:0:
400,344,86642,1,8,0:3:0:0:
218,347,86985,6,0,L|132:346,2,72.5,8|10|10,1:2|1:2|1:2,0:0:0:0:
441,304,88356,6,0,P|385:269|301:236,2,130.499996017456,2|2|2,1:2|1:2|1:2,0:0:0:0:
285,140,89385,2,0,L|281:67,1,65.2499980087281,2|0,1:2|0:0,0:0:0:0:
376,49,89727,6,0,L|467:47,2,72.5,12|14|14,1:2|1:2|1:2,0:0:0:0:
208,57,90413,2,0,L|60:60,1,145,10|4,0:3|0:3,0:0:0:0:
163,164,90927,6,0,L|329:160,2,145,6|6|6,1:2|1:2|1:2,0:0:0:0:
16,292,91956,2,0,L|100:289,1,72.5,2|14,1:2|0:0,0:0:0:0:
277,341,92470,6,0,L|280:182,1,145,6|8,1:2|0:0,0:0:0:0:
134,113,93156,1,2,1:2:0:0:
291,41,93499,1,10,0:0:0:0:
372,95,93670,6,0,L|382:243,1,145,2|2,1:2|1:2,0:0:0:0:
226,96,94356,2,0,L|218:247,1,145,2|2,0:0|1:2,0:0:0:0:
297,279,94870,1,10,0:0:0:0:
128,283,95213,6,0,L|280:280,2,145,2|8|0,1:2|0:0|1:2,0:0:0:0:
287,172,96242,1,8,1:2:0:0:
210,171,96413,6,0,L|50:172,1,145,2|10,1:2|0:3,0:0:0:0:
223,73,97099,2,0,L|369:73,1,145,10|4,0:3|1:3,0:0:0:0:
443,73,97613,1,10,0:0:0:0:
260,352,97956,6,0,P|216:295|279:247,1,145,6|0,1:2|0:0,0:0:0:0:
328,246,98470,1,2,1:2:0:0:
401,244,98642,1,2,1:2:0:0:
244,112,98985,2,0,L|159:113,1,72.5,2|2,1:2|1:2,0:0:0:0:
256,59,99327,6,0,L|411:62,1,145,2|2,1:2|0:0,0:0:0:0:
325,142,99842,1,2,1:2:0:0:
179,236,100185,2,0,L|172:314,1,72.5,2|2,0:0|0:0,0:0:0:0:
356,341,100699,6,0,L|512:351,2,145,2|2|2,1:2|0:0|1:2,0:0:0:0:
207,338,101727,2,0,L|125:335,1,72.5,2|2,0:0|1:2,0:0:0:0:
222,243,102070,6,0,L|351:247,2,108.75,14|14|14,0:0|0:0|0:0,0:0:0:0:
142,242,102756,2,0,P|117:223|173:132,1,145,14|8,0:0|0:0,0:0:0:0:
332,52,103442,6,0,L|187:52,2,145,6|0|8,1:2|1:2|0:0,0:0:0:0:
178,183,104470,2,0,L|172:268,1,72.5,2|8,1:2|0:0,0:0:0:0:
269,322,104813,6,0,L|424:328,1,145,2|2,1:2|0:0,0:0:0:0:
244,208,105499,2,0,L|89:203,1,145,10|2,0:0|1:2,0:0:0:0:
262,65,106185,6,0,L|416:69,2,145,6|8|2,1:2|0:0|1:2,0:0:0:0:
187,58,107042,2,0,L|180:152,1,72.5,0|8,1:2|0:0,0:0:0:0:
353,340,107556,6,0,P|393:290|337:222,1,145,2|8,1:2|0:0,0:0:0:0:
284,223,108070,1,2,0:0:0:0:
212,219,108241,1,2,1:2:0:0:
377,100,108585,1,10,0:0:0:0:
202,101,108927,6,0,L|32:101,2,145,14|10|10,1:2|1:2|1:2,0:0:0:0:
295,104,109785,2,0,L|371:105,2,72.5,2|10|14,1:2|1:2|0:0,0:0:0:0:
54,338,110642,6,0,L|53:174,1,145,10|10,0:0|0:0,0:0:0:0:
134,143,111156,1,8,1:2:0:0:
373,43,111670,6,0,L|212:44,1,145,14|10,1:2|0:0,0:0:0:0:
153,44,112185,1,2,0:0:0:0:
307,196,112527,2,0,L|398:197,1,72.5,2|8,1:2|0:0,0:0:0:0:
200,332,113042,6,0,L|193:168,1,145,2|10,0:0|0:0,0:0:0:0:
277,109,113556,2,0,L|429:105,2,145,2|2|2,1:2|1:2|1:2,0:0:0:0:
176,33,114413,6,0,L|330:28,1,145,2|10,1:2|0:0,0:0:0:0:
397,26,114927,1,2,0:0:0:0:
252,200,115270,2,0,L|174:203,1,72.5,2|8,1:2|0:0,0:0:0:0:
353,350,115785,6,0,L|500:343,2,145,2|10|0,0:0|0:0|0:0,0:0:0:0:
266,323,116642,2,0,L|258:239,1,72.5,2|8,1:2|0:0,0:0:0:0:
442,210,117156,6,0,L|447:56,1,145,4|10,1:2|0:0,0:0:0:0:
267,93,117842,2,0,L|120:91,1,145,2|10,1:2|0:0,0:0:0:0:
278,83,118527,6,0,L|425:86,2,145,2|10|2,1:2|0:0|0:2,0:0:0:0:
205,82,119385,2,0,L|299:83,1,72.5,0|10,1:2|0:0,0:0:0:0:
101,337,119899,6,0,L|94:182,1,145,2|8,1:2|1:2,0:0:0:0:
251,154,120584,1,10,0:0:0:0:
92,65,120927,2,0,L|-10:65,1,72.5,8|2,0:0|1:2,0:0:0:0:
105,64,121270,6,0,L|261:64,2,145,2|8|2,0:0|0:0|1:2,0:0:0:0:
276,203,122299,2,0,L|282:276,1,72.5,10|10,0:0|1:2,0:0:0:0:
187,126,122642,6,0,L|200:284,1,145,6|10,1:2|0:0,0:0:0:0:
276,310,123156,1,2,0:0:0:0:
429,339,123499,2,0,L|432:255,1,72.5,2|8,1:2|0:0,0:0:0:0:
254,133,124013,6,0,L|106:130,2,145,2|10|0,0:0|0:0|0:0,0:0:0:0:
332,137,124870,2,0,L|333:217,1,72.5,2|8,1:2|0:0,0:0:0:0:
146,348,125385,6,0,L|139:187,1,145,6|10,1:2|0:0,0:0:0:0:
63,151,125899,1,2,0:0:0:0:
213,77,126242,2,0,L|291:73,1,72.5,2|8,1:2|0:0,0:0:0:0:
119,272,126756,6,0,L|272:264,1,145,2|10,0:0|0:0,0:0:0:0:
337,252,127270,1,2,0:0:0:0:
482,131,127613,2,0,L|397:134,1,72.5,2|8,1:2|0:0,0:0:0:0:
241,73,128127,6,0,L|89:76,2,145,4|10|2,1:2|0:0|1:2,0:0:0:0:
335,163,128985,2,0,L|254:167,1,72.5,0|10,1:2|0:0,0:0:0:0:
112,282,129499,6,0,L|108:358,2,72.5,2|2|10,1:2|1:2|0:0,0:0:0:0:
190,237,130013,2,0,L|346:232,1,145,2|0,1:2|1:2,0:0:0:0:
409,225,130527,1,10,0:0:0:0:
226,46,130870,6,0,B|162:43|121:79|121:79|57:52|2:67,3,217.5,14|10|10|10,0:0|0:0|0:0|0:0,0:0:0:0:
284,353,132927,6,0,L|289:196,1,145,10|10,0:0|0:0,0:0:0:0:
199,147,133442,1,6,1:2:0:0:
488,59,134985,6,0,L|333:60,2,145,6|8|0,1:2|0:0|1:2,0:0:0:0:
315,222,136013,2,0,L|310:315,1,72.5,8|0,0:0|1:2,0:0:0:0:
408,347,136356,6,0,P|443:321|399:241,1,145,2|8,1:2|0:0,0:0:0:0:
308,233,136870,2,0,L|156:228,1,145,2|0,1:2|1:2,0:0:0:0:
90,222,137385,1,8,0:0:0:0:
265,85,137727,6,0,L|426:86,2,145,0|14|2,1:2|0:0|1:2,0:0:0:0:
187,87,138585,1,2,1:2:0:0:
342,220,138927,1,2,1:2:0:0:
416,194,139099,6,0,L|421:44,1,145,10|10,0:0|0:0,0:0:0:0:
320,54,139613,2,0,L|156:57,1,145,2|2,1:2|1:2,0:0:0:0:
253,139,140127,1,10,0:0:0:0:
441,336,140470,6,0,L|444:171,1,145,2|10,1:2|0:0,0:0:0:0:
363,145,140985,1,2,1:2:0:0:
205,62,141327,2,0,L|122:58,2,72.5,2|10|2,1:2|0:0|1:2,0:0:0:0:
282,66,141842,6,0,L|450:74,1,145,2|8,1:2|0:0,0:0:0:0:
336,160,142356,2,0,L|165:151,1,145,2|0,1:2|1:2,0:0:0:0:
118,151,142870,1,8,0:0:0:0:
304,344,143213,6,0,L|314:190,1,145,10|10,0:0|0:0,0:0:0:0:
154,158,143899,1,10,0:0:0:0:
81,158,144070,1,2,1:2:0:0:
9,159,144241,1,10,0:0:0:0:
81,158,144413,5,6,1:2:0:0:
234,42,144756,1,2,3:0:0:0:
327,46,144927,2,0,P|370:64|307:246,1,290,10|4,1:3|1:3,0:0:0:0:
155,250,145956,5,6,1:2:0:0:
261,52,156927,6,0,L|128:56,2,130.499996017456,6|2|2,1:2|1:2|1:2,0:0:0:0:
338,121,157785,2,0,L|269:123,1,65.2499980087281,2|2,0:0|1:2,0:0:0:0:
115,335,158299,6,0,L|105:197,1,130.499996017456,2|2,1:2|1:2,0:0:0:0:
250,316,158985,2,0,L|393:309,1,130.499996017456,0|0,1:2|1:2,0:0:0:0:
217,225,159670,6,0,L|362:220,2,130.499996017456,2|2|2,1:2|1:2|1:2,0:0:0:0:
366,36,160699,2,0,L|372:114,1,65.2499980087281,2|2,1:2|0:0,0:0:0:0:
294,107,161042,6,0,L|155:112,1,130.499996017456,2|2,1:2|1:2,0:0:0:0:
308,332,161727,2,0,L|441:326,1,130.499996017456,0|2,1:2|1:2,0:0:0:0:
284,239,162413,6,0,L|181:243,1,72.5,12|8,0:0|0:0,0:0:0:0:
363,144,162927,1,12,0:0:0:0:
440,34,163099,2,0,L|448:191,1,145,8|12,1:2|0:0,0:0:0:0:
283,90,163785,6,0,L|131:94,2,145,0|8|12,1:2|0:0|0:0,0:0:0:0:
452,212,164813,2,0,L|458:293,1,72.5,8|8,0:0|0:0,0:0:0:0:
363,350,165156,6,0,P|321:343|397:76,1,435,12|8,1:2|0:0,0:0:0:0:
192,45,166527,2,0,L|41:45,1,145,12|8,0:0|0:0,0:0:0:0:
120,43,167041,1,0,1:0:0:0:
192,45,167212,1,12,0:0:0:0:
337,47,167556,1,12,0:0:0:0:
177,158,167899,5,6,0:0:0:0:
226,45,177499,6,0,L|307:46,2,72.5,2|8|8,1:0|0:0|0:0,0:0:0:0:
62,81,178185,2,0,L|56:227,1,145,10|2,0:0|1:0,0:0:0:0:
246,323,178870,6,0,L|401:324,1,145,6|10,1:2|0:0,0:0:0:0:
312,247,179385,1,2,0:0:0:0:
156,88,179727,2,0,L|152:171,1,72.5,2|8,1:2|0:0,0:0:0:0:
332,49,180242,6,0,L|181:52,2,145,2|10|0,0:0|0:0|0:0,0:0:0:0:
417,123,181099,2,0,L|344:126,1,72.5,2|8,1:2|0:0,0:0:0:0:
177,335,181613,6,0,L|166:179,1,145,2|10,1:2|0:0,0:0:0:0:
326,236,182299,2,0,L|419:231,2,72.5,0|2|8,1:2|1:2|0:0,0:0:0:0:
152,95,182985,6,0,L|1:100,2,145,2|10|0,0:0|0:0|0:0,0:0:0:0:
224,93,183842,2,0,L|151:95,1,72.5,2|8,1:2|0:0,0:0:0:0:
339,33,184356,6,0,L|351:189,1,145,4|10,1:2|0:0,0:0:0:0:
198,292,185042,2,0,L|39:304,1,145,2|10,1:2|0:0,0:0:0:0:
230,348,185727,6,0,L|399:342,1,145,2|10,1:2|0:0,0:0:0:0:
301,270,186242,1,2,1:2:0:0:
454,79,186585,2,0,L|459:164,1,72.5,0|10,1:2|0:0,0:0:0:0:
277,69,187099,6,0,L|118:67,2,145,2|8|10,1:2|1:2|0:0,0:0:0:0:
446,206,188127,2,0,L|361:204,1,72.5,8|0,0:0|1:2,0:0:0:0:
299,203,188470,6,0,L|145:200,1,145,2|8,0:0|0:0,0:0:0:0:
327,93,189156,2,0,L|494:96,1,145,10|8,1:2|0:0,0:0:0:0:
285,339,189842,6,0,L|276:179,1,145,14|10,0:0|0:0,0:0:0:0:
198,139,190356,1,2,0:0:0:0:
354,48,190699,2,0,L|447:47,1,72.5,2|8,1:2|0:0,0:0:0:0:
241,302,191213,6,0,L|399:294,2,145,2|10|0,0:0|0:0|0:0,0:0:0:0:
168,312,192070,2,0,L|84:316,1,72.5,2|8,1:2|0:0,0:0:0:0:
256,187,192585,6,0,L|411:183,1,145,6|10,1:2|3:0,0:0:0:0:
324,116,193099,1,6,1:2:0:0:
171,119,193442,1,6,1:2:0:0:
347,33,193785,1,6,1:2:0:0:
419,92,193956,6,0,L|431:242,1,145,2|10,0:0|0:0,0:0:0:0:
340,295,194470,2,0,L|193:304,2,145,2|2|2,1:2|1:2|1:2,0:0:0:0:
437,286,195327,5,4,1:2:0:0:
283,43,195670,2,0,L|436:39,2,145,10|2|10,0:0|1:2|0:0,0:0:0:0:
107,258,196699,6,0,L|103:100,1,145,2|10,1:2|0:0,0:0:0:0:
185,260,197213,1,2,1:2:0:0:
369,256,197556,2,0,L|449:254,1,72.5,0|10,1:2|0:0,0:0:0:0:
261,109,198070,6,0,B|200:78|152:97|152:97|100:74|33:113,3,217.5,14|10|10|10,0:0|0:0|0:0|0:0,0:0:0:0:
280,332,200127,1,10,0:0:0:0:
134,328,200470,2,0,L|206:329,1,72.5,10|2,0:0|1:2,0:0:0:0:
293,251,200813,6,0,B|357:254|398:218|398:218|462:245|517:230,3,217.5,14|10|10|10,0:0|0:0|0:0|0:0,0:0:0:0:
255,93,202870,1,10,0:0:0:0:
182,92,203041,1,10,0:0:0:0:
110,92,203212,1,10,0:0:0:0:
182,92,203385,1,6,1:2:0:0:
473,51,204927,6,0,L|329:53,2,145,6|10|2,1:2|0:0|1:2,0:0:0:0:
300,199,205956,2,0,L|291:283,1,72.5,10|2,0:0|1:2,0:0:0:0:
387,127,206299,6,0,L|372:285,1,145,0|10,0:0|0:0,0:0:0:0:
308,319,206813,1,2,1:2:0:0:
147,318,207156,2,0,L|73:319,1,72.5,2|10,1:2|0:0,0:0:0:0:
220,218,207670,5,2,1:2:0:0:
380,46,208013,2,0,L|386:196,1,145,14|2,0:0|1:2,0:0:0:0:
221,48,208699,2,0,L|133:50,1,72.5,10|2,0:0|1:2,0:0:0:0:
223,138,209042,6,0,L|380:134,1,145,2|10,1:2|0:0,0:0:0:0:
367,134,209556,1,2,1:2:0:0:
202,295,209899,2,0,L|119:297,1,72.5,2|10,1:2|0:0,0:0:0:0:
331,326,210413,6,0,L|334:178,1,145,2|8,1:2|0:0,0:0:0:0:
179,119,211099,2,0,L|101:118,1,72.5,0|0,1:2|1:2,0:0:0:0:
274,38,211613,1,2,1:2:0:0:
351,86,211785,6,0,L|356:237,1,145,2|8,1:2|0:0,0:0:0:0:
268,277,212299,2,0,L|92:283,1,145,2|0,0:0|1:2,0:0:0:0:
49,284,212813,1,8,0:0:0:0:
231,150,213156,6,0,L|399:145,2,145,14|10|10,0:0|0:0|0:0,0:0:0:0:
68,51,214185,2,0,L|158:48,1,72.5,10|2,0:0|1:2,0:0:0:0:
289,48,214699,1,0,1:2:0:0:
366,44,214870,6,0,L|205:50,1,145,14|0,0:0|1:2,0:0:0:0:
65,184,215556,2,0,L|228:177,1,145,10|8,0:0|0:0,0:0:0:0:
380,37,216242,6,0,P|456:105|291:340,1,435,6|0,1:2|0:0,0:0:0:0:
