osu file format v14

[General]
AudioFilename: audio.mp3
AudioLeadIn: 0
PreviewTime: 57988
Countdown: 0
SampleSet: Soft
StackLeniency: 0.4
Mode: 0
LetterboxInBreaks: 0
WidescreenStoryboard: 1

[Editor]
DistanceSpacing: 1.9
BeatDivisor: 4
GridSize: 32
TimelineZoom: 2.699999

[Metadata]
Title:Gotoubun no Katachi (TV Size)
TitleUnicode:五等分のカタチ (TV Size)
Artist:Nakanoke no Itsutsugo
ArtistUnicode:中野家の五つ子
Creator:Stratos
Version:Insane
Source:五等分の花嫁∬
Tags:NexusQI Azunyan- Xexyz Azu Ayana Mayu Sakuma 5toubun no hanayome 5hanayome 5-toubun go-toubun gotoubun 中野 一花 二乃 三玖 四葉 五月 Miku Yotsuba Nino Itsuki Ichika 水瀬 いのり Minase Inori 佐倉 綾音 Sakura Ayane ayaneru 伊藤 美来 Itou 竹達 彩奈 Taketatsu Ayana 花澤 香菜 Hanazawa Kana hanakana The Five Wedded Brides The Quintessential Quintuplets opening op season 2 second japanese anime pop nexusql 2nd
BeatmapID:3113404
BeatmapSetID:1521256

[Difficulty]
HPDrainRate:6
CircleSize:4.2
OverallDifficulty:8
ApproachRate:9
SliderMultiplier:1.7
SliderTickRate:1

[Events]
//Background and Video events
0,0,"bg 2 nino.jpg",0,0
//Break Periods
//Storyboard Layer 0 (Background)
//Storyboard Layer 1 (Fail)
//Storyboard Layer 2 (Pass)
//Storyboard Layer 3 (Foreground)
//Storyboard Layer 4 (Overlay)
//Storyboard Sound Samples

[TimingPoints]
77,379.746835443038,4,2,1,65,1,0
7671,-142.857142857143,4,2,1,40,0,0
13747,-125,4,2,1,55,0,0
16406,-125,4,2,1,60,0,0
19823,-100,4,2,1,70,0,0
32925,-100,4,2,1,60,0,0
34633,-125,4,2,1,60,0,0
35013,-100,4,2,1,60,0,0
36342,-111.111111111111,4,2,1,60,0,0
43747,-83.3333333333333,4,2,1,60,0,0
44507,-83.3333333333333,4,2,1,55,0,0
44697,-125,4,2,1,55,0,0
49633,-111.111111111111,4,2,1,60,0,0
50203,-111.111111111111,4,2,1,65,0,0
52102,-100,4,2,1,65,0,0
53241,-100,4,2,1,60,0,0
55899,-100,4,2,1,65,0,0
58747,-100,4,2,1,70,0,0
58937,-250,4,2,1,65,0,0
59317,-95.2380952380952,4,2,1,65,0,1
68431,-86.9565217391304,4,2,1,70,0,0
70709,-74.0740740740741,4,2,1,70,0,0
71279,-44.4444444444445,4,2,1,70,0,0
71469,-95.2380952380952,4,2,1,65,0,1
80583,-95.2380952380952,4,2,1,65,0,0
86659,-117.647058823529,4,2,1,65,0,0
88463,-117.647058823529,4,2,1,5,0,0

[Colours]
Combo1 : 250,180,240
Combo2 : 120,200,230
Combo3 : 255,230,130
Combo4 : 160,230,150

[HitObjects]
450,144,7482,5,0,0:0:0:0:
443,148,7577,1,0,0:0:0:0:
437,152,7671,2,0,P|392:114|335:119,2,118.999996368408,2|0|8,0:0|0:0|0:1,0:0:0:0:
226,286,8811,5,0,0:0:0:0:
322,313,9001,2,0,L|292:198,1,118.999996368408,2|0,0:0|0:0,0:0:0:0:
211,157,9570,1,2,0:0:0:0:
160,215,9760,1,0,0:0:0:0:
86,240,9950,1,8,0:1:0:0:
16,217,10140,1,0,0:0:0:0:
16,217,10330,1,2,0:0:0:0:
136,75,10520,5,0,0:0:0:0:
36,29,10709,2,0,L|66:144,2,118.999996368408,2|0|8,0:0|0:0|0:1,0:0:0:0:
247,115,11849,1,0,0:0:0:0:
203,190,12039,2,0,P|244:150|304:148,1,118.999996368408,2|0,0:0|0:0,0:0:0:0:
484,98,12608,1,2,0:0:0:0:
438,40,12798,1,0,0:0:0:0:
372,73,12988,2,0,L|402:188,1,118.999996368408,8|0,0:1|0:0,0:0:0:0:
264,351,13558,5,2,3:2:0:0:
348,284,13747,2,0,B|258:257|258:257|242:272|220:274,1,136,2|0,3:2|0:0,0:0:0:0:
100,145,14507,2,0,P|66:150|43:174,1,68,8|0,0:1|0:0,0:0:0:0:
49,62,14887,5,2,0:0:0:0:
49,62,15077,2,0,P|91:111|156:101,1,136,2|0,3:2|0:0,0:0:0:0:
343,101,15646,1,2,0:0:0:0:
271,175,15836,2,0,L|236:43,1,136,2|0,0:0|0:0,0:0:0:0:
189,245,16406,5,2,0:0:0:0:
349,287,16595,2,0,L|414:269,1,68,2|0,3:2|3:0,0:0:0:0:
487,306,16975,1,2,0:0:0:0:
359,182,17165,1,2,0:0:0:0:
363,175,17355,1,2,3:2:0:0:
452,119,17545,1,2,0:0:0:0:
448,126,17735,1,2,0:2:0:0:
329,50,17925,1,2,0:0:0:0:
252,90,18114,6,0,B|162:63|162:63|146:78|124:80,1,136,2|2,3:2|0:0,0:0:0:0:
54,139,18684,2,0,L|35:73,2,68,2|0|0,0:0|3:0|0:0,0:0:0:0:
127,176,19159,2,0,L|132:196,2,17,0|0|0,1:0|1:0|1:0,0:0:0:0:
42,328,19444,1,8,0:3:0:0:
55,296,19538,1,8,0:3:0:0:
82,276,19633,1,0,1:0:0:0:
115,270,19728,1,0,1:0:0:0:
147,280,19823,6,0,P|183:299|226:294,1,85,4|0,3:2|0:0,0:0:0:0:
320,190,20203,2,0,P|308:147|297:107,1,85,0|0,1:0|0:0,0:0:0:0:
354,38,20583,1,0,3:0:0:0:
212,174,20773,1,0,3:0:0:0:
402,228,20963,1,0,1:0:0:0:
189,66,21152,6,0,B|77:97|77:97|111:102|123:125,1,170,4|0,3:2|3:0,0:0:0:0:
344,116,21722,2,0,P|362:77|353:36,1,85,0|0,1:0|0:0,0:0:0:0:
212,174,22103,1,0,3:0:0:0:
218,194,22197,1,0,1:0:0:0:
225,214,22292,1,0,3:0:0:0:
386,281,22482,2,0,P|415:250|456:244,1,85,0|0,1:0|0:0,0:0:0:0:
486,333,22766,1,0,3:0:0:0:
478,337,22861,6,0,P|394:315|312:295,1,170,4|0,3:2|1:0,0:0:0:0:
160,283,23431,6,0,L|173:323,1,42.5,0|0,3:0|0:0,0:0:0:0:
322,125,23811,2,0,L|336:166,1,42.5,0|0,3:0|0:0,0:0:0:0:
50,107,24190,6,0,P|93:62|155:63,1,127.5,4|0,3:2|0:0,0:0:0:0:
164,72,24570,1,8,0:3:0:0:
52,205,24760,1,8,0:3:0:0:
243,277,24950,1,4,0:3:0:0:
243,277,25330,6,0,L|230:235,1,42.5,0|0,1:0|0:0,0:0:0:0:
303,173,25520,1,0,3:0:0:0:
333,183,25614,1,0,3:0:0:0:
363,193,25709,1,0,1:0:0:0:
393,203,25804,1,0,3:0:0:0:
431,188,25899,6,0,P|481:122|472:37,1,170,4|0,3:2|1:0,0:0:0:0:
275,102,26469,1,0,3:0:0:0:
275,102,26564,1,0,3:0:0:0:
275,102,26659,1,0,3:0:0:0:
209,19,26849,5,0,3:0:0:0:
375,108,27039,1,0,1:0:0:0:
194,209,27228,2,0,P|128:160|47:175,1,170,0|0,3:0|3:0,0:0:0:0:
169,325,27798,2,0,P|209:314|250:302,1,85,0|0,1:0|0:0,0:0:0:0:
346,198,28178,1,0,3:0:0:0:
338,195,28273,2,0,L|326:153,1,42.5,0|0,1:0|3:0,0:0:0:0:
394,70,28558,6,0,P|429:91|470:87,1,85,0|0,1:0|0:0,0:0:0:0:
180,43,28937,2,0,P|224:0|287:0,1,127.5,4|0,3:2|0:0,0:0:0:0:
287,0,29317,1,0,1:0:0:0:
191,148,29507,1,0,3:0:0:0:
366,248,29697,1,0,1:0:0:0:
270,100,29887,1,0,3:0:0:0:
372,258,30077,1,0,1:0:0:0:
248,381,30266,6,0,B|240:349|205:333|205:333|237:234,1,170,4|0,3:2|3:0,0:0:0:0:
94,112,30836,2,0,P|103:143|117:193,1,85,0|0,1:0|0:0,0:0:0:0:
238,73,31216,1,0,3:0:0:0:
245,61,31311,1,0,1:0:0:0:
252,50,31406,1,0,1:0:0:0:
166,3,31595,1,0,1:0:0:0:
313,134,31785,1,0,3:0:0:0:
117,194,31975,6,0,L|76:180,1,42.5,2|0,1:2|0:0,0:0:0:0:
77,180,32925,5,0,1:2:0:0:
222,69,33114,1,0,1:2:0:0:
109,0,33304,2,0,L|119:41,1,42.5,2|0,1:2|0:0,0:0:0:0:
446,177,34633,6,0,P|406:147|356:152,1,102
275,148,35013,2,0,L|285:190,1,42.5,2|0,1:2|0:0,0:0:0:0:
285,189,35963,5,0,1:2:0:0:
116,336,36152,1,0,1:2:0:0:
234,378,36342,2,0,P|220:320|198:229,1,152.999995330811,4|0,1:2|3:0,0:0:0:0:
369,136,36912,1,2,1:2:0:0:
307,62,37102,2,0,P|261:119|284:188,1,152.999995330811,2|0,3:2|3:0,0:0:0:0:
414,249,37671,6,0,P|443:225|481:223,1,76.4999976654053,0|0,1:0|3:0,0:0:0:0:
498,237,37956,1,0,3:0:0:0:
498,237,38051,2,0,P|487:275|477:310,1,76.4999976654053,4|0,3:2|0:0,0:0:0:0:
369,137,38431,2,0,P|380:99|390:64,1,76.4999976654053,2|0,1:2|0:0,0:0:0:0:
222,0,38811,1,2,3:2:0:0:
246,84,39000,1,2,3:2:0:0:
270,171,39190,1,2,1:2:0:0:
190,260,39380,6,0,L|117:235,1,76.4999976654053,2|0,3:2|0:0,0:0:0:0:
314,337,39760,2,0,P|344:316|382:314,1,76.4999976654053,2|0,3:2|1:0,0:0:0:0:
512,164,40140,2,0,P|471:223|397:216,1,152.999995330811,2|0,0:0|3:0,0:0:0:0:
201,181,40709,1,0,1:0:0:0:
377,51,40899,1,0,1:0:0:0:
259,0,41089,6,0,P|275:69|294:148,1,152.999995330811,2|2,3:2|1:2,0:0:0:0:
150,247,41659,1,2,3:2:0:0:
119,224,41754,1,0,3:0:0:0:
115,185,41849,1,0,1:0:0:0:
201,181,42039,1,2,3:2:0:0:
67,316,42228,1,0,1:0:0:0:
248,367,42418,6,0,P|308:324|382:336,1,152.999995330811,2|0,3:2|3:0,0:0:0:0:
492,310,42988,2,0,L|469:383,1,76.4999976654053,0|0,1:0|0:0,0:0:0:0:
320,293,43368,5,0,3:0:0:0:
325,274,43463,1,0,1:0:0:0:
331,256,43557,1,0,3:0:0:0:
437,147,43747,2,0,P|423:103|406:49,1,101.999996887207,8|0,3:0|3:0,0:0:0:0:
418,35,44032,1,0,3:0:0:0:
418,35,44127,1,4,3:2:0:0:
419,34,44507,5,2,0:0:0:0:
338,118,44697,2,0,L|273:97,1,68,2|0,3:2|1:0,0:0:0:0:
203,26,45077,2,0,L|267:5,1,68,2|0,0:0|0:0,0:0:0:0:
158,140,45456,1,2,3:2:0:0:
85,86,45646,1,0,3:0:0:0:
164,245,45931,5,0,3:0:0:0:
169,237,46026,1,2,3:2:0:0:
237,191,46216,1,2,3:2:0:0:
125,382,46406,2,0,L|105:316,1,68,0|0,1:0|0:0,0:0:0:0:
235,199,46785,2,0,P|256:225|261:257,1,68,2|0,3:2|1:0,0:0:0:0:
324,305,47070,1,0,3:0:0:0:
332,307,47165,6,0,P|383:266|452:275,1,136,2|0,3:2|0:0,0:0:0:0:
511,192,47735,2,0,P|478:180|446:169,1,68,2|0,3:2|1:0,0:0:0:0:
441,55,48114,2,0,B|389:75|389:75|378:97|378:97|321:121,1,136,2|0,0:0|3:0,0:0:0:0:
186,0,48684,5,2,3:2:0:0:
222,101,48969,1,0,3:0:0:0:
229,103,49064,1,0,3:0:0:0:
121,137,49254,1,2,3:2:0:0:
85,36,49444,1,2,1:2:0:0:
196,208,49633,6,2,L|201:189,10,19.1249994163513,4|0|0|0|0|0|0|0|0|0|0,1:2|0:0|0:0|0:0|0:0|0:0|0:0|0:0|0:0|0:0|0:0,0:0:0:0:
160,275,50203,6,0,P|206:240|264:245,1,114.749996498108,4|0,3:2|0:0,0:0:0:0:
355,225,50583,2,0,L|335:298,1,76.4999976654053,2|2,1:2|3:2,0:0:0:0:
343,316,50868,1,0,3:0:0:0:
347,322,50963,1,0,3:0:0:0:
261,243,51152,1,2,3:2:0:0:
429,168,51342,1,0,1:0:0:0:
231,351,51532,6,0,P|171:305|97:313,1,152.999995330811,2|0,3:2|3:0,0:0:0:0:
261,243,52102,2,0,P|286:212|293:167,1,85,2|0,1:2|0:0,0:0:0:0:
177,113,52482,2,0,L|188:154,2,42.5,2|0|0,3:2|3:0|3:2,0:0:0:0:
375,272,52861,2,0,L|457:249,1,85,2|0,1:2|3:0,0:0:0:0:
507,181,53241,5,2,3:2:0:0:
449,130,53431,1,0,0:0:0:0:
374,148,53621,1,0,1:2:0:0:
207,279,53811,5,2,0:0:0:0:
132,297,54001,1,0,3:2:0:0:
74,246,54191,1,0,3:2:0:0:
266,142,54380,5,2,1:2:0:0:
293,221,54570,1,0,3:2:0:0:
321,301,54760,1,0,0:0:0:0:
368,142,54950,5,2,3:2:0:0:
213,268,55140,1,0,1:2:0:0:
402,338,55330,1,0,0:0:0:0:
173,123,55520,5,2,3:2:0:0:
328,248,55710,1,0,3:2:0:0:
139,319,55900,1,0,1:2:0:0:
118,313,55994,1,0,3:0:0:0:
98,307,56089,1,0,3:0:0:0:
77,301,56184,1,0,3:0:0:0:
57,296,56279,1,4,3:2:0:0:
57,296,56659,5,0,3:0:0:0:
146,242,56849,1,0,3:0:0:0:
48,302,57038,5,0,3:0:0:0:
241,364,57228,1,2,3:2:0:0:
40,308,57418,5,2,3:2:0:0:
278,143,57608,1,2,1:2:0:0:
278,143,58178,5,2,0:0:0:0:
284,134,58558,1,2,0:0:0:0:
457,269,58747,1,0,3:0:0:0:
460,262,58842,1,0,3:0:0:0:
463,256,58937,2,0,L|512:242,1,51,0|0,1:0|0:0,0:0:0:0:
510,325,59317,6,0,P|458:284|393:291,1,133.874995914459,4|0,3:2|0:0,0:0:0:0:
301,269,59697,2,0,L|325:354,1,89.2499972763062,2|0,1:2|0:0,0:0:0:0:
433,129,60077,2,0,L|408:43,1,89.2499972763062,2|0,3:2|0:0,0:0:0:0:
512,62,60456,1,0,1:2:0:0:
366,210,60646,6,0,B|323:153|252:166|252:166|241:191|213:197,1,178.499994552612,2|0,0:0|0:0,0:0:0:0:
48,263,61216,1,2,1:2:0:0:
180,123,61406,1,2,0:0:0:0:
55,79,61595,5,2,3:2:0:0:
156,292,61785,1,2,0:0:0:0:
105,185,61975,1,2,1:2:0:0:
109,177,62165,1,2,1:2:0:0:
252,23,62355,6,0,B|292:60|292:60|270:136,1,133.874995914459,4|0,3:2|0:0,0:0:0:0:
334,190,62735,2,0,L|427:163,1,89.2499972763062,2|0,1:2|0:0,0:0:0:0:
153,124,63114,2,0,L|67:148,1,89.2499972763062,2|0,3:2|0:0,0:0:0:0:
86,54,63494,1,2,1:2:0:0:
247,162,63684,6,0,P|229:242|207:338,1,178.499994552612,2|0,0:0|0:0,0:0:0:0:
416,197,64254,1,2,1:2:0:0:
339,268,64444,1,2,0:0:0:0:
461,309,64633,1,2,3:2:0:0:
471,304,64727,1,0,3:0:0:0:
481,299,64823,1,0,3:0:0:0:
316,146,65013,5,8,0:3:0:0:
304,176,65107,1,8,0:3:0:0:
279,199,65202,1,4,0:3:0:0:
247,207,65297,1,4,0:3:0:0:
216,201,65393,2,0,P|165:159|99:157,1,133.874995914459,2|0,3:2|0:0,0:0:0:0:
1,137,65773,2,0,P|12:177|25:223,1,89.2499972763062,2|0,1:2|0:3,0:3:0:0:
211,80,66152,2,0,P|236:44|237:0,1,89.2499972763062,2|0,3:2|0:0,0:0:0:0:
149,22,66532,1,2,1:2:0:0:
348,139,66722,6,0,B|470:103|470:103|447:123|442:146,1,178.499994552612,2|0,0:0|0:0,0:0:0:0:
442,145,67292,1,2,1:2:0:0:
346,270,67482,2,0,P|311:246|265:243,1,89.2499972763062,2|0,0:0|3:0,0:0:0:0:
56,208,67861,1,0,0:0:0:0:
217,113,68051,1,0,1:0:0:0:
46,42,68241,5,2,3:2:0:0:
40,48,68336,1,0,3:0:0:0:
35,54,68431,2,0,B|72:103|133:83|133:83|149:41|197:31,1,195.500003728867,2|0,3:2|3:0,0:0:0:0:
315,246,69001,2,0,P|229:204|218:111,1,195.500003728867,2|0,1:2|1:0,0:0:0:0:
444,97,69570,1,0,3:0:0:0:
316,0,69760,6,0,B|343:94,1,97.7500018644333,4|0,1:2|0:0,0:0:0:0:
492,176,70140,1,0,3:0:0:0:
467,261,70330,1,0,3:0:0:0:
442,346,70519,1,0,3:0:0:0:
233,215,70709,6,0,B|258:200|258:200|288:199,1,57.3750002188683,8|0,0:3|0:0,0:0:0:0:
308,277,70899,2,0,B|283:292|283:292|253:293,1,57.3750002188683,0|0,3:0|0:0,0:0:0:0:
19,215,71089,6,0,P|23:196|17:214,1,57.3750002188683,4|0,0:3|0:0,0:0:0:0:
126,129,71279,2,0,B|128:93|100:85|100:85|112:100|110:121,1,95.6250036478044,2|0,1:2|0:0,0:0:0:0:
104,129,71469,6,0,P|124:198|141:257,1,133.874995914459,4|0,3:2|0:0,0:0:0:0:
200,315,71849,2,0,P|226:280|223:236,1,89.2499972763062,2|0,1:2|0:0,0:0:0:0:
327,134,72228,2,0,P|309:93|270:74,1,89.2499972763062,2|0,3:2|0:0,0:0:0:0:
453,298,72608,1,2,1:2:0:0:
354,274,72798,6,0,P|409:208|496:207,1,178.499994552612,2|0,0:0|0:0,0:0:0:0:
381,374,73368,2,0,P|340:362|295:349,1,89.2499972763062,2|0,1:2|0:0,0:0:0:0:
191,232,73747,1,2,3:2:0:0:
260,162,73937,1,2,0:0:0:0:
166,137,74127,5,2,1:2:0:0:
283,257,74317,1,2,1:2:0:0:
89,383,74507,2,0,P|34:347|35:282,1,133.874995914459,2|0,3:2|0:0,0:0:0:0:
99,213,74887,2,0,P|110:253|123:298,1,89.2499972763062,2|0,1:2|0:0,0:0:0:0:
260,116,75266,2,0,P|248:74|236:31,1,89.2499972763062,2|0,3:2|0:0,0:0:0:0:
158,96,75646,1,0,1:0:0:0:
356,181,75836,6,0,B|403:129|474:148|474:148|490:172|511:176,1,178.499994552612,2|0,0:0|0:0,0:0:0:0:
400,291,76406,1,2,1:2:0:0:
313,267,76595,1,2,0:0:0:0:
227,243,76786,1,0,3:0:0:0:
223,234,76880,1,0,1:0:0:0:
219,225,76975,2,0,L|231:182,1,44.6249986381531,0|0,3:0|1:0,0:0:0:0:
332,43,77165,1,8,0:3:0:0:
373,77,77260,1,8,0:3:0:0:
368,130,77355,2,0,L|325:142,1,44.6249986381531,2|0,1:2|0:0,0:0:0:0:
189,92,77545,6,0,P|136:52|71:56,1,133.874995914459,2|0,3:2|0:0,0:0:0:0:
16,114,77925,2,0,L|39:199,1,89.2499972763062,2|0,1:2|0:0,0:0:0:0:
288,105,78304,2,0,L|265:20,1,89.2499972763062,2|0,3:2|0:0,0:0:0:0:
188,217,78684,1,2,1:2:0:0:
245,278,78874,2,0,P|322:316|407:298,1,178.499994552612,2|0,0:0|0:0,0:0:0:0:
318,190,79444,1,2,1:2:0:0:
163,333,79633,6,0,P|88:287|2:298,1,178.499994552612,2|0,0:0|0:0,0:0:0:0:
1,298,80203,1,0,1:0:0:0:
67,378,80393,1,2,1:2:0:0:
166,213,80583,6,0,L|119:40,1,178.499994552612,2|0,3:2|3:0,0:0:0:0:
271,221,81152,2,0,P|257:262|247:307,1,89.2499972763062,2|0,1:2|0:0,0:0:0:0:
30,262,81532,2,0,P|44:221|54:176,1,89.2499972763062,2|0,1:2|0:0,0:0:0:0:
263,72,81912,6,0,P|298:97|342:97,1,89.2499972763062,4|0,1:2|0:0,0:0:0:0:
396,37,82197,2,0,L|390:15,2,22.3124993190766,0|0|0,3:0|3:0|3:0,0:0:0:0:
495,113,82482,5,0,1:0:0:0:
313,221,82671,1,0,1:0:0:0:
451,280,82861,5,8,0:3:0:0:
343,97,83051,1,0,3:0:0:0:
241,309,83241,5,0,3:0:0:0:
339,108,83431,1,0,1:0:0:0:
512,384,83621,6,0,P|462:316|374:332,1,178.499994552612,4|0,3:2|1:0,0:0:0:0:
249,299,84190,2,0,P|260:338|273:384,1,89.2499972763062,2|0,3:2|1:0,0:0:0:0:
449,213,84570,2,0,P|438:174|425:128,1,89.2499972763062,2|0,3:2|1:0,0:0:0:0:
208,17,84950,6,0,P|289:30|293:114,1,178.499994552612,2|0,3:2|3:0,0:0:0:0:
148,225,85520,2,0,P|105:212|62:200,1,89.2499972763062,0|0,1:0|0:0,0:0:0:0:
62,200,85804,1,0,3:0:0:0:
62,200,85899,1,0,3:0:0:0:
196,146,86089,1,0,3:0:0:0:
283,246,86280,5,0,1:0:0:0:
274,271,86374,1,0,1:0:0:0:
268,295,86469,1,0,1:0:0:0:
261,320,86564,1,0,1:0:0:0:
254,344,86659,1,4,3:2:0:0:
256,192,86754,12,0,88463,0:0:0:0:
