osu file format v14

[General]
AudioFilename: audio.mp3
AudioLeadIn: 0
PreviewTime: 58607
Countdown: 0
SampleSet: Soft
StackLeniency: 0.7
Mode: 0
LetterboxInBreaks: 0
WidescreenStoryboard: 1

[Editor]
DistanceSpacing: 0.8
BeatDivisor: 4
GridSize: 32
TimelineZoom: 1

[Metadata]
Title:Gotoubun no Katachi (TV Size)
TitleUnicode:五等分のカタチ (TV Size)
Artist:Nakanoke no Itsutsugo
ArtistUnicode:中野家の五つ子
Creator:Mimari
Version:Insane
Source:五等分の花嫁∬
Tags:the quintessential quintuplets opening op season 2 second japanese anime jpop j-pop pop 5toubun no hanayome 5hanayome 5-toubun go-toubun gotoubun 中野 一花 二乃 三玖 四葉 五月 水瀬 いのり Minase Inori 佐倉 綾音 Sakura Ayane ayaneru 伊藤 美来 Itou 竹達 彩奈 Taketatsu Ayana 花澤 香菜 Hanazawa Kana hanakana Five Wedded Brides SaltyLucario SaltKing Alexsander Bellicose kuse Kubsnia_zhoyl_ reiSevia Roda Totsuki
BeatmapID:2757595
BeatmapSetID:1330999

[Difficulty]
HPDrainRate:4.5
CircleSize:3.8
OverallDifficulty:7.5
ApproachRate:8.8
SliderMultiplier:1.5
SliderTickRate:1

[Events]
//Background and Video events
0,0,"why.jpg",0,0
Video,-222,"gotoubun_op.mp4"
//Break Periods
//Storyboard Layer 0 (Background)
//Storyboard Layer 1 (Fail)
//Storyboard Layer 2 (Pass)
//Storyboard Layer 3 (Foreground)
//Storyboard Layer 4 (Overlay)
//Storyboard Sound Samples

[TimingPoints]
77,379.746835443038,4,2,1,40,1,0
77,-117.647058823529,4,2,1,40,0,0
16595,-105.263157894737,4,2,1,55,0,0
17545,-105.263157894737,4,2,1,55,0,0
19823,-95.2380952380951,4,2,1,60,0,0
31975,-95.2380952380951,4,2,1,65,0,0
34633,-133.333333333333,4,2,1,65,0,0
36342,-100,4,2,1,60,0,0
41469,-90.9090909090909,4,2,1,60,0,0
44127,-117.647058823529,4,2,1,55,0,0
49633,-105.263157894737,4,2,1,55,0,0
50203,-100,4,2,1,60,0,0
52861,-90.9090909090909,4,2,1,60,0,0
53241,-90.9090909090909,4,2,1,55,0,0
53811,-90.9090909090909,4,2,1,45,0,0
54380,-90.9090909090909,4,2,1,55,0,0
54950,-90.9090909090909,4,2,1,45,0,0
55520,-90.9090909090909,4,2,1,55,0,0
55899,-83.3333333333333,4,2,1,55,0,0
56279,-83.3333333333333,4,2,1,60,0,0
56659,-83.3333333333333,4,2,1,55,0,0
57039,-83.3333333333333,4,2,1,65,0,0
57418,-83.3333333333333,4,2,1,75,0,0
58178,-133.333333333333,4,2,1,55,0,0
58747,-133.333333333333,4,2,1,65,0,0
58937,-100,4,2,1,65,0,0
59317,-83.3333333333333,4,2,1,80,0,1
86659,-95.2380952380951,4,2,1,65,0,0
88368,-86.9565217391304,4,2,1,35,0,0

[Colours]
Combo1 : 252,133,151
Combo2 : 235,175,109
Combo3 : 249,166,232
Combo4 : 236,85,13
Combo5 : 184,133,95

[HitObjects]
420,40,77,6,0,P|452:31|496:22,2,63.7500012159348,2|0|2,0:0|0:0|0:0,0:0:0:0:
365,103,646,2,0,P|307:91|235:77,1,127.50000243187,2|0,0:0|0:0,0:0:0:0:
189,15,1216,1,2,0:0:0:0:
189,15,1406,2,0,P|159:59|189:141,1,127.50000243187,2|0,0:0|0:0,0:0:0:0:
251,176,1975,1,2,0:0:0:0:
251,176,2165,2,0,P|281:220|251:302,1,127.50000243187,2|0,0:0|0:0,0:0:0:0:
212,341,2735,2,0,L|139:356,1,63.7500012159348,2|2,0:0|0:0,0:0:0:0:
73,312,3114,6,0,L|3:301,2,63.7500012159348,2|0|2,0:0|0:0|0:0,0:0:0:0:
132,248,3684,2,0,P|120:188|106:118,1,127.50000243187,2|0,0:0|0:0,0:0:0:0:
71,53,4254,1,2,0:0:0:0:
71,53,4444,2,0,B|119:48|119:48|150:62|150:62|207:58,1,127.50000243187,2|0,0:0|0:0,0:0:0:0:
265,93,5013,1,2,0:0:0:0:
265,93,5203,2,0,B|313:89|313:89|344:103|344:103|401:99,1,127.50000243187,2|0,0:0|0:0,0:0:0:0:
471,89,5773,2,0,P|479:61|467:18,1,63.7500012159348,2|2,0:0|0:0,0:0:0:0:
256,192,6152,12,2,7482,0:0:0:0:
393,49,7671,6,0,P|334:25|265:62,1,127.50000243187,2|2,0:0|0:0,0:0:0:0:
165,181,8431,2,0,P|107:204|49:182,1,127.50000243187,2|0,1:2|0:0,0:0:0:0:
0,113,9001,5,2,0:0:0:0:
0,113,9190,2,0,L|87:92,1,63.7500012159348,0|2,0:0|0:0,0:0:0:0:
136,77,9570,2,0,L|223:56,1,63.7500012159348,2|2,0:0|0:0,0:0:0:0:
285,49,9950,1,2,1:2:0:0:
259,133,10140,1,2,0:0:0:0:
350,108,10330,2,0,P|385:102|425:131,1,63.7500012159348,2|0,0:0|0:0,0:0:0:0:
480,59,10709,6,0,B|512:98|512:98|479:193,1,127.50000243187,2|2,0:0|0:0,0:0:0:0:
512,327,11469,2,0,B|473:359|473:359|378:326,1,127.50000243187,2|0,1:2|0:0,0:0:0:0:
323,307,12039,5,2,0:0:0:0:
323,307,12228,2,0,P|318:343|337:380,1,63.7500012159348,0|2,0:0|0:0,0:0:0:0:
400,333,12608,2,0,P|405:297|386:260,1,63.7500012159348,2|2,0:0|0:0,0:0:0:0:
332,215,12988,1,2,1:2:0:0:
407,186,13178,1,0,0:0:0:0:
338,127,13368,1,0,0:0:0:0:
418,99,13558,1,2,3:2:0:0:
316,40,13747,6,0,B|241:31|263:76|179:64,1,127.50000243187,2|2,3:2|0:0,0:0:0:0:
48,158,14507,2,0,B|123:149|101:194|185:182,1,127.50000243187,2|2,1:2|0:0,0:0:0:0:
262,151,15077,5,2,3:2:0:0:
238,242,15266,2,0,L|224:317,1,63.7500012159348,0|2,3:2|0:0,0:0:0:0:
130,342,15646,1,2,0:0:0:0:
217,384,15836,2,0,B|263:374|263:374|276:376|290:379|290:379|348:361,1,127.50000243187,2|0,0:0|3:2,0:0:0:0:
452,361,16406,1,2,0:0:0:0:
471,223,16595,6,0,P|432:208|384:224,1,71.2499980974198,2|0,3:2|3:2,0:0:0:0:
330,297,16975,1,2,0:0:0:0:
292,183,17165,1,2,0:0:0:0:
246,275,17355,1,2,3:2:0:0:
196,193,17545,2,0,L|185:112,1,71.2499980974198,2|2,0:0|0:0,0:0:0:0:
227,21,17925,1,2,0:0:0:0:
292,183,18114,6,0,B|313:196|332:208|332:208|429:177,1,142.49999619484,2|2,3:2|0:0,0:0:0:0:
512,142,18684,1,2,0:0:0:0:
488,40,18874,2,0,P|455:24|400:41,1,71.2499980974198,0|0,3:2|3:2,0:0:0:0:
395,60,19159,1,8,0:0:0:0:
395,60,19254,2,0,P|363:75|328:72,1,71.2499980974198,8|8,0:0|3:0,0:0:0:0:
226,38,19633,1,8,0:0:0:0:
226,38,19728,1,8,0:0:0:0:
226,38,19823,6,0,L|244:135,1,78.7499975967408,6|0,3:2|0:0,0:0:0:0:
337,168,20203,2,0,L|319:265,1,78.7499975967408,10|0,0:0|0:0,0:0:0:0:
272,384,20583,1,2,3:2:0:0:
242,257,20773,1,0,3:2:0:0:
339,327,20963,1,8,0:0:0:0:
187,375,21152,6,0,P|174:304|157:207,1,157.499995193482,2|2,3:2|3:2,0:0:0:0:
141,115,21722,1,10,0:0:0:0:
64,233,21912,1,2,3:2:0:0:
41,103,22102,1,2,3:2:0:0:
41,103,22197,1,8,0:0:0:0:
41,103,22292,1,2,3:2:0:0:
159,219,22482,2,0,P|212:241|282:203,1,118.124996395111,8|0,0:0|0:0,0:0:0:0:
277,209,22861,6,0,L|287:106,1,78.7499975967408,6|0,3:2|0:0,0:0:0:0:
299,10,23241,1,10,0:0:0:0:
380,140,23431,2,0,L|372:218,1,78.7499975967408,2|0,3:2|0:0,0:0:0:0:
257,320,23811,2,0,P|294:287|338:287,1,78.7499975967408,10|0,0:0|0:0,0:0:0:0:
468,356,24190,6,0,B|413:373|370:388|370:388|345:371|323:359,1,157.499995193482,6|8,3:2|3:0,0:0:0:0:
277,209,24760,1,4,3:0:0:0:
415,288,24950,1,2,3:2:0:0:
429,283,25330,6,0,P|476:246|462:149,1,157.499995193482,10|10,0:0|0:0,0:0:0:0:
455,134,25804,1,2,0:0:0:0:
455,134,25899,2,0,L|366:121,1,78.7499975967408,6|0,3:2|0:0,0:0:0:0:
273,105,26279,1,8,0:0:0:0:
384,42,26469,1,0,0:0:0:0:
274,7,26659,1,0,3:2:0:0:
377,122,26849,2,0,P|392:165|371:221,1,78.7499975967408,2|10,3:2|0:0,0:0:0:0:
298,289,27228,6,0,B|204:272|234:339|144:312,1,157.499995193482,2|0,3:2|3:2,0:0:0:0:
27,274,27798,1,8,0:0:0:0:
133,230,27988,1,0,3:2:0:0:
79,353,28178,1,0,3:2:0:0:
79,353,28273,1,8,0:0:0:0:
79,353,28368,1,2,3:2:0:0:
13,199,28558,2,0,P|2:132|34:69,1,118.124996395111,10|0,0:0|0:0,0:0:0:0:
35,77,28937,6,0,L|139:96,1,78.7499975967408,4|2,3:2|0:0,0:0:0:0:
276,132,29317,1,8,0:0:0:0:
176,0,29507,1,2,3:2:0:0:
176,0,29602,1,8,0:0:0:0:
176,0,29697,2,0,L|188:86,1,78.7499975967408,10|2,0:0|3:2,0:0:0:0:
213,233,30077,1,10,0:0:0:0:
272,50,30266,6,0,B|352:32|335:100|426:71,1,157.499995193482,2|2,3:2|3:2,0:0:0:0:
512,0,30836,1,10,0:0:0:0:
442,187,31026,1,2,3:2:0:0:
385,0,31216,1,2,3:2:0:0:
512,123,31406,1,0,3:2:0:0:
325,177,31595,2,0,P|259:166|185:155,1,118.124996395111,10|0,0:0|0:0,0:0:0:0:
179,153,31975,5,10,0:0:0:0:
7,351,32925,5,10,0:0:0:0:
79,324,33114,1,10,0:0:0:0:
136,379,33304,1,10,0:0:0:0:
456,37,34633,6,0,L|468:143,1,84.3750032186509,2|0,0:0|0:0,0:0:0:0:
470,148,35013,5,10,0:0:0:0:
293,366,35963,5,10,0:0:0:0:
378,324,36152,1,10,0:0:0:0:
268,264,36342,6,0,B|204:269|204:269|191:277|182:287|182:287|104:295,1,150,14|2,0:0|3:2,0:0:0:0:
13,222,36912,1,10,0:0:0:0:
130,142,37102,2,0,P|144:179|136:222,1,75,2|0,3:2|0:0,0:0:0:0:
63,351,37482,1,2,3:2:0:0:
13,222,37671,1,10,0:0:0:0:
138,314,37861,1,8,0:0:0:0:
138,314,37956,1,8,0:0:0:0:
138,314,38051,6,0,L|244:297,1,75,6|0,3:2|0:0,0:0:0:0:
297,222,38431,2,0,L|191:205,1,75,10|0,0:0|0:0,0:0:0:0:
331,311,38811,1,2,3:2:0:0:
379,187,39001,1,2,3:2:0:0:
430,321,39190,1,10,0:0:0:0:
297,222,39380,6,0,P|288:191|302:140,1,75,2|0,3:2|0:0,0:0:0:0:
440,149,39760,2,0,P|418:172|367:186,1,75,2|8,3:2|0:0,0:0:0:0:
255,76,40140,2,0,B|311:69|311:69|327:73|341:83|341:83|429:70,1,150,2|0,3:2|3:2,0:0:0:0:
512,47,40709,1,8,0:0:0:0:
377,0,40899,1,8,0:0:0:0:
440,149,41089,5,6,3:2:0:0:
446,160,41469,2,0,L|442:261,1,82.5000025177003,10|2,0:0|3:2,0:0:0:0:
365,373,41849,2,0,L|352:285,1,82.5000025177003,8|2,0:0|3:2,0:0:0:0:
331,147,42228,1,8,0:0:0:0:
266,347,42418,6,0,P|207:355|161:249,1,165.000005035401,2|0,3:2|3:2,0:0:0:0:
192,108,42988,1,8,0:0:0:0:
234,272,43178,1,2,0:0:0:0:
118,165,43368,1,2,3:1:0:0:
118,165,43463,1,8,0:0:0:0:
118,165,43558,2,0,L|101:77,1,82.5000025177003,8|4,0:0|3:0,0:0:0:0:
13,0,43937,2,0,P|3:20|4:67,1,41.2500012588501,8|8,0:0|0:0,0:0:0:0:
5,72,44127,6,0,L|30:211,1,127.50000243187,6|2,3:2|0:0,0:0:0:0:
56,292,44697,1,2,3:2:0:0:
149,248,44887,2,0,L|136:359,2,95.6250018239022,8|8|10,0:0|0:0|0:0,0:0:0:0:
161,149,45646,6,0,L|170:57,1,63.7500012159348,2|0,3:2|0:0,0:0:0:0:
172,57,45931,1,0,3:2:0:0:
172,57,46026,1,2,0:0:0:0:
245,11,46216,1,2,3:2:0:0:
280,97,46406,2,0,P|307:109|347:103,1,63.7500012159348,8|2,0:0|0:0,0:0:0:0:
407,47,46785,1,0,3:2:0:0:
332,11,46975,1,10,0:0:0:0:
424,133,47165,6,0,L|408:277,1,127.50000243187,2|2,3:2|0:0,0:0:0:0:
396,358,47735,1,2,3:2:0:0:
323,295,47925,2,0,P|286:291|250:314,1,63.7500012159348,8|2,0:0|3:2,0:0:0:0:
246,327,48209,1,8,0:0:0:0:
246,327,48304,1,0,0:0:0:0:
178,383,48494,1,10,0:0:0:0:
94,341,48684,6,0,P|44:340|-1:382,2,95.6250018239022,2|0|2,3:2|3:2|0:0,0:0:0:0:
178,383,49444,1,10,0:0:0:0:
262,301,49633,2,0,P|288:244|244:169,1,142.49999619484,2|10,0:0|0:0,0:0:0:0:
232,160,50108,1,2,0:0:0:0:
232,160,50203,6,0,L|149:174,1,75,6|0,3:2|0:0,0:0:0:0:
27,109,50583,1,10,0:0:0:0:
151,57,50773,1,2,0:0:0:0:
151,57,50868,1,8,0:0:0:0:
151,57,50963,2,0,L|224:69,1,75,0|2,3:2|3:2,0:0:0:0:
360,87,51342,1,8,0:0:0:0:
252,10,51532,6,0,B|218:58|218:58|251:169,1,150,2|0,3:2|3:2,0:0:0:0:
323,241,52102,2,0,L|337:154,1,75,10|0,0:0|0:0,0:0:0:0:
230,280,52482,2,0,L|214:228,2,37.5,2|8|0,3:2|0:0|3:2,0:0:0:0:
350,377,52861,2,0,P|400:381|451:315,1,123.75000377655,10|0,0:0|0:0,0:0:0:0:
457,313,53241,5,2,3:2:0:0:
313,266,53431,1,2,0:0:0:0:
437,197,53621,2,0,P|483:202|525:239,1,82.5000025177003,10|2,0:0|0:0,0:0:0:0:
314,141,54001,2,0,L|339:35,1,82.5000025177003,2|2,3:2|3:2,0:0:0:0:
361,202,54380,1,10,0:0:0:0:
220,168,54570,1,2,3:2:0:0:
401,129,54760,5,2,0:0:0:0:
282,226,54950,1,2,3:2:0:0:
238,81,55140,2,0,P|199:61|147:73,1,82.5000025177003,10|2,0:0|0:0,0:0:0:0:
99,250,55520,1,2,3:2:0:0:
232,171,55709,1,2,3:2:0:0:
30,122,55899,2,0,B|12:139|-7:157|-7:157|20:269,1,134.999995880127,10|0,0:0|3:2,0:0:0:0:
26,276,56279,6,0,L|50:377,1,89.9999972534181,6|0,3:2|0:0,0:0:0:0:
181,233,56659,1,8,0:0:0:0:
0,199,56849,1,8,0:0:0:0:
115,336,57039,1,8,0:0:0:0:
164,131,57228,1,10,0:0:0:0:
26,276,57418,1,10,0:0:0:0:
239,365,57608,1,10,0:0:0:0:
249,371,58178,6,0,P|304:358|371:344,1,112.500004291535,2|2,0:2|0:2,0:0:0:0:
435,384,58747,1,0,3:2:0:0:
455,246,58937,2,0,L|376:230,1,75,8|2,0:0|0:0,0:0:0:0:
365,243,59222,1,2,0:0:0:0:
352,257,59317,6,0,L|448:274,1,89.9999972534181,6|0,3:2|0:0,0:0:0:0:
401,121,59697,2,0,P|355:135|336:175,1,89.9999972534181,10|0,0:0|0:0,0:0:0:0:
492,205,60077,2,0,B|508:179|529:156|529:156|484:32,1,179.999994506836,2|10,3:2|0:0,0:0:0:0:
371,12,60646,6,0,B|263:-6|309:83|170:44,1,179.999994506836,2|2,0:0|0:0,0:0:0:0:
45,2,61216,1,10,0:0:0:0:
95,155,61406,1,2,0:0:0:0:
193,33,61595,1,2,3:2:0:0:
11,115,61785,1,2,0:0:0:0:
168,207,61975,2,0,L|266:183,1,89.9999972534181,10|2,0:0|0:0,0:0:0:0:
95,155,62355,6,0,P|76:202|99:258,1,89.9999972534181,2|0,3:2|0:0,0:0:0:0:
234,259,62735,2,0,P|203:218|143:209,1,89.9999972534181,10|0,0:0|0:0,0:0:0:0:
116,351,63114,2,0,B|184:337|184:337|202:344|219:353|219:353|297:336,1,179.999994506836,2|10,3:2|0:0,0:0:0:0:
340,165,63684,6,0,P|275:164|238:269,1,179.999994506836,2|2,0:0|0:0,0:0:0:0:
380,364,64254,1,10,0:0:0:0:
422,182,64444,1,2,0:0:0:0:
321,248,64633,1,2,3:2:0:0:
321,248,64728,1,8,0:0:0:0:
321,248,64823,1,0,3:0:0:0:
490,334,65013,2,0,L|483:234,1,89.9999972534181,8|8,3:0|3:0,0:0:0:0:
469,86,65393,6,0,P|428:60|366:73,1,89.9999972534181,6|0,3:2|0:0,0:0:0:0:
328,164,65773,2,0,P|372:164|409:139,1,89.9999972534181,10|0,0:0|0:0,0:0:0:0:
242,85,66152,2,0,B|226:111|205:134|205:134|250:258,1,179.999994506836,2|10,3:2|0:0,0:0:0:0:
370,317,66722,6,0,B|262:299|308:388|169:349,1,179.999994506836,2|2,0:0|0:0,0:0:0:0:
94,291,67292,1,10,0:0:0:0:
200,229,67482,1,2,0:0:0:0:
120,380,67671,2,0,L|18:359,1,89.9999972534181,2|0,3:2|0:0,0:0:0:0:
8,202,68051,1,10,0:0:0:0:
94,291,68241,1,10,0:0:0:0:
160,130,68431,6,0,B|232:121|232:121|244:125|262:134|262:134|355:121,1,179.999994506836,6|2,3:2|3:2,0:0:0:0:
404,43,69001,2,0,P|364:18|307:26,1,89.9999972534181,10|0,0:0|0:0,0:0:0:0:
422,206,69380,2,0,P|426:163|438:103,1,89.9999972534181,10|4,0:0|3:0,0:0:0:0:
237,15,69760,6,0,P|169:32|176:146,1,179.999994506836,14|0,0:0|3:0,0:0:0:0:
264,281,70330,1,8,0:0:0:0:
308,98,70520,1,8,0:0:0:0:
145,215,70709,1,8,3:0:0:0:
370,306,70899,5,8,0:0:0:0:
239,148,71089,1,8,0:0:0:0:
184,383,71279,1,10,0:0:0:0:
374,200,71469,6,0,L|481:221,1,89.9999972534181,6|0,3:2|0:0,0:0:0:0:
264,281,71849,2,0,L|157:302,1,89.9999972534181,10|0,0:0|0:0,0:0:0:0:
6,143,72228,2,0,P|94:133|141:230,1,179.999994506836,2|10,3:2|0:0,0:0:0:0:
87,384,72798,6,0,P|73:303|56:195,1,179.999994506836,2|2,0:0|0:0,0:0:0:0:
189,63,73368,1,10,0:0:0:0:
142,200,73558,1,2,0:0:0:0:
76,19,73747,1,2,3:2:0:0:
225,149,73937,1,2,0:0:0:0:
15,202,74127,2,0,P|24:157|36:85,1,89.9999972534181,10|2,0:0|0:0,0:0:0:0:
161,8,74507,6,0,P|208:6|245:35,1,89.9999972534181,2|0,3:2|0:0,0:0:0:0:
165,213,74887,2,0,P|139:173|144:127,1,89.9999972534181,10|0,0:0|0:0,0:0:0:0:
319,67,75266,2,0,P|306:155|289:260,1,179.999994506836,2|10,3:2|0:0,0:0:0:0:
365,358,75836,6,0,P|437:356|479:261,1,179.999994506836,2|2,0:0|0:0,0:0:0:0:
445,117,76406,1,10,0:0:0:0:
390,275,76595,1,2,0:0:0:0:
329,124,76785,1,2,3:2:0:0:
329,124,76880,1,8,0:0:0:0:
329,124,76975,1,0,0:0:0:0:
480,267,77165,2,0,L|467:381,1,89.9999972534181,8|8,3:0|3:0,0:0:0:0:
330,211,77545,6,0,P|372:188|430:194,1,89.9999972534181,6|0,3:2|0:0,0:0:0:0:
350,370,77925,2,0,P|305:369|266:347,1,89.9999972534181,10|0,0:0|0:0,0:0:0:0:
172,208,78304,2,0,B|213:263|213:263|171:388,1,179.999994506836,2|10,3:2|0:0,0:0:0:0:
32,296,78874,6,0,L|124:279,1,89.9999972534181,2|0,0:0|3:2,0:0:0:0:
281,241,79254,1,2,0:0:0:0:
109,163,79444,1,10,0:0:0:0:
199,311,79633,1,2,0:0:0:0:
287,155,79823,2,0,P|299:117|271:54,1,89.9999972534181,0|0,3:2|0:0,0:0:0:0:
172,208,80203,1,8,0:0:0:0:
378,168,80393,1,10,0:0:0:0:
211,20,80583,6,0,P|114:25|83:99,1,179.999994506836,6|2,3:2|3:2,0:0:0:0:
178,225,81152,2,0,L|195:115,1,89.9999972534181,10|0,0:0|0:0,0:0:0:0:
46,230,81532,2,0,P|45:280|71:314,1,89.9999972534181,10|0,0:0|3:2,0:0:0:0:
211,359,81912,6,0,B|281:348|281:348|300:354|318:364|318:364|400:343,1,179.999994506836,6|0,3:2|3:2,0:0:0:0:
512,287,82482,1,8,0:0:0:0:
345,233,82671,1,8,0:0:0:0:
458,372,82861,1,4,3:0:0:0:
491,198,83051,1,8,0:0:0:0:
491,198,83146,1,8,0:0:0:0:
491,198,83241,2,0,L|513:75,1,89.9999972534181,8|10,0:0|0:0,0:0:0:0:
400,10,83621,6,0,P|345:10|315:100,1,134.999995880127,6|0,3:2|0:0,0:0:0:0:
319,96,84001,5,10,0:0:0:0:
512,66,84190,1,2,3:2:0:0:
335,191,84380,5,8,0:0:0:0:
400,10,84570,1,2,3:2:0:0:
416,260,84760,5,8,0:0:0:0:
307,73,84950,2,0,B|212:41|233:140|105:93,1,179.999994506836,2|0,3:2|3:2,0:0:0:0:
17,16,85520,2,0,L|39:114,1,89.9999972534181,8|0,0:0|0:0,0:0:0:0:
91,265,85899,2,0,L|113:167,1,89.9999972534181,0|0,3:2|3:2,0:0:0:0:
164,24,86279,1,8,0:0:0:0:
232,188,86469,1,8,0:0:0:0:
232,188,86564,1,8,0:0:0:0:
232,188,86659,5,6,3:2:0:0:
256,192,86754,12,0,88368,0:0:0:0:
