osu file format v14

[General]
AudioFilename: audio.mp3
AudioLeadIn: 0
PreviewTime: 58607
Countdown: 0
SampleSet: Soft
StackLeniency: 0.4
Mode: 0
LetterboxInBreaks: 0
WidescreenStoryboard: 1

[Editor]
DistanceSpacing: 0.8
BeatDivisor: 4
GridSize: 32
TimelineZoom: 1.7

[Metadata]
Title:Gotoubun no Katachi (TV Size)
TitleUnicode:五等分のカタチ (TV Size)
Artist:Nakanoke no Itsutsugo
ArtistUnicode:中野家の五つ子
Creator:Mimari
Version:Alex's Extra: Yotsuba
Source:五等分の花嫁∬
Tags:the quintessential quintuplets opening op season 2 second japanese anime jpop j-pop pop 5toubun no hanayome 5hanayome 5-toubun go-toubun gotoubun 中野 一花 二乃 三玖 四葉 五月 水瀬 いのり Minase Inori 佐倉 綾音 Sakura Ayane ayaneru 伊藤 美来 Itou 竹達 彩奈 Taketatsu Ayana 花澤 香菜 Hanazawa Kana hanakana Five Wedded Brides SaltyLucario SaltKing Alexsander Bellicose kuse Kubsnia_zhoyl_ reiSevia Roda Totsuki
BeatmapID:2757590
BeatmapSetID:1330999

[Difficulty]
HPDrainRate:5.5
CircleSize:4.5
OverallDifficulty:8
ApproachRate:9
SliderMultiplier:1.8
SliderTickRate:1

[Events]
//Background and Video events
0,0,"why.jpg",0,0
Video,-222,"gotoubun_op.mp4"
//Break Periods
//Storyboard Layer 0 (Background)
//Storyboard Layer 1 (Fail)
//Storyboard Layer 2 (Pass)
//Storyboard Layer 3 (Foreground)
//Storyboard Layer 4 (Overlay)
//Storyboard Sound Samples

[TimingPoints]
77,379.746835443038,4,2,1,40,1,0
77,-166.666666666667,4,2,1,40,0,0
7671,-125,4,2,1,40,0,0
16406,-111.111111111111,4,2,1,40,0,0
16595,-111.111111111111,4,2,1,55,0,0
16785,-100,4,2,1,55,0,0
19823,-100,4,2,1,60,0,0
31975,-100,4,2,1,65,0,0
34633,-166.666666666667,4,2,1,65,0,0
36342,-90.9090909090909,4,2,1,60,0,0
38051,-100,4,2,1,60,0,0
44127,-142.857142857143,4,2,1,55,0,0
49633,-100,4,2,1,55,0,0
50203,-100,4,2,1,60,0,0
53241,-100,4,2,1,55,0,0
53811,-100,4,2,1,45,0,0
54380,-100,4,2,1,55,0,0
54950,-100,4,2,1,45,0,0
55520,-100,4,2,1,55,0,0
56279,-83.3333333333333,4,2,1,60,0,0
56659,-83.3333333333333,4,2,1,55,0,0
57039,-83.3333333333333,4,2,1,65,0,0
57418,-83.3333333333333,4,2,1,75,0,0
58178,-83.3333333333333,4,2,1,55,0,0
58558,-166.666666666667,4,2,1,55,0,0
58747,-166.666666666667,4,2,1,65,0,0
58937,-100,4,2,1,65,0,0
59317,-90.9090909090909,4,2,1,80,0,1
69001,-71.4285714285714,4,2,1,80,0,1
69380,-111.111111111111,4,2,1,80,0,1
69760,-90.9090909090909,4,2,1,80,0,1
80583,-90.9090909090909,4,2,1,80,0,1
81152,-71.4285714285714,4,2,1,80,0,1
81532,-111.111111111111,4,2,1,80,0,1
81912,-90.9090909090909,4,2,1,80,0,1
85520,-90.9090909090909,4,2,1,80,0,1
86659,-100,4,2,1,65,0,0
88368,-100,4,2,1,35,0,0

[Colours]
Combo1 : 252,133,151
Combo2 : 235,175,109
Combo3 : 249,166,232
Combo4 : 236,85,13
Combo5 : 184,133,95

[HitObjects]
461,27,77,5,2,0:0:0:0:
461,27,266,1,0,0:0:0:0:
461,27,456,1,2,0:0:0:0:
461,27,646,2,0,L|442:140,1,107.999996704102,2|0,0:0|0:0,0:0:0:0:
404,200,1216,1,2,0:0:0:0:
404,200,1406,2,0,B|368:210|368:210|296:188,1,107.999996704102,2|0,0:0|0:0,0:0:0:0:
236,138,1975,1,2,0:0:0:0:
236,138,2165,2,0,P|209:182|229:235,1,107.999996704102,2|0,0:0|0:0,0:0:0:0:
306,315,2735,5,2,0:0:0:0:
284,312,2925,2,0,L|160:296,1,107.999996704102,2|0,0:0|0:0,0:0:0:0:
103,366,3494,1,2,0:0:0:0:
86,355,3684,2,0,B|59:324|59:324|70:245,1,107.999996704102,2|0,0:0|0:0,0:0:0:0:
151,144,4254,5,2,0:0:0:0:
135,165,4444,2,0,P|84:178|35:145,1,107.999996704102,2|0,0:0|0:0,0:0:0:0:
161,72,5013,1,2,0:0:0:0:
189,86,5203,2,0,P|225:123|221:182,1,107.999996704102,2|0,0:0|0:0,0:0:0:0:
178,290,5773,5,2,0:0:0:0:
251,303,5963,2,0,L|364:292,1,107.999996704102,2|0,0:0|0:0,0:0:0:0:
469,228,6532,1,2,0:0:0:0:
416,170,6722,2,0,P|396:199|391:224,1,53.9999983520508,2|0,0:0|0:0,0:0:0:0:
476,120,7102,1,2,0:0:0:0:
401,80,7292,1,2,0:0:0:0:
341,136,7482,1,2,0:0:0:0:
240,82,7671,6,0,P|223:47|224:10,1,72,2|0,0:0|0:0,0:0:0:0:
187,136,8051,2,0,P|218:153|253:154,1,72,2|0,0:0|0:0,0:0:0:0:
360,226,8431,2,0,P|332:174|248:156,1,144,2|0,1:2|0:0,0:0:0:0:
135,224,9001,6,0,L|285:227,1,144,2|2,0:0|0:0,0:0:0:0:
239,301,9570,2,0,L|167:299,1,72,2|2,0:0|0:0,0:0:0:0:
71,263,9950,1,2,1:2:0:0:
15,325,10140,1,2,0:0:0:0:
19,211,10330,2,0,P|62:190|127:210,1,108,2|0,0:0|0:0,0:0:0:0:
148,209,10709,6,0,L|168:136,1,72,2|0,0:0|0:0,0:0:0:0:
246,260,11089,2,0,L|226:187,1,72,2|0,0:0|0:0,0:0:0:0:
128,278,11469,2,0,L|166:139,1,144,2|0,1:2|0:0,0:0:0:0:
260,52,12039,6,0,P|319:31|387:76,1,144,2|2,0:0|0:0,0:0:0:0:
431,149,12608,1,2,0:0:0:0:
364,195,12798,1,2,0:0:0:0:
457,260,12988,2,0,P|470:298|463:332,1,72,2|0,1:2|0:0,0:0:0:0:
397,381,13368,1,0,0:0:0:0:
294,266,13558,5,2,3:2:0:0:
294,266,13747,2,0,P|246:251|203:266,1,72,2|0,3:2|0:0,0:0:0:0:
202,384,14127,2,0,P|238:349|247:305,1,72,2|0,0:0|0:0,0:0:0:0:
240,176,14507,2,0,P|180:182|147:262,1,144,2|2,1:2|0:0,0:0:0:0:
38,158,15077,6,0,L|112:148,1,72,2|0,3:2|3:2,0:0:0:0:
216,245,15456,1,2,0:0:0:0:
139,326,15646,1,2,0:0:0:0:
193,176,15836,2,0,B|233:143|233:143|333:160,1,144,2|0,0:0|3:2,0:0:0:0:
410,219,16406,1,2,0:0:0:0:
244,305,16595,6,0,L|258:216,1,80.9999975280763,2|0,3:2|3:2,0:0:0:0:
398,147,16975,1,2,0:0:0:0:
340,231,17165,1,2,0:0:0:0:
291,50,17355,1,2,3:2:0:0:
323,158,17545,1,2,0:0:0:0:
179,81,17735,1,2,0:0:0:0:
237,2,17925,1,2,0:0:0:0:
224,171,18114,6,0,P|171:182|133:168,1,90,2|0,3:2|0:0,0:0:0:0:
0,102,18494,1,2,0:0:0:0:
65,51,18684,2,0,B|82:105|82:105|63:165|63:165|83:232,1,180,2|0,0:0|3:2,0:0:0:0:
95,244,19159,1,8,0:0:0:0:
114,261,19254,1,8,0:0:0:0:
224,171,19444,5,8,3:0:0:0:
268,173,19539,1,0,0:0:0:0:
304,198,19633,1,8,0:0:0:0:
322,239,19728,1,8,0:0:0:0:
316,283,19823,6,0,L|208:286,1,90,6|0,3:2|0:0,0:0:0:0:
325,111,20203,2,0,L|414:108,1,90,10|0,0:0|0:0,0:0:0:0:
228,70,20583,1,2,3:2:0:0:
325,200,20773,1,0,3:2:0:0:
295,13,20963,1,8,0:0:0:0:
201,206,21152,6,0,P|137:225|66:180,1,135,2|0,3:2|0:0,0:0:0:0:
61,165,21532,1,2,3:2:0:0:
203,291,21722,1,10,0:0:0:0:
300,200,21912,2,0,P|308:226|308:245,1,45,2|8,3:2|0:0,0:0:0:0:
293,325,22102,1,2,3:2:0:0:
293,325,22197,1,8,0:0:0:0:
293,325,22292,1,2,3:2:0:0:
201,206,22482,1,8,0:0:0:0:
128,301,22671,1,0,0:0:0:0:
18,144,22861,6,0,P|64:105|143:123,1,135,6|0,3:2|0:0,0:0:0:0:
199,141,23241,2,0,L|219:77,1,45,10|0,0:0|0:0,0:0:0:0:
274,21,23431,2,0,P|320:60|399:42,1,135,2|0,3:2|0:0,0:0:0:0:
446,7,23811,2,0,L|409:151,1,135,10|0,0:0|0:0,0:0:0:0:
431,224,24190,6,0,P|385:199|345:203,1,90,6|0,3:2|0:0,0:0:0:0:
206,323,24570,1,8,3:0:0:0:
373,270,24760,1,4,3:0:0:0:
174,249,24950,2,0,L|66:236,1,90,2|0,3:2|3:2,0:0:0:0:
60,244,25235,1,0,3:0:0:0:
39,257,25330,2,0,L|50:306,1,45,10|0,0:0|0:0,0:0:0:0:
106,166,25520,2,0,L|95:117,1,45,2|2,3:2|0:0,0:0:0:0:
183,38,25709,1,10,0:0:0:0:
183,38,25804,1,2,0:0:0:0:
183,38,25899,6,0,P|234:25|295:73,1,135,6|0,3:2|0:0,0:0:0:0:
319,102,26279,2,0,L|343:10,1,90,8|0,0:0|0:0,0:0:0:0:
328,216,26659,1,0,3:2:0:0:
224,108,26849,1,2,3:2:0:0:
213,291,27039,1,10,0:0:0:0:
372,154,27228,6,0,P|455:159|489:268,1,180,2|0,3:2|3:2,0:0:0:0:
353,372,27798,1,8,0:0:0:0:
235,252,27988,2,0,P|216:282|209:311,1,45,0|8,3:2|0:0,0:0:0:0:
261,384,28178,1,0,3:2:0:0:
261,384,28273,1,8,0:0:0:0:
261,384,28368,1,2,3:2:0:0:
311,235,28558,2,0,P|278:186|194:194,1,135,10|0,0:0|0:0,0:0:0:0:
156,234,28937,5,4,3:2:0:0:
75,132,29127,1,2,0:0:0:0:
0,304,29317,1,8,0:0:0:0:
87,214,29507,1,2,3:2:0:0:
87,214,29602,1,8,0:0:0:0:
87,214,29697,1,10,0:0:0:0:
212,383,29887,1,2,3:2:0:0:
86,291,30077,1,10,0:0:0:0:
297,202,30266,6,0,B|341:290|254:297|306:392,1,180,2|2,3:2|3:2,0:0:0:0:
219,248,30836,1,10,0:0:0:0:
361,332,31026,1,2,3:2:0:0:
398,345,31121,1,8,0:0:0:0:
438,340,31216,1,2,3:2:0:0:
471,317,31311,1,8,0:0:0:0:
490,282,31406,5,0,3:2:0:0:
388,138,31595,1,10,0:0:0:0:
398,268,31785,1,0,3:2:0:0:
485,68,31975,5,10,0:0:0:0:
97,22,32925,5,10,0:0:0:0:
154,109,33114,1,10,0:0:0:0:
5,6,33304,1,10,0:0:0:0:
380,287,35013,5,10,0:0:0:0:
12,379,35963,5,10,0:0:0:0:
83,276,36152,1,10,0:0:0:0:
218,359,36342,6,0,P|314:362|358:265,1,198.000006042481,14|2,0:0|3:2,0:0:0:0:
204,143,36912,1,10,0:0:0:0:
283,100,37102,2,0,L|275:297,1,198.000006042481,2|2,3:2|3:2,0:0:0:0:
184,205,37671,1,10,0:0:0:0:
108,340,37861,1,8,0:0:0:0:
108,340,37956,1,8,0:0:0:0:
108,340,38051,6,0,P|51:332|19:298,1,90,6|0,3:2|0:0,0:0:0:0:
83,171,38431,2,0,L|91:274,1,90,10|0,0:0|0:0,0:0:0:0:
40,104,38811,1,2,3:2:0:0:
154,172,39001,1,2,3:2:0:0:
310,110,39190,1,10,0:0:0:0:
232,67,39380,6,0,L|223:173,1,90,2|0,3:2|0:0,0:0:0:0:
295,277,39760,2,0,L|302:187,1,90,2|8,3:2|0:0,0:0:0:0:
199,317,40140,2,0,B|263:306|263:306|314:326|314:326|399:313,1,180,2|0,3:2|3:2,0:0:0:0:
512,197,40709,1,8,0:0:0:0:
374,91,40899,1,8,0:0:0:0:
440,289,41089,6,0,P|448:241|430:200,1,90,6|0,3:2|0:0,0:0:0:0:
266,96,41469,1,10,0:0:0:0:
361,243,41659,1,2,3:2:0:0:
361,243,41754,1,0,3:2:0:0:
361,243,41849,1,8,0:0:0:0:
246,169,42039,1,2,3:2:0:0:
143,291,42228,1,8,0:0:0:0:
4,128,42418,5,2,3:2:0:0:
56,51,42608,2,0,P|100:131|44:211,1,180,2|8,0:0|0:0,0:0:0:0:
6,298,43178,5,2,0:0:0:0:
32,274,43273,1,8,0:0:0:0:
66,263,43368,1,2,3:1:0:0:
101,268,43463,1,8,0:0:0:0:
131,288,43558,1,8,0:0:0:0:
187,384,43747,1,4,3:0:0:0:
273,294,43937,1,8,0:0:0:0:
273,294,44032,1,8,0:0:0:0:
273,294,44127,6,0,L|293:159,1,125.999996154785,6|2,3:2|0:0,0:0:0:0:
254,88,44697,1,2,3:2:0:0:
135,150,44887,2,0,P|168:157|198:150,1,62.9999980773926,8|2,0:0|3:2,0:0:0:0:
196,150,45171,1,8,0:0:0:0:
196,150,45266,1,0,0:0:0:0:
135,72,45456,1,10,0:0:0:0:
74,192,45646,6,0,L|101:280,1,62.9999980773926,2|0,3:2|0:0,0:0:0:0:
98,283,45931,2,0,P|137:264|163:263,1,62.9999980773926,0|0,3:2|0:0,0:0:0:0:
178,285,46216,1,2,3:2:0:0:
303,333,46406,2,0,P|322:298|322:264,1,62.9999980773926,8|2,0:0|0:0,0:0:0:0:
226,195,46785,1,0,3:2:0:0:
255,282,46975,1,10,0:0:0:0:
316,162,47165,6,0,P|366:135|432:156,1,125.999996154785,2|2,3:2|0:0,0:0:0:0:
448,256,47735,1,2,3:2:0:0:
323,275,47925,2,0,L|250:276,1,62.9999980773926,8|2,0:0|3:2,0:0:0:0:
260,275,48209,1,8,0:0:0:0:
260,275,48304,1,0,0:0:0:0:
203,337,48494,1,10,0:0:0:0:
80,279,48684,6,0,P|61:244|63:206,1,62.9999980773926,2|0,3:2|0:0,0:0:0:0:
79,196,48969,2,0,P|86:160|77:126,1,62.9999980773926,0|0,3:2|0:0,0:0:0:0:
56,112,49254,1,2,0:0:0:0:
154,180,49444,1,10,0:0:0:0:
280,47,49633,6,0,P|339:22|430:92,1,180,2|10,0:0|0:0,0:0:0:0:
336,214,50203,6,0,P|325:165|340:127,1,90,6|0,3:2|0:0,0:0:0:0:
362,295,50583,1,10,0:0:0:0:
254,199,50773,1,2,0:0:0:0:
254,199,50868,1,8,0:0:0:0:
254,199,50963,1,0,3:2:0:0:
395,173,51152,2,0,L|489:173,1,90,2|8,3:2|0:0,0:0:0:0:
293,279,51532,6,0,P|243:225|136:250,1,180,2|0,3:2|3:2,0:0:0:0:
0,384,52102,2,0,L|105:365,1,90,10|0,0:0|0:0,0:0:0:0:
213,299,52482,1,2,3:2:0:0:
213,299,52577,1,8,0:0:0:0:
213,299,52671,1,0,3:2:0:0:
44,196,52861,2,0,L|36:295,1,90,10|8,0:0|0:0,0:0:0:0:
177,148,53241,5,2,3:2:0:0:
121,55,53431,1,2,0:0:0:0:
42,117,53621,1,10,0:0:0:0:
196,227,53811,5,2,0:0:0:0:
280,122,54001,1,2,3:2:0:0:
363,186,54190,1,2,3:2:0:0:
193,302,54380,5,10,0:0:0:0:
94,188,54570,1,2,3:2:0:0:
3,276,54759,1,2,0:0:0:0:
213,373,54950,5,2,3:2:0:0:
339,258,55140,1,10,0:0:0:0:
215,181,55329,1,2,0:0:0:0:
372,355,55520,5,2,3:2:0:0:
481,208,55710,1,2,3:2:0:0:
383,109,55899,1,10,0:0:0:0:
492,346,56089,5,0,3:1:0:0:
492,346,56184,1,8,3:2:0:0:
492,346,56279,2,0,P|455:290|363:284,1,161.999995056153,6|0,3:2|0:0,0:0:0:0:
319,336,56659,5,8,0:0:0:0:
263,178,56849,1,8,0:0:0:0:
410,351,57039,5,8,0:0:0:0:
209,244,57228,1,10,0:0:0:0:
492,346,57418,5,10,0:0:0:0:
154,319,57608,1,10,0:0:0:0:
7,15,58178,5,2,0:2:0:0:
25,237,58558,5,2,0:2:0:0:
90,145,58747,1,0,3:2:0:0:
190,256,58937,2,0,P|232:213|305:219,1,135,8|0,0:0|0:0,0:0:0:0:
357,269,59317,6,0,L|381:171,1,99.0000030212403,6|0,3:2|0:0,0:0:0:0:
231,26,59697,2,0,L|255:124,1,99.0000030212403,10|0,0:0|0:0,0:0:0:0:
460,163,60077,2,0,P|417:104|321:118,1,148.50000453186,2|0,3:2|0:0,0:0:0:0:
315,161,60456,1,10,0:0:0:0:
142,47,60646,6,0,P|176:23|232:27,1,99.0000030212403,2|0,0:0|3:2,0:0:0:0:
132,137,61026,1,2,0:0:0:0:
280,222,61216,1,10,0:0:0:0:
166,272,61406,1,2,0:0:0:0:
315,161,61595,1,2,3:2:0:0:
401,303,61785,1,2,0:0:0:0:
206,204,61975,1,10,0:0:0:0:
276,308,62165,2,0,P|275:333|265:355,1,49.5000015106202,2|0,0:0|0:0,0:0:0:0:
143,291,62355,6,0,P|96:264|43:267,1,99.0000030212403,2|0,3:2|0:0,0:0:0:0:
197,155,62735,2,0,P|155:180|106:181,1,99.0000030212403,10|0,0:0|0:0,0:0:0:0:
271,0,63114,2,0,L|291:170,1,148.50000453186,2|0,3:2|0:0,0:0:0:0:
330,217,63494,1,10,0:0:0:0:
455,68,63684,6,0,L|354:56,1,99.0000030212403,2|0,0:0|3:2,0:0:0:0:
214,116,64064,1,2,0:0:0:0:
400,173,64254,1,10,0:0:0:0:
277,53,64444,1,2,0:0:0:0:
209,244,64633,5,2,3:2:0:0:
174,263,64728,1,8,0:0:0:0:
135,267,64823,1,0,3:0:0:0:
98,256,64918,1,8,0:0:0:0:
68,230,65013,1,8,3:0:0:0:
137,359,65203,1,8,3:0:0:0:
144,163,65393,6,0,L|42:146,1,99.0000030212403,6|0,3:2|0:0,0:0:0:0:
272,247,65773,2,0,L|170:264,1,99.0000030212403,10|0,0:0|0:0,0:0:0:0:
357,360,66152,2,0,P|407:311|487:336,1,148.50000453186,2|0,3:2|0:0,0:0:0:0:
428,380,66532,1,10,0:0:0:0:
272,247,66722,6,0,P|258:195|274:151,1,99.0000030212403,2|0,0:0|3:2,0:0:0:0:
381,24,67102,1,2,0:0:0:0:
327,200,67292,1,10,0:0:0:0:
213,24,67482,2,0,P|161:10|117:26,1,99.0000030212403,2|2,0:0|3:2,0:0:0:0:
45,117,67861,1,0,0:0:0:0:
206,207,68051,1,10,0:0:0:0:
59,286,68241,1,10,0:0:0:0:
217,121,68431,6,0,P|281:115|340:191,1,148.50000453186,6|0,3:2|0:0,0:0:0:0:
374,248,68811,2,0,L|409:214,1,49.5000015106202,2|0,3:2|0:0,0:0:0:0:
425,348,69001,6,0,B|395:279|316:272|316:272|286:281|265:304,1,188.999994232178,10|0,0:0|0:0,0:0:0:0:
235,355,69380,6,0,L|87:337,1,121.499996292114,10|0,0:0|0:0,0:0:0:0:
43,293,69760,6,0,P|82:260|93:197,1,99.0000030212403,14|0,0:0|0:0,0:0:0:0:
66,83,70140,1,0,3:0:0:0:
173,227,70330,1,8,0:0:0:0:
251,113,70520,1,8,0:0:0:0:
353,289,70709,1,8,3:0:0:0:
495,198,70899,5,8,0:0:0:0:
479,177,70994,1,8,3:0:0:0:
458,158,71089,2,2,L|381:162,1,49.5000015106202,10|2,0:0|3:0,0:0:0:0:
369,69,71279,2,2,L|292:73,1,49.5000015106202,10|2,0:0|3:0,0:0:0:0:
199,189,71469,6,0,P|146:200|98:178,1,99.0000030212403,6|0,3:2|0:0,0:0:0:0:
0,301,71849,2,0,P|53:290|101:312,1,99.0000030212403,10|0,0:0|0:0,0:0:0:0:
275,379,72228,2,0,L|260:221,1,148.50000453186,2|0,3:2|0:0,0:0:0:0:
294,168,72608,1,10,0:0:0:0:
437,298,72798,6,0,L|335:294,1,99.0000030212403,2|0,0:0|3:2,0:0:0:0:
225,164,73178,1,2,0:0:0:0:
140,331,73368,1,10,0:0:0:0:
90,179,73558,1,2,0:0:0:0:
268,301,73747,1,2,3:2:0:0:
89,274,73937,1,2,0:0:0:0:
279,179,74127,1,10,0:0:0:0:
156,55,74317,2,0,L|163:103,1,49.5000015106202,2|0,0:0|0:0,0:0:0:0:
340,136,74507,6,0,P|299:106|240:112,1,99.0000030212403,2|0,3:2|0:0,0:0:0:0:
88,118,74887,2,0,P|134:97|158:43,1,99.0000030212403,10|0,0:0|0:0,0:0:0:0:
240,231,75266,2,0,L|79:229,1,148.50000453186,2|0,3:2|0:0,0:0:0:0:
44,282,75646,1,10,0:0:0:0:
164,158,75836,6,0,P|205:137|269:150,1,99.0000030212403,2|0,0:0|3:2,0:0:0:0:
373,289,76216,1,2,0:0:0:0:
349,117,76406,1,10,0:0:0:0:
277,297,76596,1,2,0:0:0:0:
434,145,76785,5,2,3:2:0:0:
429,105,76880,1,8,0:0:0:0:
410,71,76975,1,0,0:0:0:0:
380,47,77070,1,8,0:0:0:0:
341,37,77165,1,8,3:0:0:0:
231,146,77355,1,8,3:0:0:0:
434,244,77545,6,0,L|434:120,1,99.0000030212403,6|0,3:2|0:0,0:0:0:0:
282,285,77925,2,0,L|282:409,1,99.0000030212403,10|0,0:0|0:0,0:0:0:0:
499,324,78304,2,0,P|449:275|369:300,1,148.50000453186,2|0,3:2|0:0,0:0:0:0:
429,345,78684,1,10,0:0:0:0:
282,211,78874,6,0,L|170:212,1,99.0000030212403,2|0,0:0|3:2,0:0:0:0:
17,173,79254,1,2,0:0:0:0:
181,290,79444,1,10,0:0:0:0:
118,89,79633,2,0,B|95:151|95:151|118:212|118:212|92:296,1,198.000006042481,2|0,0:0|0:0,0:0:0:0:
23,98,80203,1,8,0:0:0:0:
0,273,80393,1,10,0:0:0:0:
192,147,80583,6,0,L|363:147,1,148.50000453186,6|0,3:2|0:0,0:0:0:0:
404,181,80963,2,0,P|419:155|420:122,1,49.5000015106202,2|0,3:2|0:0,0:0:0:0:
378,53,81152,6,0,B|334:22|334:22|272:71|188:35,1,188.999994232178,10|0,0:0|0:0,0:0:0:0:
137,13,81532,6,0,P|178:64|146:133,1,121.499996292114,10|0,0:0|0:0,0:0:0:0:
93,163,81912,6,0,P|148:160|194:207,1,99.0000030212403,6|0,3:2|0:0,0:0:0:0:
199,207,82197,1,8,0:0:0:0:
208,232,82292,1,0,3:2:0:0:
55,363,82482,1,8,0:0:0:0:
278,295,82671,1,8,0:0:0:0:
85,243,82861,1,4,3:0:0:0:
292,377,83051,1,8,0:0:0:0:
310,370,83146,1,8,0:0:0:0:
330,360,83241,1,8,0:0:0:0:
118,312,83431,1,10,0:0:0:0:
375,267,83621,6,0,P|416:218|399:119,1,148.50000453186,6|0,3:2|0:0,0:0:0:0:
362,82,84001,1,10,0:0:0:0:
244,215,84190,1,2,3:2:0:0:
443,71,84380,1,8,0:0:0:0:
226,130,84570,1,2,3:2:0:0:
494,132,84760,1,8,0:0:0:0:
201,57,84950,6,0,B|150:104|150:104|182:242,1,198.000006042481,2|0,3:2|3:2,0:0:0:0:
349,233,85520,2,0,P|306:209|248:220,1,99.0000030212403,8|0,0:0|0:0,0:0:0:0:
137,329,85899,2,0,L|247:319,1,99.0000030212403,0|0,3:2|3:2,0:0:0:0:
104,216,86279,5,8,0:0:0:0:
77,175,86373,1,8,0:0:0:0:
78,126,86468,1,8,0:0:0:0:
106,86,86563,1,8,0:0:0:0:
150,74,86659,5,6,3:2:0:0:
256,192,86754,12,0,88368,0:0:0:0:
