osu file format v14

[General]
AudioFilename: audio.mp3
AudioLeadIn: 0
PreviewTime: 58652
Countdown: 0
SampleSet: Normal
StackLeniency: 0.7
Mode: 1
LetterboxInBreaks: 0
WidescreenStoryboard: 0

[Editor]
Bookmarks: 7671,19823,31975,44127,71469
DistanceSpacing: 1.1
BeatDivisor: 4
GridSize: 32
TimelineZoom: 1.5

[Metadata]
Title:Gotoubun no Katachi (TV Size)
TitleUnicode:五等分のカタチ (TV Size)
Artist:Nakanoke no Itsutsugo
ArtistUnicode:中野家の五つ子
Creator:BlackBq
Version:Nakano Oni
Source:五等分の花嫁∬
Tags:Anime op opening season 2 season2 2nd japanese pop jpop j-pop The Quintessential Quintuplets Go-Toubun 5-toubun 5toubun 上杉 風太郎 Uesugi Futaro 松岡禎丞 Matsuoka Yoshitsugu 一花 Ichika 花澤香菜 Hanazawa Kana 二乃 Nino 竹達彩奈 Taketatsu Ayana 三玖 Miku 伊藤美来 Ito 四葉 Yotsuba 佐倉綾音 Sakura Ayane 五月 Itsuki 水瀬いのり Minase Inori Hanayome romantic comedy harem faputa
BeatmapID:2796003
BeatmapSetID:1350472

[Difficulty]
HPDrainRate:5.5
CircleSize:2
OverallDifficulty:5.5
ApproachRate:10
SliderMultiplier:1.4
SliderTickRate:1

[Events]
//Background and Video events
Video,-222,"gotoubun_2.mp4"
0,0,"Oni.jpg",0,75
//Break Periods
//Storyboard Layer 0 (Background)
//Storyboard Layer 1 (Fail)
//Storyboard Layer 2 (Pass)
//Storyboard Layer 3 (Foreground)
//Storyboard Layer 4 (Overlay)
//Storyboard Sound Samples

[TimingPoints]
77,379.746835443038,4,1,0,35,1,0
77,-111.111111111111,4,1,0,35,0,0
6532,-111.111111111111,4,1,0,42,0,0
7292,-111.111111111111,4,1,0,50,0,0
7671,-108.695652173913,4,1,0,50,0,0
13368,-107.52688172043,4,1,0,50,0,0
13558,-106.382978723404,4,1,0,50,0,0
13652,-106.382978723404,4,1,0,60,0,0
13747,-105.263157894737,4,1,0,60,0,0
16216,-104.166666666667,4,1,0,60,0,0
16311,-103.092783505155,4,1,0,70,0,0
16406,-103.092783505155,4,1,0,70,0,0
16595,-102.040816326531,4,1,0,70,0,0
16785,-101.010101010101,4,1,0,70,0,0
16975,-100,4,1,0,70,0,0
19064,-100,4,1,0,73,0,0
19728,-100,4,1,0,75,0,0
22861,-97.0873786407767,4,1,0,75,0,0
23241,-94.3396226415094,4,1,0,75,0,0
23431,-91.743119266055,4,1,0,75,0,0
23811,-89.2857142857143,4,1,0,75,0,0
24190,-86.9565217391304,4,1,0,75,0,0
24570,-100,4,1,0,75,0,0
31216,-101.010101010101,4,1,0,75,0,0
31311,-102.040816326531,4,1,0,75,0,0
31406,-103.092783505155,4,1,0,75,0,0
31595,-104.166666666667,4,1,0,75,0,0
31880,-104.166666666667,4,1,0,65,0,0
31975,-105.263157894737,4,1,0,65,0,0
35963,-104.166666666667,4,1,0,65,0,0
36247,-104.166666666667,4,1,0,70,0,0
36722,-103.092783505155,4,1,0,70,0,0
37482,-102.040816326531,4,1,0,70,0,0
37861,-101.010101010101,4,1,0,70,0,0
38051,-100,4,1,0,70,0,0
43178,-101.010101010101,4,1,0,70,0,0
43368,-102.040816326531,4,1,0,70,0,0
43463,-102.30179028133,4,1,0,70,0,0
43558,-102.564102564103,4,1,0,70,0,0
43747,-103.092783505155,4,1,0,70,0,0
43937,-104.166666666667,4,1,0,70,0,0
44032,-105.263157894737,4,1,0,65,0,0
47165,-104.166666666667,4,1,0,65,0,0
48684,-103.092783505155,4,1,0,65,0,0
49633,-102.040816326531,4,1,0,65,0,0
49823,-101.522842639594,4,1,0,65,0,0
49918,-101.010101010101,4,1,0,65,0,0
50013,-100.502512562814,4,1,0,65,0,0
50203,-100,4,1,0,65,0,0
56184,-100,4,1,0,75,0,0
56279,-99.009900990099,4,1,0,75,0,0
56849,-98.0392156862745,4,1,0,75,0,0
57039,-97.0873786407767,4,1,0,75,0,0
57133,-96.1538461538461,4,1,0,75,0,0
57228,-95.2380952380952,4,1,0,75,0,0
57418,-94.3396226415094,4,1,0,75,0,0
57608,-93.4579439252336,4,1,0,75,0,0
58083,-100,4,1,0,65,0,0
58178,-94.3396226415094,4,1,0,65,0,0
58558,-93.4579439252336,4,1,0,65,0,0
58747,-92.5925925925926,4,1,0,65,0,0
58842,-92.5925925925926,4,1,0,70,0,0
58937,-91.743119266055,4,1,0,70,0,0
59222,-91.743119266055,4,1,0,80,0,0
59317,-90.9090909090909,4,1,0,80,0,1
68431,-88.4955752212389,4,1,0,80,0,1
68811,-86.2068965517241,4,1,0,80,0,1
69001,-84.0336134453781,4,1,0,80,0,1
69380,-81.9672131147541,4,1,0,80,0,1
69760,-80,4,1,0,80,0,1
69950,-90.9090909090909,4,1,0,80,0,1
70709,-90.9090909090909,4,1,0,80,0,0
71469,-90.9090909090909,4,1,0,80,0,1
80583,-88.4955752212389,4,1,0,80,0,1
80963,-86.2068965517241,4,1,0,80,0,1
81152,-84.0336134453781,4,1,0,80,0,1
81532,-81.9672131147541,4,1,0,80,0,1
81912,-80,4,1,0,80,0,1
82102,-90.9090909090909,4,1,0,80,0,1
86564,-90.9090909090909,4,1,0,70,0,1
86659,-90.9090909090909,4,1,0,70,0,0
86754,-90.9090909090909,4,1,0,60,0,0

[HitObjects]
256,192,77,5,0,0:0:0:0:
256,192,266,1,0,0:0:0:0:
256,192,456,1,8,0:0:0:0:
256,192,646,1,8,0:0:0:0:
256,192,1026,1,0,0:0:0:0:
256,192,1216,1,8,0:0:0:0:
256,192,1406,1,8,0:0:0:0:
256,192,1785,1,8,0:0:0:0:
256,192,1975,1,0,0:0:0:0:
256,192,2165,1,8,0:0:0:0:
256,192,2545,1,0,0:0:0:0:
256,192,2735,1,8,0:0:0:0:
256,192,3114,1,0,0:0:0:0:
256,192,3304,1,0,0:0:0:0:
256,192,3494,1,8,0:0:0:0:
256,192,3684,1,0,0:0:0:0:
256,192,4064,1,0,0:0:0:0:
256,192,4254,1,8,0:0:0:0:
256,192,4444,1,8,0:0:0:0:
256,192,4823,1,8,0:0:0:0:
256,192,5013,1,0,0:0:0:0:
256,192,5203,1,8,0:0:0:0:
256,192,5583,1,0,0:0:0:0:
256,192,5773,1,0,0:0:0:0:
256,192,5963,1,8,0:0:0:0:
256,192,6152,12,0,7482,0:0:0:0:
256,192,7671,5,8,0:0:0:0:
256,192,8051,1,8,0:0:0:0:
256,192,8241,1,0,0:0:0:0:
256,192,8431,1,8,0:0:0:0:
256,192,8811,1,0,0:0:0:0:
256,192,9001,1,8,0:0:0:0:
256,192,9380,1,0,0:0:0:0:
256,192,9570,1,8,0:0:0:0:
256,192,9760,1,8,0:0:0:0:
256,192,9950,1,0,0:0:0:0:
256,192,10140,1,8,0:0:0:0:
256,192,10330,1,0,0:0:0:0:
256,192,10709,1,8,0:0:0:0:
256,192,11089,1,0,0:0:0:0:
256,192,11279,1,0,0:0:0:0:
256,192,11469,1,8,0:0:0:0:
256,192,11849,1,0,0:0:0:0:
256,192,12039,1,8,0:0:0:0:
256,192,12418,1,0,0:0:0:0:
256,192,12608,1,8,0:0:0:0:
256,192,12798,1,0,0:0:0:0:
256,192,12988,1,0,0:0:0:0:
256,192,13368,1,8,0:0:0:0:
256,192,13558,1,0,0:0:0:0:
256,192,13747,1,8,0:0:0:0:
256,192,14127,1,0,0:0:0:0:
256,192,14317,1,0,0:0:0:0:
256,192,14507,1,8,0:0:0:0:
288,192,14887,1,0,0:0:0:0:
256,192,15077,1,8,0:0:0:0:
256,192,15266,1,0,0:0:0:0:
256,192,15456,1,0,0:0:0:0:
256,192,15646,1,8,0:0:0:0:
256,192,15836,1,8,0:0:0:0:
256,192,16216,1,0,0:0:0:0:
256,192,16406,1,8,0:0:0:0:
256,192,16595,1,8,0:0:0:0:
417,71,16785,1,4,0:0:0:0:
256,192,16975,1,0,0:0:0:0:
256,192,17070,1,0,0:0:0:0:
256,192,17165,1,8,0:0:0:0:
256,192,17355,1,0,0:0:0:0:
256,192,17545,1,8,0:0:0:0:
256,192,17735,1,8,0:0:0:0:
256,192,17830,1,0,0:0:0:0:
256,192,17925,1,8,0:0:0:0:
367,85,18114,1,12,0:0:0:0:
256,192,18494,1,8,0:0:0:0:
256,192,18684,1,8,0:0:0:0:
256,192,18874,1,0,0:0:0:0:
256,192,19159,5,0,0:0:0:0:
256,192,19254,1,8,0:0:0:0:
256,192,19444,1,0,0:0:0:0:
256,192,19539,1,0,0:0:0:0:
256,192,19633,1,8,0:0:0:0:
416,96,19823,1,4,0:0:0:0:
256,192,20013,1,0,0:0:0:0:
256,192,20108,1,0,0:0:0:0:
256,192,20203,1,8,0:0:0:0:
256,192,20393,1,0,0:0:0:0:
256,192,20583,1,8,0:0:0:0:
256,192,20773,1,0,0:0:0:0:
256,192,20963,1,0,0:0:0:0:
448,96,21152,1,12,0:0:0:0:
256,192,21532,1,8,0:0:0:0:
256,192,21722,1,0,0:0:0:0:
256,192,21817,1,0,0:0:0:0:
256,192,21912,1,8,0:0:0:0:
256,192,22102,1,0,0:0:0:0:
256,192,22292,1,0,0:0:0:0:
256,192,22482,1,8,0:0:0:0:
416,64,22861,1,4,0:0:0:0:
416,96,23241,1,4,0:0:0:0:
416,96,23431,1,12,0:0:0:0:
416,64,23811,1,4,0:0:0:0:
416,64,24190,1,12,0:0:0:0:
256,192,24570,1,0,0:0:0:0:
256,192,24760,1,8,0:0:0:0:
256,192,24950,1,0,0:0:0:0:
256,192,25330,1,0,0:0:0:0:
256,192,25520,1,0,0:0:0:0:
256,192,25614,1,0,0:0:0:0:
256,192,25709,1,8,0:0:0:0:
448,96,25899,1,4,0:0:0:0:
256,192,26279,1,8,0:0:0:0:
256,192,26469,1,0,0:0:0:0:
256,192,26659,1,0,0:0:0:0:
256,192,26849,1,8,0:0:0:0:
256,192,27039,1,0,0:0:0:0:
256,192,27228,1,8,0:0:0:0:
256,192,27608,1,0,0:0:0:0:
256,192,27798,1,8,0:0:0:0:
256,192,27988,1,0,0:0:0:0:
256,192,28178,1,0,0:0:0:0:
256,192,28273,1,0,0:0:0:0:
256,192,28368,1,0,0:0:0:0:
256,192,28558,1,8,0:0:0:0:
416,64,28937,1,4,0:0:0:0:
256,192,29127,1,0,0:0:0:0:
256,192,29317,1,8,0:0:0:0:
256,192,29507,1,0,0:0:0:0:
256,192,29697,1,8,0:0:0:0:
256,192,29792,1,0,0:0:0:0:
256,192,29887,1,8,0:0:0:0:
256,192,30077,1,0,0:0:0:0:
448,64,30266,1,12,0:0:0:0:
256,192,30646,1,0,0:0:0:0:
256,192,30836,1,8,0:0:0:0:
256,192,31026,1,0,0:0:0:0:
256,192,31216,1,8,0:0:0:0:
256,192,31311,1,8,0:0:0:0:
256,192,31406,1,0,0:0:0:0:
256,192,31595,1,8,0:0:0:0:
256,192,31975,1,0,0:0:0:0:
256,192,32925,1,0,0:0:0:0:
256,192,33114,1,0,0:0:0:0:
256,192,33304,1,8,0:0:0:0:
256,192,35013,1,8,0:0:0:0:
256,192,35963,1,0,0:0:0:0:
256,192,36152,1,0,0:0:0:0:
384,96,36342,1,12,0:0:0:0:
256,192,36722,1,8,0:0:0:0:
256,192,36912,1,0,0:0:0:0:
256,192,37102,1,8,0:0:0:0:
256,192,37482,1,0,0:0:0:0:
256,192,37671,1,8,0:0:0:0:
256,192,37766,1,0,0:0:0:0:
256,192,37861,1,8,0:0:0:0:
416,64,38051,1,4,0:0:0:0:
256,192,38431,1,8,0:0:0:0:
256,192,38621,1,0,0:0:0:0:
256,192,38811,1,8,0:0:0:0:
256,192,38906,1,8,0:0:0:0:
256,192,39001,1,0,0:0:0:0:
256,192,39190,1,8,0:0:0:0:
256,192,39380,1,0,0:0:0:0:
256,192,39760,1,0,0:0:0:0:
256,192,39950,1,0,0:0:0:0:
256,192,40140,1,8,0:0:0:0:
256,192,40520,1,0,0:0:0:0:
256,192,40709,1,8,0:0:0:0:
256,192,40804,1,8,0:0:0:0:
256,192,40899,1,8,0:0:0:0:
416,96,41089,1,4,0:0:0:0:
256,192,41469,1,8,0:0:0:0:
256,192,41659,1,0,0:0:0:0:
256,192,41754,1,0,0:0:0:0:
256,192,41849,1,8,0:0:0:0:
256,192,42039,1,8,0:0:0:0:
256,192,42228,1,0,0:0:0:0:
256,192,42418,1,8,0:0:0:0:
256,192,42513,1,8,0:0:0:0:
256,192,42608,1,0,0:0:0:0:
256,192,42798,1,0,0:0:0:0:
256,192,42988,1,8,0:0:0:0:
256,192,43178,1,0,0:0:0:0:
256,192,43368,1,0,0:0:0:0:
256,192,43463,1,0,0:0:0:0:
256,192,43558,1,8,0:0:0:0:
256,192,43747,1,8,0:0:0:0:
256,192,43937,1,0,0:0:0:0:
422,103,44127,1,4,0:0:0:0:
224,160,44507,1,8,0:0:0:0:
256,192,44697,1,0,0:0:0:0:
224,160,44887,1,8,0:0:0:0:
256,192,45171,1,0,0:0:0:0:
256,192,45266,1,8,0:0:0:0:
256,192,45456,1,0,0:0:0:0:
256,192,45646,1,0,0:0:0:0:
224,192,45931,1,0,0:0:0:0:
256,192,46026,1,0,0:0:0:0:
224,160,46216,1,0,0:0:0:0:
224,160,46406,1,8,0:0:0:0:
224,160,46785,1,8,0:0:0:0:
256,192,46975,1,0,0:0:0:0:
224,160,47165,1,8,0:0:0:0:
256,192,47545,1,0,0:0:0:0:
256,160,47735,1,8,0:0:0:0:
224,192,47925,1,0,0:0:0:0:
224,192,48209,1,8,0:0:0:0:
192,160,48304,1,8,0:0:0:0:
224,192,48494,1,8,0:0:0:0:
224,192,48684,1,0,0:0:0:0:
224,192,48969,1,0,0:0:0:0:
224,192,49064,1,0,0:0:0:0:
224,192,49254,1,8,0:0:0:0:
224,192,49444,1,0,0:0:0:0:
448,64,49633,1,12,0:0:0:0:
224,192,49823,1,0,0:0:0:0:
224,192,49918,1,0,0:0:0:0:
224,192,50013,1,8,0:0:0:0:
416,128,50203,1,8,0:0:0:0:
224,192,50583,1,0,0:0:0:0:
224,192,50773,1,0,0:0:0:0:
224,192,50868,1,0,0:0:0:0:
224,192,50963,1,8,0:0:0:0:
224,192,51152,1,0,0:0:0:0:
224,192,51342,1,8,0:0:0:0:
224,192,51532,1,0,0:0:0:0:
224,192,51912,1,0,0:0:0:0:
224,192,52102,1,8,0:0:0:0:
224,160,52292,1,0,0:0:0:0:
224,192,52482,1,8,0:0:0:0:
224,192,52577,1,8,0:0:0:0:
224,192,52671,1,0,0:0:0:0:
224,192,52861,1,8,0:0:0:0:
256,192,53241,1,8,0:0:0:0:
256,192,53431,1,0,0:0:0:0:
256,192,53526,1,0,0:0:0:0:
256,192,53621,1,8,0:0:0:0:
256,192,53811,1,0,0:0:0:0:
256,192,54001,1,8,0:0:0:0:
256,192,54190,1,8,0:0:0:0:
256,192,54380,1,0,0:0:0:0:
256,192,54570,1,8,0:0:0:0:
256,192,54665,1,8,0:0:0:0:
256,192,54760,1,0,0:0:0:0:
256,192,54950,1,8,0:0:0:0:
256,192,55140,1,0,0:0:0:0:
256,192,55330,1,8,0:0:0:0:
256,192,55520,1,0,0:0:0:0:
256,192,55709,1,0,0:0:0:0:
256,192,55804,1,0,0:0:0:0:
256,192,55899,1,8,0:0:0:0:
416,96,56279,1,4,0:0:0:0:
256,192,56659,1,0,0:0:0:0:
256,192,56849,1,0,0:0:0:0:
256,192,57039,1,8,0:0:0:0:
256,192,57133,1,8,0:0:0:0:
256,192,57228,1,0,0:0:0:0:
256,192,57418,1,8,0:0:0:0:
256,192,57608,1,0,0:0:0:0:
256,192,58178,1,8,0:0:0:0:
256,192,58558,1,0,0:0:0:0:
256,192,58747,1,0,0:0:0:0:
256,192,58937,1,8,0:0:0:0:
256,192,59032,1,8,0:0:0:0:
256,192,59127,1,0,0:0:0:0:
416,96,59317,1,12,0:0:0:0:
256,192,59507,1,0,0:0:0:0:
256,192,59697,1,0,0:0:0:0:
256,192,59792,1,0,0:0:0:0:
256,192,59887,1,8,0:0:0:0:
256,192,60077,1,8,0:0:0:0:
256,192,60456,1,0,0:0:0:0:
256,192,60646,1,8,0:0:0:0:
256,160,60741,1,8,0:0:0:0:
256,160,60836,1,0,0:0:0:0:
256,192,61026,1,0,0:0:0:0:
256,192,61216,1,8,0:0:0:0:
256,192,61406,1,8,0:0:0:0:
256,192,61501,1,8,0:0:0:0:
256,192,61595,1,8,0:0:0:0:
256,192,61785,1,0,0:0:0:0:
256,192,61975,1,8,0:0:0:0:
256,192,62165,1,0,0:0:0:0:
256,192,62260,1,0,0:0:0:0:
256,192,62355,1,8,0:0:0:0:
256,192,62545,1,8,0:0:0:0:
256,192,62735,1,8,0:0:0:0:
256,192,62830,1,8,0:0:0:0:
256,192,62925,1,0,0:0:0:0:
256,192,63114,1,8,0:0:0:0:
256,192,63494,1,0,0:0:0:0:
256,192,63684,1,8,0:0:0:0:
256,160,63779,1,8,0:0:0:0:
256,192,63874,1,0,0:0:0:0:
256,192,64064,1,8,0:0:0:0:
256,192,64254,1,0,0:0:0:0:
256,192,64349,1,0,0:0:0:0:
256,192,64444,1,8,0:0:0:0:
256,192,64633,1,0,0:0:0:0:
256,192,65013,1,8,0:0:0:0:
256,192,65108,1,8,0:0:0:0:
256,192,65203,1,0,0:0:0:0:
384,96,65393,1,12,0:0:0:0:
256,192,65583,1,0,0:0:0:0:
256,192,65773,1,8,0:0:0:0:
256,192,65868,1,8,0:0:0:0:
256,192,65963,1,0,0:0:0:0:
256,192,66152,1,8,0:0:0:0:
256,192,66532,1,0,0:0:0:0:
256,192,66722,1,8,0:0:0:0:
256,192,66817,1,8,0:0:0:0:
256,192,66912,1,0,0:0:0:0:
256,192,67102,1,8,0:0:0:0:
256,192,67197,1,0,0:0:0:0:
256,192,67292,1,8,0:0:0:0:
256,192,67482,1,8,0:0:0:0:
256,192,67671,1,0,0:0:0:0:
256,192,67861,1,8,0:0:0:0:
256,192,68051,1,8,0:0:0:0:
256,192,68241,1,0,0:0:0:0:
416,96,68431,1,12,0:0:0:0:
416,96,68811,1,12,0:0:0:0:
416,96,69001,1,4,0:0:0:0:
416,96,69380,1,12,0:0:0:0:
416,96,69760,1,4,0:0:0:0:
192,160,70140,1,0,0:0:0:0:
256,192,70330,1,8,0:0:0:0:
256,192,70425,1,0,0:0:0:0:
256,192,70520,1,8,0:0:0:0:
256,192,70709,1,0,0:0:0:0:
256,192,70899,1,0,0:0:0:0:
256,192,70994,1,0,0:0:0:0:
256,192,71089,1,8,0:0:0:0:
256,192,71279,1,0,0:0:0:0:
448,96,71469,1,12,0:0:0:0:
256,192,71659,1,0,0:0:0:0:
256,192,71849,1,8,0:0:0:0:
256,192,71944,1,8,0:0:0:0:
256,192,72039,1,0,0:0:0:0:
256,192,72228,1,8,0:0:0:0:
256,192,72608,1,0,0:0:0:0:
256,192,72798,1,8,0:0:0:0:
256,160,72893,1,8,0:0:0:0:
256,160,72988,1,0,0:0:0:0:
256,192,73178,1,0,0:0:0:0:
256,192,73368,1,8,0:0:0:0:
256,192,73558,1,8,0:0:0:0:
256,192,73652,1,0,0:0:0:0:
256,192,73747,1,8,0:0:0:0:
256,192,73937,1,0,0:0:0:0:
256,192,74127,1,8,0:0:0:0:
256,192,74317,1,0,0:0:0:0:
256,192,74412,1,0,0:0:0:0:
256,192,74507,1,8,0:0:0:0:
256,192,74697,1,8,0:0:0:0:
256,192,74887,1,8,0:0:0:0:
256,192,74982,1,8,0:0:0:0:
256,192,75077,1,8,0:0:0:0:
256,192,75266,1,0,0:0:0:0:
256,192,75646,1,0,0:0:0:0:
256,192,75836,1,8,0:0:0:0:
256,160,75931,1,8,0:0:0:0:
256,192,76026,1,8,0:0:0:0:
256,192,76216,1,0,0:0:0:0:
256,192,76406,1,8,0:0:0:0:
256,192,76595,1,0,0:0:0:0:
256,192,76785,1,0,0:0:0:0:
256,192,76880,1,0,0:0:0:0:
256,192,76975,1,8,0:0:0:0:
256,192,77070,1,8,0:0:0:0:
256,192,77165,1,0,0:0:0:0:
256,192,77355,1,0,0:0:0:0:
384,96,77545,1,12,0:0:0:0:
256,192,77735,1,0,0:0:0:0:
256,192,77925,1,8,0:0:0:0:
256,192,78020,1,8,0:0:0:0:
256,192,78114,1,0,0:0:0:0:
256,192,78304,1,8,0:0:0:0:
256,192,78684,1,0,0:0:0:0:
256,192,78874,1,8,0:0:0:0:
256,192,78969,1,8,0:0:0:0:
256,192,79064,1,0,0:0:0:0:
256,192,79254,1,8,0:0:0:0:
256,192,79349,1,0,0:0:0:0:
256,192,79444,1,8,0:0:0:0:
256,192,79633,1,0,0:0:0:0:
256,192,79823,1,0,0:0:0:0:
256,192,80013,1,8,0:0:0:0:
256,192,80203,1,8,0:0:0:0:
256,192,80393,1,0,0:0:0:0:
384,96,80583,1,12,0:0:0:0:
384,96,80963,1,12,0:0:0:0:
384,96,81152,1,4,0:0:0:0:
384,96,81532,1,12,0:0:0:0:
384,96,81912,1,4,0:0:0:0:
256,192,82292,1,0,0:0:0:0:
256,192,82482,1,0,0:0:0:0:
256,192,82671,1,8,0:0:0:0:
256,192,82861,1,0,0:0:0:0:
256,128,82956,1,0,0:0:0:0:
256,192,83051,1,8,0:0:0:0:
256,192,83241,1,0,0:0:0:0:
256,192,83431,1,0,0:0:0:0:
384,96,83621,1,12,0:0:0:0:
256,192,84001,1,8,0:0:0:0:
256,192,84190,1,0,0:0:0:0:
256,192,84285,1,0,0:0:0:0:
256,192,84380,1,8,0:0:0:0:
256,192,84570,1,8,0:0:0:0:
256,192,84760,1,8,0:0:0:0:
384,128,84950,1,4,0:0:0:0:
256,192,85330,1,0,0:0:0:0:
256,192,85520,1,8,0:0:0:0:
256,192,85709,1,0,0:0:0:0:
256,192,85899,1,8,0:0:0:0:
256,192,85994,1,8,0:0:0:0:
256,192,86089,1,0,0:0:0:0:
256,192,86279,1,8,0:0:0:0:
256,192,86469,1,0,0:0:0:0:
441,70,86659,1,12,0:0:0:0:
256,192,86849,12,0,88368,0:0:0:0:
